osu file format v13

[General]
AudioFilename: BOFftH.mp3
AudioLeadIn: 0
PreviewTime: -1
Countdown: 0
SampleSet: Normal
StackLeniency: 0.7
Mode: 0
LetterboxInBreaks: 1
WidescreenStoryboard: 0

[Editor]
DistanceSpacing: 1.2
BeatDivisor: 4
GridSize: 4
TimelineZoom: 1

[Metadata]
Title:F.O.E. BOF2012
TitleUnicode:チームF.O.E. BOF2012曲クロスフェード
Artist:Ginkiha
ArtistUnicode:Ginkiha
Creator:Kevin97
Version:Insane
Source:
Tags:
BeatmapID:461414
BeatmapSetID:194268

[Difficulty]
HPDrainRate:6
CircleSize:4
OverallDifficulty:5
ApproachRate:9
SliderMultiplier:1.6
SliderTickRate:2

[Events]
//Background and Video events
//Break Periods
2,45257,49714
//Storyboard Layer 0 (Background)
//Storyboard Layer 1 (Fail)
//Storyboard Layer 2 (Pass)
//Storyboard Layer 3 (Foreground)
//Storyboard Sound Samples
//Background Colour Transformations
3,100,163,162,255

[TimingPoints]
0,342.857142857143,4,1,0,100,1,0
50914,648.648648648649,4,1,0,100,1,0
50914,-200,4,1,0,100,0,0
50914,-200,4,1,0,100,0,0
61292,324.324324324324,4,1,0,100,1,0
61292,-83.3333333333333,4,1,0,100,0,0
73291,-83.3333333333333,4,1,0,100,0,0
90927,428.571428571429,4,1,0,100,1,0
90960,-83.3333333333333,4,1,0,100,0,0

[HitObjects]
256,265,4114,5,0,0:0:0:0:
198,238,4285,1,0,0:0:0:0:
183,176,4457,1,0,0:0:0:0:
223,125,4628,1,0,0:0:0:0:
287,125,4800,1,0,0:0:0:0:
327,174,4971,1,0,0:0:0:0:
314,237,5142,1,0,0:0:0:0:
256,265,5314,1,0,0:0:0:0:
198,238,5485,6,0,L|152:240,3,40,0|0|0|0,0:0|0:0|0:0|0:0,0:0:0:0:
158,239,5828,6,0,L|119:265,3,40,0|0|0|0,0:0|0:0|0:0|0:0,0:0:0:0:
125,261,6171,6,0,L|80:248,3,40,0|0|0|0,0:0|0:0|0:0|0:0,0:0:0:0:
60,240,6514,5,0,0:0:0:0:
44,212,6600,1,0,0:0:0:0:
48,180,6685,1,0,0:0:0:0:
68,164,6771,1,0,0:0:0:0:
256,192,6857,12,0,8228,0:0:0:0:
312,128,9600,6,0,P|276:152|224:148,2,80,0|0|0,0:0|0:0|0:0,0:0:0:0:
240,153,10114,2,0,P|196:184|192:216,2,80,0|0|0,0:0|0:0|0:0,0:0:0:0:
316,128,10628,5,0,0:0:0:0:
432,124,10800,1,0,0:0:0:0:
344,196,10971,1,0,0:0:0:0:
372,76,11142,1,0,0:0:0:0:
416,196,11314,1,0,0:0:0:0:
316,128,11485,5,0,0:0:0:0:
432,124,11657,1,0,0:0:0:0:
344,196,11828,1,0,0:0:0:0:
372,76,12000,1,0,0:0:0:0:
416,196,12171,1,0,0:0:0:0:
380,264,12342,6,0,B|240:304|232:208|64:264,2,320,0|0|0,0:0|0:0|0:0,0:0:0:0:
440,236,13885,5,0,0:0:0:0:
380,264,14057,1,0,0:0:0:0:
316,276,14228,1,0,0:0:0:0:
248,276,14400,6,0,B|200:276|228:240|228:240|228:192,3,80,0|0|0|0,0:0|0:0|0:0|0:0,0:0:0:0:
200,128,15085,6,0,P|236:152|288:148,2,80,0|0|0,0:0|0:0|0:0,0:0:0:0:
272,153,15599,2,0,P|316:184|320:216,2,80,0|0|0,0:0|0:0|0:0,0:0:0:0:
196,128,16113,5,0,0:0:0:0:
80,124,16285,1,0,0:0:0:0:
168,196,16456,1,0,0:0:0:0:
140,76,16627,1,0,0:0:0:0:
96,196,16799,1,0,0:0:0:0:
196,128,16970,5,0,0:0:0:0:
80,124,17142,1,0,0:0:0:0:
168,196,17313,1,0,0:0:0:0:
140,76,17485,1,0,0:0:0:0:
96,196,17656,1,0,0:0:0:0:
132,264,17827,6,0,B|272:304|280:208|448:264,2,320,0|0|0,0:0|0:0|0:0,0:0:0:0:
168,192,19371,5,0,0:0:0:0:
256,116,19542,1,0,0:0:0:0:
352,192,19714,1,0,0:0:0:0:
168,192,19885,6,0,L|96:272,2,80,0|0|0,0:0|0:0|0:0,0:0:0:0:
168,192,20400,1,0,0:0:0:0:
352,192,20571,2,0,B|244:192|244:192|244:72|88:72,2,320,0|0|0,0:0|0:0|0:0,0:0:0:0:
248,192,22114,2,0,L|164:192,2,80,0|0|0,0:0|0:0|0:0,0:0:0:0:
248,192,22628,1,0,0:0:0:0:
248,192,22800,2,0,L|336:192,2,80,0|0|0,0:0|0:0|0:0,0:0:0:0:
168,192,23314,6,0,P|128:224|16:184,2,160,0|0|0,0:0|0:0|0:0,0:0:0:0:
96,156,24171,1,0,0:0:0:0:
28,201,24342,2,0,L|28:288,1,80,0|0,0:0|0:0,0:0:0:0:
172,108,24685,2,0,L|172:24,1,80
248,156,25028,2,0,L|336:156,1,80
408,156,25371,5,0,0:0:0:0:
376,156,25542,1,0,0:0:0:0:
344,156,25714,1,0,0:0:0:0:
308,156,25885,1,0,0:0:0:0:
188,192,26057,6,0,P|160:216|116:216,1,80
164,116,26400,2,0,P|192:92|236:92,1,80,0|0,0:0|0:0,0:0:0:0:
164,116,26742,2,0,L|188:200,2,80,0|0|0,0:0|0:0|0:0,0:0:0:0:
140,52,27257,1,0,0:0:0:0:
80,104,27428,6,0,L|-8:104,1,80
204,176,27771,6,0,L|292:176,1,80
132,268,28114,6,0,L|44:268,1,80
264,48,28457,6,0,L|352:48,1,80
52,280,28800,6,0,P|68:192|156:192,1,160
112,244,29314,1,0,0:0:0:0:
252,120,29485,6,0,P|236:208|148:208,1,160
192,156,30000,1,0,0:0:0:0:
312,80,30171,2,0,L|396:80,3,80,0|0|0|0,0:0|0:0|0:0|0:0,0:0:0:0:
464,80,30857,5,0,0:0:0:0:
444,108,30942,1,0,0:0:0:0:
420,136,31028,1,0,0:0:0:0:
400,164,31114,5,0,0:0:0:0:
376,192,31200,1,0,0:0:0:0:
352,216,31285,1,0,0:0:0:0:
324,232,31371,5,0,0:0:0:0:
292,244,31457,1,0,0:0:0:0:
260,252,31542,5,0,0:0:0:0:
148,256,31714,1,0,0:0:0:0:
204,180,31885,1,0,0:0:0:0:
260,252,32057,1,0,0:0:0:0:
148,256,32228,2,0,L|100:256,7,40,0|0|0|0|0|0|0|0,0:0|0:0|0:0|0:0|0:0|0:0|0:0|0:0,0:0:0:0:
292,160,32914,6,0,L|344:160,1,40
304,120,33085,2,0,L|356:120,1,40
320,84,33257,2,0,L|372:84,1,40
340,40,33428,2,0,L|392:40,1,40
220,52,33600,6,0,P|192:100|144:132,2,80,0|0|0,0:0|0:0|0:0,0:0:0:0:
120,152,34114,1,0,0:0:0:0:
136,212,34285,2,0,P|160:240|224:256,2,80,0|0|0,0:0|0:0|0:0,0:0:0:0:
264,260,34800,1,0,0:0:0:0:
328,228,34971,2,0,P|356:192|360:152,2,80,0|0|0,0:0|0:0|0:0,0:0:0:0:
264,260,35485,1,0,0:0:0:0:
388,260,35657,6,0,L|440:260,7,40,0|0|0|0|0|0|0|0,0:0|0:0|0:0|0:0|0:0|0:0|0:0|0:0,0:0:0:0:
220,160,36342,6,0,L|168:160,1,40
208,120,36513,2,0,L|156:120,1,40
192,84,36685,2,0,L|140:84,1,40
172,40,36856,2,0,L|120:40,1,40
56,44,37028,2,0,L|56:212,1,160
56,276,37714,1,0,0:0:0:0:
212,276,38057,6,0,L|132:276,2,80,0|0|0,0:0|0:0|0:0,0:0:0:0:
132,212,38571,1,0,0:0:0:0:
208,160,38742,1,0,0:0:0:0:
128,112,38914,1,0,0:0:0:0:
208,56,39085,6,0,P|272:56|272:252,1,320
172,252,39942,1,0,0:0:0:0:
260,312,40114,1,0,0:0:0:0:
224,200,40285,1,0,0:0:0:0:
192,316,40457,1,0,0:0:0:0:
276,248,40628,1,0,0:0:0:0:
156,188,40800,1,0,0:0:0:0:
324,292,40971,1,0,0:0:0:0:
128,300,41142,1,0,0:0:0:0:
288,184,41314,1,0,0:0:0:0:
88,188,41485,1,0,0:0:0:0:
356,184,41657,1,0,0:0:0:0:
224,188,41828,1,0,0:0:0:0:
156,188,42000,2,0,L|260:36,1,160
246,55,42514,1,0,0:0:0:0:
116,104,50914,6,0,B|116:152|116:152|192:152|192:152|192:232|192:232|284:232,1,280
268,232,53508,2,0,B|428:232|428:232|428:288|384:288,1,240
324,292,55778,1,0,0:0:0:0:
248,292,56103,6,0,B|248:244|248:244|172:244|172:244|172:164|172:164|80:164,1,280
96,164,58697,2,0,B|144:104|144:104|176:164|200:104|200:104|332:104,1,280
192,192,61292,6,0,P|256:176|288:148,1,95.9999970703126
288,96,61616,1,0,0:0:0:0:
256,32,61778,2,0,P|223:70|220:116,1,95.9999970703126
248,176,62102,1,0,0:0:0:0:
312,200,62264,2,0,P|368:168|412:184,1,95.9999970703126
368,236,62589,1,0,0:0:0:0:
325,186,62751,2,0,P|296:223|308:268,1,95.9999970703126
392,156,63075,5,0,0:0:0:0:
440,96,63237,1,0,0:0:0:0:
424,28,63400,1,0,0:0:0:0:
344,28,63562,2,0,L|236:28,1,95.9999970703126
156,32,63886,6,0,P|128:80|132:128,1,95.9999970703126
200,92,64210,1,0,0:0:0:0:
180,176,64373,2,0,P|205:140|200:84,3,95.9999970703126,0|0|0|0,0:0|0:0|0:0|0:0,0:0:0:0:
140,120,65021,1,0,0:0:0:0:
112,184,65183,1,0,0:0:0:0:
68,132,65346,1,0,0:0:0:0:
44,200,65508,1,0,0:0:0:0:
44,200,65670,6,0,P|72:260|200:288,1,191.999994140625
252,260,66156,1,0,0:0:0:0:
320,216,66319,1,0,0:0:0:0:
384,172,66481,1,0,0:0:0:0:
312,88,66643,6,0,P|284:128|212:148,1,95.9999970703126,0|0,0:0|0:0,0:0:0:0:
232,76,66967,2,0,P|176:96|144:136,1,95.9999970703126
240,148,67292,2,0,L|240:248,1,95.9999970703126
172,196,67616,1,0,0:0:0:0:
456,196,67778,5,0,0:0:0:0:
456,196,67940,2,0,L|456:296,1,95.9999970703126
456,292,68264,2,0,L|348:292,1,95.9999970703126
360,292,68589,2,0,L|224:292,2,95.9999970703126,0|0|0,0:0|0:0|0:0,0:0:0:0:
220,156,69075,5,0,0:0:0:0:
220,156,69237,2,0,L|220:280,2,95.9999970703126,0|0|0,0:0|0:0|0:0,0:0:0:0:
456,320,69724,5,0,0:0:0:0:
456,320,69886,2,0,L|456:196,2,95.9999970703126,0|0|0,0:0|0:0|0:0,0:0:0:0:
132,196,70373,5,0,0:0:0:0:
132,196,70535,1,0,0:0:0:0:
380,196,70697,5,0,0:0:0:0:
380,196,70859,1,0,0:0:0:0:
228,196,71021,6,0,L|128:196,1,95.9999970703126
284,196,71346,2,0,L|396:196,1,95.9999970703126
256,192,71670,12,0,72643,0:0:0:0:
256,192,72967,5,0,0:0:0:0:
448,92,73291,2,0,B|447:120|447:120|392:119|435:68|435:68|315:67,1,191.999994140625
232,168,73778,1,0,0:0:0:0:
136,164,73940,1,0,0:0:0:0:
232,168,74102,1,0,0:0:0:0:
104,172,74264,1,0,0:0:0:0:
64,200,74427,2,0,P|100:248|160:244,2,95.9999970703126,0|0|0,0:0|0:0|0:0,0:0:0:0:
36,136,74913,1,0,0:0:0:0:
52,76,75075,2,0,L|152:76,1,95.9999970703126
220,76,75400,1,0,0:0:0:0:
380,76,75562,6,0,L|380:184,1,95.9999970703126
168,264,75886,6,0,L|168:168,1,95.9999970703126
380,172,76210,6,0,L|380:280,1,95.9999970703126
168,168,76534,6,0,L|168:72,1,95.9999970703126
320,84,76859,6,0,P|320:132|272:172,2,95.9999970703126,0|0|0,0:0|0:0|0:0,0:0:0:0:
186,93,77346,2,0,P|155:129|156:176,2,95.9999970703126,0|0|0,0:0|0:0|0:0,0:0:0:0:
256,196,77832,1,0,0:0:0:0:
376,196,77994,1,0,0:0:0:0:
136,196,78156,1,0,0:0:0:0:
376,60,78481,5,0,0:0:0:0:
364,72,78562,1,0,0:0:0:0:
344,84,78643,1,0,0:0:0:0:
328,88,78724,1,0,0:0:0:0:
312,88,78805,1,0,0:0:0:0:
296,88,78886,1,0,0:0:0:0:
284,84,78967,1,0,0:0:0:0:
264,76,79048,1,0,0:0:0:0:
248,76,79129,5,0,0:0:0:0:
228,84,79210,1,0,0:0:0:0:
216,88,79291,1,0,0:0:0:0:
200,88,79372,1,0,0:0:0:0:
184,84,79454,2,0,P|124:48|56:128,1,191.999994140625
124,116,79940,1,0,0:0:0:0:
52,128,80102,2,0,P|92:148|76:192,1,95.9999970703126
78,189,80427,1,0,0:0:0:0:
216,260,80589,1,0,0:0:0:0:
352,184,80751,5,0,0:0:0:0:
364,176,80832,1,0,0:0:0:0:
372,160,80913,1,0,0:0:0:0:
372,144,80994,1,0,0:0:0:0:
364,124,81075,1,0,0:0:0:0:
368,112,81156,1,0,0:0:0:0:
384,104,81237,1,0,0:0:0:0:
396,96,81319,1,0,0:0:0:0:
176,184,81400,5,0,0:0:0:0:
164,176,81482,1,0,0:0:0:0:
148,168,81563,1,0,0:0:0:0:
144,156,81644,1,0,0:0:0:0:
152,136,81725,1,0,0:0:0:0:
152,120,81806,1,0,0:0:0:0:
144,104,81887,1,0,0:0:0:0:
132,96,81968,1,0,0:0:0:0:
396,96,82048,6,0,L|264:96,2,95.9999970703126
120,256,82535,2,0,L|216:256,2,95.9999970703126
96,196,83021,2,0,L|228:196,1,95.9999970703126,0|0,0:0|0:0,0:0:0:0:
96,192,83346,5,0,0:0:0:0:
416,192,83670,5,0,0:0:0:0:
400,192,83832,1,0,0:0:0:0:
384,192,83994,1,0,0:0:0:0:
368,192,84156,1,0,0:0:0:0:
348,192,84319,2,0,L|244:192,1,95.9999970703126
204,124,84643,2,0,L|328:124,1,95.9999970703126
376,120,84967,2,0,L|376:240,2,95.9999970703126,0|0|0,0:0|0:0|0:0,0:0:0:0:
312,160,85454,1,0,0:0:0:0:
440,160,85616,1,0,0:0:0:0:
312,160,85778,1,0,0:0:0:0:
56,152,85940,6,0,L|136:232,3,95.9999970703126,0|0|0|0,0:0|0:0|0:0|0:0,0:0:0:0:
388,219,86589,6,0,L|456:152,3,95.9999970703126,0|0|0|0,0:0|0:0|0:0|0:0,0:0:0:0:
128,88,87237,6,0,B|184:136|184:136|340:136,1,191.999994140625
302,136,87724,1,0,0:0:0:0:
128,88,87886,2,0,L|28:88,1,95.9999970703126
302,136,88210,2,0,L|416:136,1,95.9999970703126
398,136,88535,1,0,0:0:0:0:
328,120,90927,6,0,P|264:160|176:160,1,160
128,100,91569,2,0,P|72:100|16:144,2,95.9999970703126,0|0|0,0:0|0:0|0:0,0:0:0:0:
96,168,92212,1,0,0:0:0:0:
168,160,92427,1,0,0:0:0:0:
200,96,92641,1,0,0:0:0:0:
200,96,92748,1,0,0:0:0:0:
200,96,92855,1,0,0:0:0:0:
312,96,93069,1,0,0:0:0:0:
312,96,93176,1,0,0:0:0:0:
312,96,93283,1,0,0:0:0:0:
256,152,93498,5,0,0:0:0:0:
224,192,93605,1,0,0:0:0:0:
296,192,93712,1,0,0:0:0:0:
256,228,93819,1,0,0:0:0:0:
220,192,93927,1,0,0:0:0:0:
256,152,94034,5,0,0:0:0:0:
296,192,94141,1,0,0:0:0:0:
256,228,94248,1,0,0:0:0:0:
100,72,94355,6,0,P|140:120|144:260,1,191.999994140625
150,245,94998,2,0,P|224:232|252:240,2,95.9999970703126,0|0|0,0:0|0:0|0:0,0:0:0:0:
204,296,95641,1,0,0:0:0:0:
92,196,95855,1,0,0:0:0:0:
152,156,96069,5,0,0:0:0:0:
152,156,96177,1,0,0:0:0:0:
152,156,96284,1,0,0:0:0:0:
360,156,96498,5,0,0:0:0:0:
360,156,96606,1,0,0:0:0:0:
360,156,96713,1,0,0:0:0:0:
212,192,96927,5,0,0:0:0:0:
256,144,97034,1,0,0:0:0:0:
300,192,97141,1,0,0:0:0:0:
256,240,97248,1,0,0:0:0:0:
200,136,97355,5,0,0:0:0:0:
316,136,97462,1,0,0:0:0:0:
196,248,97569,1,0,0:0:0:0:
316,248,97677,1,0,0:0:0:0:
256,192,97784,12,0,99069,0:0:0:0:
136,196,99498,6,0,B|200:196|208:144|208:144|256:192|256:192|304:144,3,191.999994140625,0|0|0|0,0:0|0:0|0:0|0:0,0:0:0:0:
288,160,100891,1,0,0:0:0:0:
300,144,100998,1,0,0:0:0:0:
312,128,101105,1,0,0:0:0:0:
324,112,101212,2,0,P|208:112|132:160,1,191.999994140625
144,148,102069,2,0,P|163:213|248:304,1,191.999994140625
432,80,102927,6,0,B|484:92|484:92|428:108|428:108|464:296|464:296|524:196|524:196|356:272,1,575.999982421876
364,268,104319,1,0,0:0:0:0:
344,276,104427,1,0,0:0:0:0:
324,284,104534,1,0,0:0:0:0:
296,296,104641,1,0,0:0:0:0:
276,280,104748,1,0,0:0:0:0:
264,264,104855,1,0,0:0:0:0:
248,244,104962,1,0,0:0:0:0:
232,232,105069,1,0,0:0:0:0:
212,232,105177,1,0,0:0:0:0:
196,244,105284,1,0,0:0:0:0:
172,256,105391,1,0,0:0:0:0:
152,256,105498,1,0,0:0:0:0:
136,248,105605,1,0,0:0:0:0:
120,236,105712,1,0,0:0:0:0:
116,212,105819,1,0,0:0:0:0:
124,192,105927,1,0,0:0:0:0:
144,176,106034,1,0,0:0:0:0:
148,156,106141,1,0,0:0:0:0:
128,144,106248,1,0,0:0:0:0:
116,128,106355,1,0,0:0:0:0:
96,120,106462,1,0,0:0:0:0:
68,128,106569,1,0,0:0:0:0:
60,140,106677,1,0,0:0:0:0:
56,156,106784,1,0,0:0:0:0:
60,164,106891,1,0,0:0:0:0:
68,176,106998,1,0,0:0:0:0:
64,196,107105,1,0,0:0:0:0:
56,208,107212,1,0,0:0:0:0:
