osu file format v12

[General]
AudioFilename: Song.mp3
AudioLeadIn: 1000
PreviewTime: 63376
Countdown: 0
SampleSet: Soft
StackLeniency: 0.6
Mode: 0
LetterboxInBreaks: 0
WidescreenStoryboard: 0

[Editor]
DistanceSpacing: 0.8
BeatDivisor: 4
GridSize: 8

[Metadata]
Title:Chicken Chic
TitleUnicode:膽小鬼
Artist:Gigi Leung
ArtistUnicode:梁詠琪
Creator:Weiren
Version:Normal
Source:
Tags:Twice Leung Wing Kei liang yong qi dan xiao gui
BeatmapID:222566
BeatmapSetID:79832

[Difficulty]
HPDrainRate:3
CircleSize:3
OverallDifficulty:3
ApproachRate:3
SliderMultiplier:1.6
SliderTickRate:2

[Events]
//Background and Video events
0,0,"BG.jpg",0,0
//Break Periods
2,37250,41871
2,101945,108653
//Storyboard Layer 0 (Background)
//Storyboard Layer 1 (Fail)
//Storyboard Layer 2 (Pass)
//Storyboard Layer 3 (Foreground)
Sprite,Foreground,Centre,"Weiren.png",320,240 M,0,38093,,211,279 F,0,38093,38615,0,1 S,0,38093,38615,0.7,0.5 F,0,38615,41224,1 S,0,38615,41224,0.5 F,0,41224,41745,1,0 S,0,41224,41745,0.5,0.7
//Storyboard Sound Samples
//Background Colour Transformations
3,100,163,162,255

[TimingPoints]
1572,521.739130434783,4,2,1,20,1,0
18006,-100,4,2,1,30,0,0
64180,-100,4,2,1,50,0,1
64311,-100,4,2,1,50,0,0
101745,-100,4,1,0,30,0,1
101876,-100,4,2,1,50,0,0
118441,-100,4,1,0,30,0,1
118572,-100,4,2,1,50,0,1
135137,-100,4,1,0,30,0,0
135267,-100,4,2,1,50,0,0
150528,-100,4,2,1,15,0,0
152135,521.739130434783,4,2,1,15,1,0

[Colours]
Combo1 : 170,85,85
Combo2 : 181,218,255
Combo3 : 220,220,220
Combo4 : 255,221,157

[HitObjects]
152,352,1572,2,0,P|232:344|280:280,1,160,4|8,0:0|0:0,0:0:0:0:
408,288,2615,2,0,P|400:208|336:160,1,160,0|8,0:0|0:0,0:0:0:0:
352,32,3658,2,0,P|272:40|224:104,1,160,0|8,0:0|0:0,0:0:0:0:
96,96,4702,2,0,P|104:176|168:224,1,160,0|8,0:0|0:0,0:0:0:0:
280,272,5745,6,0,L|448:328,1,160,0|8,0:0|0:0,0:0:0:0:
416,192,6789,2,0,L|248:136,1,160,2|8,0:0|0:0,0:0:0:0:
136,112,7832,2,0,P|72:149|99:217,1,160,4|8,0:0|0:0,0:0:0:0:
208,288,8876,2,0,L|288:320,2,80,0|8|8,0:0|0:0|0:0,0:0:0:0:
208,160,9919,6,0,P|296:144|352:104,1,160,0|8,0:0|0:0,0:0:0:0:
472,48,10963,2,0,P|456:136|416:192,1,160,0|8,0:0|0:0,0:0:0:0:
451,315,12006,2,0,P|372:314|309:262,1,160,2|8,0:0|0:0,0:0:0:0:
344,141,13050,2,0,P|271:136|200:197,1,160,0|8,0:0|0:0,0:0:0:0:
120,282,14093,6,0,L|84:363,2,80,2|0|8,0:0|0:0|0:0,0:0:0:0:
80,160,15137,2,0,P|75:99|161:69,1,160,0|8,0:0|0:0,0:0:0:0:
208,184,16180,2,0,L|288:240,2,80,0|2|8,0:0|0:0|0:0,0:0:0:0:
305,101,17224,2,0,L|225:45,2,80,0|8|8,0:0|0:0|0:0,0:0:0:0:
416,168,18267,6,0,P|464:232|424:296,1,160,4|8,0:0|0:0,0:0:0:0:
312,240,19311,2,0,B|232:248,2,80,0|2|10,0:0|0:0|0:0,0:0:0:0:
384,344,20354,1,0,0:0:0:0:
256,368,20876,2,0,P|176:384|96:368,1,160,8|0,0:0|0:0,0:0:0:0:
13,275,21919,5,10,0:0:0:0:
128,216,22441,1,0,0:0:0:0:
224,128,22963,1,10,0:0:0:0:
96,128,23485,2,0,B|16:128,2,80,0|0|8,0:0|0:0|0:0,0:0:0:0:
186,37,24528,2,0,B|274:22|338:70,1,160,0|10,0:0|0:0,0:0:0:0:
337,198,25572,2,0,B|273:246|177:230,1,160,0|10,0:0|0:0,0:0:0:0:
184,231,26615,1,4,0:0:0:0:
56,248,27137,6,0,B|56:336,2,80,10|0|0,0:0|0:0|0:0,0:0:0:0:
64,120,28180,2,0,B|104:40|192:40,1,160,8|0,0:0|0:0,0:0:0:0:
320,40,29224,2,0,B|408:40|448:120,1,160,8|0,0:0|0:0,0:0:0:0:
432,248,30267,1,8,0:0:0:0:
328,176,30789,6,0,B|280:136|232:136|184:176,1,160,0|8,0:0|0:0,0:0:0:0:
184,304,31832,2,0,B|232:344|280:344|328:304,1,160,0|10,0:0|0:0,0:0:0:0:
424,216,32876,1,4,0:0:0:0:
376,96,33398,1,10,0:0:0:0:
256,192,33919,12,0,37050,0:0:0:0:
120,280,43311,5,4,0:0:0:0:
232,224,43832,1,10,0:0:0:0:
280,344,44354,2,0,B|332:356|388:289|367:239,1,160,0|10,0:0|0:0,0:0:0:0:
496,224,45398,2,0,B|522:177|473:104|419:111,1,160,0|10,0:0|0:0,0:0:0:0:
293,111,46441,2,0,B|213:111,2,80,0|0|10,0:0|0:0|0:0,0:0:0:0:
293,111,47485,5,0,0:0:0:0:
360,224,48006,1,10,0:0:0:0:
293,333,48528,2,0,B|205:317|157:253,1,160,0|10,0:0|0:0,0:0:0:0:
80,360,49572,2,0,B|18:295|16:215,1,160,0|10,0:0|0:0,0:0:0:0:
24,88,50615,2,0,P|112:24|144:48,1,160,0|10,0:0|0:0,0:0:0:0:
184,160,51658,5,4,0:0:0:0:
304,200,52180,1,10,0:0:0:0:
416,144,52702,2,0,L|496:128,2,80,0|0|10,0:0|0:0|0:0,0:0:0:0:
312,72,53745,2,0,P|232:56|152:72,1,160,0|10,0:0|0:0,0:0:0:0:
61,157,54789,2,0,P|45:237|61:317,1,160,0|10,0:0|0:0,0:0:0:0:
187,327,55832,6,0,P|137:254|298:170,1,320
310,292,57398,1,10,0:0:0:0:
411,214,57919,6,0,L|494:207,2,80,0|0|10,0:0|0:0|0:0,0:0:0:0:
304,142,58963,2,0,P|230:123|178:182,1,160,0|10,0:0|0:0,0:0:0:0:
256,192,60006,12,4,63137,0:0:0:0:
120,296,64180,6,0,P|200:280|256:224,1,160,4|10,0:0|0:0,0:0:0:0:
328,120,65224,2,0,L|384:48,2,80,0|0|10,0:0|0:0|0:0,0:0:0:0:
440,176,66267,2,0,P|400:240|320:256,1,160,0|10,0:0|0:0,0:0:0:0:
200,216,67311,2,0,P|120:240|72:296,1,160
192,344,68354,6,0,L|352:344,1,160,0|10,0:0|0:0,0:0:0:0:
472,304,69398,2,0,B|456:264|416:248|416:248|456:232|472:192,1,160,0|10,0:0|0:0,0:0:0:0:
424,72,70441,2,0,L|352:24,2,80,0|0|10,0:0|0:0|0:0,0:0:0:0:
312,136,71485,2,0,L|232:144,2,80,0|10|10,0:0|0:0|0:0,0:0:0:0:
256,248,72528,6,0,P|176:272|88:272,1,160,0|10,0:0|0:0,0:0:0:0:
168,168,73572,2,0,P|93:157|56:85,1,160,0|10,0:0|0:0,0:0:0:0:
163,17,74615,2,0,P|238:28|275:100,1,160,0|10,0:0|0:0,0:0:0:0:
335,210,75658,2,0,B|295:242|245:220|245:220|188:257,1,160,0|10,0:0|0:0,0:0:0:0:
98,343,76702,6,0,L|10:367,2,80,0|0|10,0:0|0:0|0:0,0:0:0:0:
226,348,77745,2,0,P|314:340|362:284,1,160,0|10,0:0|0:0,0:0:0:0:
415,174,78789,2,0,L|495:142,2,80,0|0|10,0:0|0:0|0:0,0:0:0:0:
328,80,79832,2,0,P|256:48|184:80,1,160,0|10,0:0|0:0,0:0:0:0:
172,206,80876,5,4,0:0:0:0:
68,131,81398,1,10,0:0:0:0:
16,248,81919,2,0,P|8:320|80:360,1,160,0|10,0:0|0:0,0:0:0:0:
144,248,82963,1,0,0:0:0:0:
144,248,83485,1,10,0:0:0:0:
248,176,84006,2,0,L|376:80,1,160,0|10,0:0|0:0,0:0:0:0:
496,120,85050,6,0,L|368:216,1,160,0|10,0:0|0:0,0:0:0:0:
280,304,86093,2,0,L|240:384,2,80,0|0|10,0:0|0:0|0:0,0:0:0:0:
152,304,87137,2,0,L|63:317,2,80,0|0|10,0:0|0:0|0:0,0:0:0:0:
208,192,88180,2,0,B|256:152|304:152|352:192,2,160,0|10|4,0:0|0:0|0:0,0:0:0:0:
96,136,89745,6,0,P|144:72|216:40,1,160,10|0,0:0|0:0,0:0:0:0:
344,40,90789,2,0,P|416:72|464:136,1,160,10|0,0:0|0:0,0:0:0:0:
344,176,91832,2,0,B|296:136|248:136|200:176,2,160,10|0|10,0:0|0:0|0:0,0:0:0:0:
272,280,93398,5,0,0:0:0:0:
384,344,93919,2,0,B|432:384|496:296|440:256,1,160,10|0,0:0|0:0,0:0:0:0:
334,186,94963,1,10,0:0:0:0:
334,186,95485,2,0,L|262:138,2,80,0|10|10,0:0|0:0|0:0,0:0:0:0:
392,72,96528,6,0,B|360:56|352:32|352:32|320:40|280:16|256:48,1,160,0|10,0:0|0:0,0:0:0:0:
255,48,97572,2,0,B|231:16|191:40|159:32|159:32|151:56|119:72,1,160,0|10,0:0|0:0,0:0:0:0:
184,184,98615,2,0,B|224:224|288:224|328:184,1,160,0|10,0:0|0:0,0:0:0:0:
256,192,99658,12,4,101745,0:0:0:0:
88,96,110093,6,0,P|168:120|224:176,1,160,4|10,0:0|0:0,0:0:0:0:
288,280,111137,2,0,L|336:352,2,80,0|0|10,0:0|0:0|0:0,0:0:0:0:
360,176,112180,1,0,0:0:0:0:
336,48,112702,2,0,P|256:39|176:48,2,160,10|0|10,0:0|0:0|0:0,0:0:0:0:
456,91,114267,5,4,0:0:0:0:
360,176,114789,1,10,0:0:0:0:
248,240,115311,2,0,L|160:280,2,80,0|10|10,0:0|0:0|0:0,0:0:0:0:
128,192,116354,2,0,L|48:200,2,80,0|10|10,0:0|0:0|0:0,0:0:0:0:
168,72,117398,2,0,B|216:48|312:96|312:160|256:184|200:160|200:96|296:48|344:72,1,320,0|4,0:0|0:0,0:0:0:0:
384,192,118963,6,0,L|464:200,2,80,10|0|0,0:0|0:0|0:0,0:0:0:0:
256,216,120006,1,10,0:0:0:0:
160,304,120528,2,0,P|218:359|293:347,2,160,0|10|0,0:0|0:0|0:0,0:0:0:0:
88,200,122093,5,10,0:0:0:0:
72,72,122615,2,0,P|136:32|224:32,1,160,0|10,0:0|0:0,0:0:0:0:
176,151,123658,2,0,P|256:151|320:199,1,160,0|10,0:0|0:0,0:0:0:0:
428,263,124702,2,0,L|524:301,2,80,0|0|10,0:0|0:0|0:0,0:0:0:0:
328,344,125745,1,0,0:0:0:0:
328,344,126267,2,0,B|288:344|256:312|256:312|224:344|184:344,1,160,10|4,0:0|0:0,0:0:0:0:
88,264,127311,5,10,0:0:0:0:
200,208,127832,2,0,P|264:152|280:80,1,160,0|10,0:0|0:0,0:0:0:0:
384,0,128876,2,0,P|422:61|416:146,1,160,0|10,0:0|0:0,0:0:0:0:
352,256,129919,1,0,0:0:0:0:
232,296,130441,1,10,0:0:0:0:
144,200,130963,6,0,P|144:120|200:64,2,160,2|10|0,0:0|0:0|0:0,0:0:0:0:
264,168,132528,1,10,0:0:0:0:
264,168,133050,2,0,L|336:120,2,80,0|10|10,0:0|0:0|0:0,0:0:0:0:
264,296,134093,6,0,B|225:324|161:333|92:294|75:218|100:158|138:129,1,320,0|4,0:0|0:0,0:0:0:0:
263,96,135658,2,0,B|271:119|251:174|251:174|309:171|330:185,1,160,10|0,0:0|0:0,0:0:0:0:
456,224,136702,1,10,0:0:0:0:
344,288,137224,2,0,L|264:328,2,80,0|10|10,0:0|0:0|0:0,0:0:0:0:
456,224,138267,5,0,0:0:0:0:
416,104,138789,1,10,0:0:0:0:
304,40,139311,2,0,P|224:24|144:32,1,160,4|10,0:0|0:0,0:0:0:0:
64,128,140354,2,0,L|24:200,2,80,0|0|10,0:0|0:0|0:0,0:0:0:0:
176,192,141398,2,0,P|144:264|160:344,1,160,0|10,0:0|0:0,0:0:0:0:
256,264,142441,2,0,L|256:160,2,80,0|0|10,0:0|0:0|0:0,0:0:0:0:
353,341,143485,6,0,P|368:264|336:192,1,160,0|10,0:0|0:0,0:0:0:0:
440,120,144528,2,0,B|400:56|400:56|312:40,1,160,0|10,0:0|0:0,0:0:0:0:
192,40,145572,2,0,B|108:55|108:55|68:119,1,160,0|10,0:0|0:0,0:0:0:0:
48,248,146615,5,0,0:0:0:0:
160,192,147137,1,10,0:0:0:0:
188,316,147658,2,0,B|228:364|284:364|324:316,1,160,0|10,0:0|0:0,0:0:0:0:
256,208,148702,2,0,B|234:149|262:100|324:90,1,160,0|10,0:0|0:0,0:0:0:0:
384,200,149745,2,0,B|445:210|473:259|452:317,1,160,0|10,0:0|0:0,0:0:0:0:
256,192,150789,12,2,154221,0:0:0:0:
