osu file format v12

[General]
AudioFilename: Song.mp3
AudioLeadIn: 1000
PreviewTime: 63376
Countdown: 0
SampleSet: Soft
StackLeniency: 0.6
Mode: 0
LetterboxInBreaks: 0
WidescreenStoryboard: 0

[Editor]
DistanceSpacing: 0.8
BeatDivisor: 4
GridSize: 8

[Metadata]
Title:Chicken Chic
TitleUnicode:膽小鬼
Artist:Gigi Leung
ArtistUnicode:梁詠琪
Creator:Weiren
Version:Hard
Source:
Tags:Twice Leung Wing Kei liang yong qi dan xiao gui
BeatmapID:222565
BeatmapSetID:79832

[Difficulty]
HPDrainRate:6
CircleSize:4
OverallDifficulty:6
ApproachRate:7
SliderMultiplier:2.2
SliderTickRate:2

[Events]
//Background and Video events
0,0,"BG.jpg",0,0
//Break Periods
2,37250,42411
2,101945,109193
//Storyboard Layer 0 (Background)
//Storyboard Layer 1 (Fail)
//Storyboard Layer 2 (Pass)
//Storyboard Layer 3 (Foreground)
Sprite,Foreground,Centre,"Weiren.png",320,240 M,0,38093,,211,279 F,0,38093,38615,0,1 S,0,38093,38615,0.7,0.5 F,0,38615,41224,1 S,0,38615,41224,0.5 F,0,41224,41745,1,0 S,0,41224,41745,0.5,0.7
//Storyboard Sound Samples
//Background Colour Transformations
3,100,163,162,255

[TimingPoints]
1572,521.739130434783,4,2,1,20,1,0
18137,-100,4,2,1,30,0,0
64180,-100,4,2,1,50,0,1
64311,-100,4,2,1,50,0,0
101745,-100,4,1,0,40,0,1
101876,-100,4,2,1,50,0,0
118441,-100,4,1,0,30,0,1
118572,-100,4,2,1,60,0,1
135137,-100,4,1,0,30,0,0
135267,-100,4,2,1,50,0,0
150528,-100,4,2,1,15,0,0
152135,521.739130434783,4,2,1,15,1,0

[Colours]
Combo1 : 170,85,85
Combo2 : 181,218,255
Combo3 : 220,220,220
Combo4 : 255,221,157

[HitObjects]
232,136,1572,1,4,0:0:0:0:
288,208,1832,1,0,0:0:0:0:
304,294,2093,2,0,B|361:279|407:317,2,110
216,304,2876,1,0,0:0:0:0:
98,193,3137,2,0,B|144:231|201:216,1,110,2|0,0:0|0:0,0:0:0:0:
280,184,3658,5,0,0:0:0:0:
280,184,3919,1,0,0:0:0:0:
248,104,4180,2,0,B|202:66|145:81,1,110,2|0,0:0|0:0,0:0:0:0:
98,193,4702,2,0,B|144:231|201:216,1,110,0|0,0:0|0:0,0:0:0:0:
98,193,5224,1,0,0:0:0:0:
9,186,5485,1,0,0:0:0:0:
40,104,5745,5,4,0:0:0:0:
114,57,6006,1,0,0:0:0:0:
198,83,6267,2,0,B|302:123,1,110,8|0,0:0|0:0,0:0:0:0:
331,243,6789,2,0,B|228:203,2,110,2|0|0,0:0|0:0|0:0,0:0:0:0:
228,203,7572,1,0,0:0:0:0:
246,288,7832,5,4,0:0:0:0:
162,261,8093,1,0,0:0:0:0:
35,292,8354,5,2,0:0:0:0:
89,221,8615,1,0,0:0:0:0:
123,98,8876,5,0,0:0:0:0:
157,179,9137,1,10,0:0:0:0:
157,179,9398,1,10,0:0:0:0:
430,139,9919,6,0,B|327:181,1,110,4|0,0:0|0:0,0:0:0:0:
278,253,10441,2,0,P|241:215|240:161,1,110
240,160,10963,1,0,0:0:0:0:
280,80,11224,2,0,B|392:40,2,110,0|10|0,0:0|0:0|0:0,0:0:0:0:
240,160,12006,6,0,B|144:232|160:352,1,220,2|10,0:0|0:0,0:0:0:0:
1,275,13050,2,0,B|97:203|81:83,1,220,0|2,0:0|0:0,0:0:0:0:
136,12,13832,1,2,0:0:0:0:
208,64,14093,2,0,B|328:32,2,110,2|0|2,0:0|0:0|0:0,0:0:0:0:
272,128,14876,2,0,B|388:170,2,110
280,216,15658,2,0,B|351:317,1,110,2|0,0:0|0:0,0:0:0:0:
416,264,16180,5,0,0:0:0:0:
464,192,16441,1,0,0:0:0:0:
328,112,16702,5,8,0:0:0:0:
368,192,16963,1,2,0:0:0:0:
504,112,17224,5,0,0:0:0:0:
416,112,17485,1,10,0:0:0:0:
416,112,17745,1,10,0:0:0:0:
104,112,18267,5,4,0:0:0:0:
128,192,18528,1,0,0:0:0:0:
48,224,18789,2,0,B|56:272|128:328|200:272|208:224,1,220,8|0,0:0|0:0,0:0:0:0:
207,135,19572,2,0,P|260:146|290:191,1,110,0|8,0:0|0:0,0:0:0:0:
352,344,20093,5,0,0:0:0:0:
364,256,20354,1,0,0:0:0:0:
352,344,20615,1,0,0:0:0:0:
432,308,20876,2,0,B|468:260|436:206,2,110,8|2|0,0:0|0:0|0:0,0:0:0:0:
364,256,21658,1,0,0:0:0:0:
280,192,21919,6,0,B|240:147|178:168,1,110,8|0,0:0|0:0,0:0:0:0:
211,249,22441,2,0,B|150:269|110:224,1,110,0|0,0:0|0:0,0:0:0:0:
39,276,22963,1,8,0:0:0:0:
111,225,23224,2,0,B|75:172|108:121,2,110
139,308,24006,1,8,0:0:0:0:
216,351,24267,2,0,P|266:372|321:362,2,110
223,264,25050,2,0,B|194:205|210:157|210:157|159:152|118:102,1,220,8|0,0:0|0:0,0:0:0:0:
293,89,26093,2,0,B|321:147|305:195|305:195|356:200|397:250,1,220,8|4,0:0|0:0,0:0:0:0:
192,80,27137,5,10,0:0:0:0:
192,80,27398,2,0,B|96:152,2,110
256,24,28180,1,8,0:0:0:0:
320,80,28441,1,0,0:0:0:0:
256,136,28702,1,2,0:0:0:0:
192,80,28963,1,8,0:0:0:0:
336,168,29224,2,0,B|336:216|256:264|176:216|176:168,2,220,8|0|8,0:0|0:0|0:0,0:0:0:0:
112,256,30789,6,0,B|216:304,1,110
300,302,31311,2,0,B|399:256,1,110,8|2,0:0|0:0,0:0:0:0:
400,168,31832,2,0,B|300:122,1,110,0|2,0:0|0:0,0:0:0:0:
211,122,32354,2,0,B|111:169,1,110,8|2,0:0|0:0,0:0:0:0:
71,251,32876,5,4,0:0:0:0:
112,169,33137,1,0,0:0:0:0:
38,126,33398,1,10,0:0:0:0:
231,249,33919,5,0,0:0:0:0:
280,134,34180,1,0,0:0:0:0:
198,167,34441,1,10,0:0:0:0:
313,216,34702,1,0,0:0:0:0:
256,192,34963,12,2,37050,0:0:0:0:
375,90,43311,6,0,B|313:75|284:133,1,110,4|0,0:0|0:0,0:0:0:0:
360,176,43832,1,8,0:0:0:0:
280,216,44093,1,0,0:0:0:0:
344,272,44354,2,0,B|320:320|257:357|192:320|168:272,1,220,2|8,0:0|0:0,0:0:0:0:
80,72,45137,5,0,0:0:0:0:
80,72,45398,1,0,0:0:0:0:
157,113,45658,1,0,0:0:0:0:
96,176,45919,2,0,B|64:224|8:248,2,110,8|0|0,0:0|0:0|0:0,0:0:0:0:
256,192,46702,1,0,0:0:0:0:
416,176,46963,6,0,B|448:224|504:248,2,110,8|0|0,0:0|0:0|0:0,0:0:0:0:
416,176,47746,1,0,0:0:0:0:
369,250,48006,1,10,0:0:0:0:
319,322,48267,2,0,B|287:306|287:250|255:234,1,110
193,322,48789,2,0,B|225:306|225:250|257:234,1,110,0|8,0:0|0:0,0:0:0:0:
192,176,49311,5,0,0:0:0:0:
255,111,49572,1,0,0:0:0:0:
299,35,49832,1,0,0:0:0:0:
211,35,50093,1,8,0:0:0:0:
255,111,50354,1,0,0:0:0:0:
319,175,50615,1,0,0:0:0:0:
168,272,51137,2,0,B|224:272|256:216|256:216|288:272|344:272,1,220,10|4,0:0|0:0,0:0:0:0:
64,192,52180,5,10,0:0:0:0:
140,148,52441,1,0,0:0:0:0:
140,236,52702,1,0,0:0:0:0:
216,192,52963,2,0,B|256:192|256:192|272:160|272:160|296:224|296:224|312:192|312:192|352:192,1,220,0|0,0:0|0:0,0:0:0:0:
428,236,53745,1,0,0:0:0:0:
428,148,54006,1,0,0:0:0:0:
360,88,54267,2,0,B|304:48|208:48|152:88,2,220,8|0|8,0:0|0:0|0:0,0:0:0:0:
292,257,55572,5,0,0:0:0:0:
292,257,55702,1,0,0:0:0:0:
292,257,55832,2,0,B|341:299|329:362,1,110
191,229,56354,2,0,B|149:278|86:266,1,110,8|2,0:0|0:0,0:0:0:0:
219,128,56876,2,0,B|170:86|182:23,1,110
320,156,57398,2,0,B|362:107|425:119,1,110,8|2,0:0|0:0,0:0:0:0:
256,192,57919,1,4,0:0:0:0:
256,192,58180,1,10,0:0:0:0:
256,192,58441,1,10,0:0:0:0:
304,272,58963,6,0,B|408:304,1,110
208,272,59485,2,0,B|104:304,1,110,8|0,0:0|0:0,0:0:0:0:
256,192,60007,12,4,63137,0:0:0:0:
403,89,63658,6,0,B|384:144|328:168,1,110,0|0,0:0|0:0,0:0:0:0:
248,192,64180,2,0,B|136:176,2,110,4|0|10,0:0|0:0|0:0,0:0:0:0:
312,256,64963,1,0,0:0:0:0:
368,328,65224,2,0,B|488:344,2,110,0|0|10,0:0|0:0|0:0,0:0:0:0:
280,312,66006,1,0,0:0:0:0:
264,224,66267,1,0,0:0:0:0:
248,136,66528,2,0,B|232:24,2,110,0|10|0,0:0|0:0|0:0,0:0:0:0:
336,144,67311,2,0,B|351:252,1,110
352,344,67832,5,10,0:0:0:0:
272,304,68093,1,0,0:0:0:0:
192,256,68354,2,0,B|168:256|144:216|168:176|192:176,1,110
280,152,68876,1,10,0:0:0:0:
280,152,69137,2,0,B|304:152|328:192|304:232|280:232,1,110
192,256,69658,2,0,B|80:288,2,110,0|10|0,0:0|0:0|0:0,0:0:0:0:
256,320,70441,2,0,B|368:288,2,110,0|0|10,0:0|0:0|0:0,0:0:0:0:
120,200,71485,1,0,0:0:0:0:
256,96,72006,1,10,0:0:0:0:
374,226,72528,1,4,0:0:0:0:
300,180,72789,6,0,B|330:122|394:136,1,110,0|10,0:0|0:0,0:0:0:0:
374,226,73311,1,0,0:0:0:0:
455,192,73572,2,0,B|481:248|433:291,1,110
374,226,74093,1,10,0:0:0:0:
312,288,74354,6,0,B|264:320|208:328,1,110,0|0,0:0|0:0,0:0:0:0:
120,320,74876,1,0,0:0:0:0:
42,277,75137,2,0,P|57:164|149:149,1,220,10|0,0:0|0:0,0:0:0:0:
120,232,75919,1,0,0:0:0:0:
120,232,76050,1,0,0:0:0:0:
120,232,76180,1,10,0:0:0:0:
176,304,76441,5,0,0:0:0:0:
244,249,76702,1,0,0:0:0:0:
189,179,76963,1,0,0:0:0:0:
244,249,77224,2,0,B|280:202|280:146|238:109|238:109|177:90,1,220,10|0,0:0|0:0,0:0:0:0:
88,96,78006,2,0,P|40:112|8:160,1,110,0|10,0:0|0:0,0:0:0:0:
72,312,78528,5,0,0:0:0:0:
72,312,78658,1,0,0:0:0:0:
72,312,78789,2,0,B|119:273|177:273,1,110
256,248,79311,1,10,0:0:0:0:
440,312,79572,2,0,B|392:273|334:273,1,110
256,248,80093,1,10,0:0:0:0:
256,248,80354,6,0,B|256:128,1,110,10|0,0:0|0:0,0:0:0:0:
192,80,80876,1,4,0:0:0:0:
256,138,81137,1,0,0:0:0:0:
256,48,81398,1,10,0:0:0:0:
256,138,81658,1,0,0:0:0:0:
320,80,81919,1,0,0:0:0:0:
256,138,82180,1,0,0:0:0:0:
256,224,82441,1,10,0:0:0:0:
376,336,82702,5,0,0:0:0:0:
336,256,82963,1,0,0:0:0:0:
256,224,83224,2,0,B|144:224,2,110,0|10|2,0:0|0:0|0:0,0:0:0:0:
216,144,84006,2,0,B|328:144,1,110
71,58,84528,5,10,0:0:0:0:
71,58,84789,1,0,0:0:0:0:
146,102,85050,2,0,B|267:82,2,110,0|0|10,0:0|0:0|0:0,0:0:0:0:
68,143,85832,2,0,B|1:229,2,110,0|0|10,0:0|0:0|0:0,0:0:0:0:
140,192,86615,1,10,0:0:0:0:
179,270,86876,2,0,P|228:300|276:290,1,110
240,215,87398,1,0,0:0:0:0:
319,178,87658,2,0,P|283:133|234:126,1,110,10|0,0:0|0:0,0:0:0:0:
272,46,88180,2,0,B|196:27|157:89|157:89|117:75|70:80,1,220,0|10,0:0|0:0,0:0:0:0:
70,168,88963,5,0,0:0:0:0:
70,168,89093,1,0,0:0:0:0:
70,168,89224,2,0,B|126:160|174:200,1,110,4|0,0:0|0:0,0:0:0:0:
238,256,89745,1,10,0:0:0:0:
326,256,90006,2,0,B|438:256,2,110,0|0|10,0:0|0:0|0:0,0:0:0:0:
326,256,90789,1,10,0:0:0:0:
432,40,91050,6,0,B|376:32|328:72,1,110,0|0,0:0|0:0,0:0:0:0:
272,144,91571,1,0,0:0:0:0:
184,144,91832,2,0,B|72:144,2,110,10|0|0,0:0|0:0|0:0,0:0:0:0:
184,144,92615,1,0,0:0:0:0:
246,205,92876,5,10,0:0:0:0:
216,288,93137,1,0,0:0:0:0:
195,294,93267,1,0,0:0:0:0:
174,300,93398,2,0,B|70:332,1,110
328,192,93919,2,0,B|407:117,1,110,10|0,0:0|0:0,0:0:0:0:
184,192,94441,2,0,B|104:117,1,110,0|0,0:0|0:0,0:0:0:0:
328,304,94963,2,0,B|432:336,1,110,10|0,0:0|0:0,0:0:0:0:
256,104,95485,5,0,0:0:0:0:
256,192,95745,1,10,0:0:0:0:
256,280,96006,1,10,0:0:0:0:
344,192,96528,5,0,0:0:0:0:
256,192,96789,1,10,0:0:0:0:
168,192,97049,1,10,0:0:0:0:
256,192,97572,12,4,99658,0:0:0:0:
168,192,100180,5,10,0:0:0:0:
344,192,100702,1,0,0:0:0:0:
256,192,100963,1,0,0:0:0:0:
256,192,101093,1,0,0:0:0:0:
256,192,101224,1,10,0:0:0:0:
256,104,101485,5,0,0:0:0:0:
256,280,101745,1,4,0:0:0:0:
212,296,110093,5,4,0:0:0:0:
212,296,110354,2,0,B|100:296,2,110,0|10|0,0:0|0:0|0:0,0:0:0:0:
300,296,111137,2,0,B|412:296,2,110,0|10|10,0:0|0:0|0:0,0:0:0:0:
256,40,111919,5,0,0:0:0:0:
304,112,112180,2,0,B|280:144|232:144|208:112,1,110
160,184,112702,2,0,B|200:232|256:240|312:232|352:184,2,220,10|0|10,0:0|0:0|0:0,0:0:0:0:
132,100,114006,6,0,B|92:97|61:134|70:173,1,110
160,184,114528,1,0,0:0:0:0:
160,272,114789,2,0,B|216:280|248:216|248:216|280:280|336:272,1,220,10|0,0:0|0:0,0:0:0:0:
328,184,115572,1,10,0:0:0:0:
328,184,115832,1,10,0:0:0:0:
232,32,116093,5,0,0:0:0:0:
232,32,116224,1,0,0:0:0:0:
232,32,116354,1,0,0:0:0:0:
298,90,116615,1,0,0:0:0:0:
249,163,116876,1,10,0:0:0:0:
298,90,117137,1,0,0:0:0:0:
179,107,117398,1,2,0:0:0:0:
179,107,117658,1,10,0:0:0:0:
84,69,117919,6,0,P|148:77|180:109,1,110,10|0,0:0|0:0,0:0:0:0:
96,200,118441,2,0,P|126:230|190:238,1,110,4|0,0:0|0:0,0:0:0:0:
366,205,118963,1,10,0:0:0:0:
191,238,119224,1,0,0:0:0:0:
352,313,119485,1,0,0:0:0:0:
266,158,119745,1,2,0:0:0:0:
244,335,120006,1,10,0:0:0:0:
94,241,120267,6,0,P|54:209|54:153,1,110
136,121,120789,1,0,0:0:0:0:
136,121,121050,2,0,B|184:121|208:153|208:153|208:89|208:89|232:121|280:121,1,220,10|0,0:0|0:0,0:0:0:0:
272,121,121832,1,0,0:0:0:0:
368,192,122093,6,0,B|368:225|328:265|294:265,2,110,10|0|0,0:0|0:0|0:0,0:0:0:0:
456,208,122876,2,0,B|450:258|416:315|359:349|312:360,1,220
56,208,123658,2,0,B|61:258|95:315|152:349|200:360,1,220,0|10,0:0|0:0,0:0:0:0:
144,192,124441,2,0,B|144:225|183:265|217:265,2,110,0|0|0,0:0|0:0|0:0,0:0:0:0:
208,128,125224,2,0,B|288:104|288:48|256:32|224:48|224:104|304:128,1,220,10|0,0:0|0:0,0:0:0:0:
184,256,126267,2,0,B|184:320|256:352|328:320|328:256,1,220,10|0,0:0|0:0,0:0:0:0:
424,64,127050,5,0,0:0:0:0:
384,144,127311,1,10,0:0:0:0:
264,224,127572,5,0,0:0:0:0:
304,144,127832,1,0,0:0:0:0:
384,304,128093,5,10,0:0:0:0:
344,224,128354,1,10,0:0:0:0:
264,64,128615,5,0,0:0:0:0:
224,144,128876,1,0,0:0:0:0:
88,240,129137,5,0,0:0:0:0:
176,224,129398,1,10,0:0:0:0:
152,312,129658,5,0,0:0:0:0:
152,312,129919,2,0,B|216:320|256:352|256:352|296:320|360:312,1,220,0|10,0:0|0:0,0:0:0:0:
343,178,130702,5,0,0:0:0:0:
343,178,130832,1,0,0:0:0:0:
343,178,130963,2,0,B|362:192|365:214|342:246|320:250|300:236,1,110
165,137,131485,2,0,B|146:123|142:100|166:68|188:64|208:79,1,110,10|0,0:0|0:0,0:0:0:0:
332,110,132006,2,0,B|346:89|342:67|310:44|288:47|274:67,1,110
173,205,132528,2,0,B|158:224|162:246|194:270|217:266|231:247,1,110,10|0,0:0|0:0,0:0:0:0:
256,160,133050,1,4,0:0:0:0:
256,160,133311,1,10,0:0:0:0:
256,160,133572,1,10,0:0:0:0:
440,328,134093,5,0,0:0:0:0:
440,328,134354,2,0,P|456:277|446:223,1,110,0|10,0:0|0:0,0:0:0:0:
352,174,134876,2,0,P|341:227|357:279,1,110,0|4,0:0|0:0,0:0:0:0:
436,113,135398,2,0,B|397:66|337:75,1,110,0|10,0:0|0:0,0:0:0:0:
260,112,135919,1,0,0:0:0:0:
224,192,136180,2,0,B|120:224,2,110,0|0|10,0:0|0:0|0:0,0:0:0:0:
304,224,136963,1,0,0:0:0:0:
376,272,137224,2,0,B|481:239,2,110,0|10|10,0:0|0:0|0:0,0:0:0:0:
208,328,138006,5,2,0:0:0:0:
183,336,138137,1,0,0:0:0:0:
159,344,138267,2,0,P|95:360|55:344,1,110
0,275,138789,2,0,P|64:259|104:275,1,110
191,271,139311,2,0,B|154:180|95:150|88:74|112:7|185:-25|242:12|264:58|269:108|269:108|295:65|336:33|403:24|455:85|447:157|407:222|341:223|268:288,1,880,4|0,0:0|0:0,0:0:0:0:
268,288,141919,1,10,0:0:0:0:
494,290,142441,6,0,B|495:224|433:206,1,110
397,127,142963,2,0,B|339:159|354:221,1,110,10|0,0:0|0:0,0:0:0:0:
309,295,143485,2,0,B|365:328|409:286,1,110
353,218,144006,1,10,0:0:0:0:
266,206,144267,1,0,0:0:0:0:
319,136,144528,1,0,0:0:0:0:
108,296,145050,1,10,0:0:0:0:
172,232,145311,1,0,0:0:0:0:
86,212,145572,1,0,0:0:0:0:
256,192,146093,1,10,0:0:0:0:
430,24,146615,6,0,P|375:15|333:45,1,110,2|0,0:0|0:0,0:0:0:0:
277,114,147137,1,10,0:0:0:0:
367,123,147398,1,0,0:0:0:0:
408,200,147658,2,0,B|336:240|192:216|128:280|160:408|256:440|352:408|384:280|320:216|176:240|96:200,1,660,0|10,0:0|0:0,0:0:0:0:
325,51,149745,2,0,P|256:122|189:50,1,220,0|10,0:0|0:0,0:0:0:0:
256,192,150789,12,2,154221,0:0:0:0:
