osu file format v7

[General]
AudioFilename: Musica electronica.mp3
AudioLeadIn: 1985
PreviewTime: -1
Countdown: 1
SampleSet: Soft
StackLeniency: 0.7
Mode: 0
LetterboxInBreaks: 1

[Editor]
Bookmarks: 30231
DistanceSpacing: 0.400000005960464
BeatDivisor: 2
GridSize: 8

[Metadata]
Title:BlaBlaBla
Artist:Gigi D Agostino
Creator:Andrepoi
Version:Normal
Source:
Tags:

[Difficulty]
HPDrainRate:2
CircleSize:4
OverallDifficulty:2
SliderMultiplier:1.5
SliderTickRate:2

[Events]
//Background and Video events
0,0,"blabla blog.jpg"
Video,0,"Musica electronica.avi"
//Break Periods
2,58176,67252
2,96100,99758
//Storyboard Layer 0 (Background)
//Storyboard Layer 1 (Fail)
//Storyboard Layer 2 (Pass)
//Storyboard Layer 3 (Foreground)
//Storyboard Sound Samples
//Background Colour Transformations
3,100,163,162,255

[TimingPoints]
5607,451.467268623025,4,2,0,100,1,0
5607,-100,4,2,0,100,0,1
34275,-100,4,2,0,100,0,0
68746,-100,4,2,0,0,0,0
71228,-100,4,2,0,20,0,0
74160,-100,4,2,0,50,0,0
77769,-100,4,2,0,81,0,0
79573,-100,4,2,0,100,0,0
79647,-100,4,2,0,100,0,1
95900,-100,4,2,0,100,0,0
121033,451.467268623025,4,2,0,100,1,0

[HitObjects]
104,64,1995,1,2
104,120,2446,1,8
104,176,2898,1,2
104,232,3349,2,2,C|184:232,2,75,2|2|8
104,296,4252,5,2
160,296,4704,1,2
216,296,5155,2,2,C|304:296,2,75,2|2|8
216,232,6058,5,2
216,176,6509,1,4
216,112,6961,2,0,C|264:64|288:96,1,75,2|8
296,88,7412,1,2
336,128,7864,1,8
376,168,8315,1,2
400,224,8767,6,0,C|408:288|336:224,1,150,8|2
288,224,9670,1,8
232,224,10121,1,2
168,224,10573,1,0
136,224,10798,1,2
104,224,11024,6,8,C|104:120,4,75
104,288,12379,2,2,C|184:288,5,75
176,256,13733,1,8
128,216,14184,1,8
168,168,14636,1,0
224,168,15087,1,8
216,232,15539,1,8
272,232,15990,6,2,C|320:232|296:208,2,75,2|8|2
272,296,16893,1,8
336,296,17345,1,2
336,240,17796,2,0,C|336:160,2,75,8|2|8
336,120,18699,6,0,C|240:120,1,75,0|2
232,120,19151,2,0,C|144:120,1,75,0|2
152,208,20053,5,2
216,208,20505,1,8
272,208,20956,1,2
336,208,21408,2,0,C|336:112|384:184,1,150,8|2
400,208,22311,5,8
400,264,22762,1,2
344,264,23214,2,0,C|248:264,2,75,8|2|8
208,264,24117,5,2
152,264,24568,1,8
96,264,25020,1,2
96,208,25471,2,0,C|96:104,2,75,2|10|2
128,208,26148,2,0,C|208:208,2,75,2|10|2
128,176,26825,2,2,C|160:88|224:128,1,150
232,168,27728,2,0,C|280:232|344:152,1,150,8|2
352,128,28631,2,2,C|328:56|240:64,1,150
200,72,29534,2,8,C|112:72,3,75
200,72,30437,1,0
320,72,30889,6,0,C|320:168,1,75,0|8
352,152,31340,2,0,C|352:232,1,75,0|8
320,224,31792,2,0,C|320:336,1,75,0|8
288,296,32243,6,2,C|128:296,1,150
152,240,33146,1,8
152,184,33597,1,8
152,120,34049,1,2
152,64,34500,2,0,C|256:64,4,75
320,64,35855,6,0,C|416:64,3,75,0|2|0|2
392,96,36758,5,8
392,152,37209,1,8
392,216,37661,2,2,C|280:216,2,75,2|2|10
328,216,38564,5,2
272,216,39015,1,8
208,216,39467,2,0,C|96:208|120:144,9,150,2|8|2|8|2|8|2|8|2|12
152,144,43981,5,0
216,144,44433,1,2
272,144,44884,1,0
336,144,45336,1,2
344,200,45787,2,0,C|192:200,1,150,0|8
192,264,46690,5,0
256,264,47142,1,2
312,264,47593,1,0
376,264,48045,1,2
384,208,48496,2,0,C|232:208,1,150,0|8
248,152,49399,5,0
184,152,49851,1,2
128,152,50302,1,0
64,152,50754,1,2
56,208,51205,2,0,C|208:208,2,150,0|8|0
56,272,52559,5,2
120,272,53011,1,2
176,272,53462,1,8
232,272,53913,2,0,C|312:272|304:184,1,150,0|8
368,192,54816,5,2
368,128,55268,1,8
312,128,55719,2,2,C|224:128,4,75,10|2|10|2|10
312,192,57074,6,0,C|312:360|192:280,1,300,2|4
256,192,68812,5,0
456,192,69715,1,2
256,192,70618,1,0
56,192,71521,1,2
256,192,72424,5,0
256,48,73327,1,2
256,192,74230,1,0
256,336,75132,1,2
256,192,76035,5,0
416,72,76938,1,2
256,192,77841,1,0
88,312,78744,1,2
256,192,79647,1,0
256,128,80099,5,8
288,128,80324,2,0,C|392:128,1,75,2|8
424,128,81002,5,8
424,160,81227,2,0,C|424:264,1,75,2|8
424,296,81904,5,8
392,296,82129,2,0,C|288:296,1,75,2|8
296,240,82807,5,8
296,208,83032,2,0,C|296:104,1,75,2|8
264,80,83710,5,8
232,80,83935,2,0,C|128:80,1,75,2|8
136,136,84613,5,8
136,168,84838,2,0,C|136:272,1,75,2|8
192,240,85516,5,8
224,240,85741,2,0,C|328:240,1,75,2|8
360,232,86419,5,8
360,200,86644,2,0,C|360:96,1,75,2|8
328,72,87322,6,0,B|224:72,1,75,8|2
224,72,87774,1,8
160,72,88225,6,0,B|160:192,1,75,8|2
160,176,88676,1,8
192,208,89128,6,0,B|296:208,1,75,8|2
296,208,89580,1,8
360,208,90031,6,0,B|360:328,1,75,8|2
360,312,90482,1,8
328,344,90934,6,0,B|224:344,1,75,8|2
224,344,91386,1,8
160,344,91837,6,0,B|160:224,1,75,8|2
160,240,92288,1,8
192,208,92740,6,0,B|296:208,1,75,8|2
296,208,93192,1,8
360,208,93643,6,0,B|360:88,1,75,8|2
360,104,94094,1,8
256,192,94546,12,0,95900
96,88,101318,6,0,B|192:88,2,75,2|8|2
96,88,101995,2,0,B|96:264,1,150,2|0
96,238,102672,2,8,B|192:240,1,75
170,239,103123,2,0,B|264:240,1,75,2|8
280,240,103575,1,2
312,240,103801,1,2
344,240,104026,1,8
416,128,104478,6,0,B|448:48|296:120,1,150,2|8
280,128,105155,1,2
256,144,105381,1,8
232,160,105607,1,2
208,176,105832,1,8
184,192,106058,6,2,B|96:248|280:264,1,150
280,264,106735,2,2,B|384:264,8,75,2|8|2|8|2|8|2|8|2
