osu file format v5

[General]
AudioFilename: Still Alive Rock Remix.mp3
AudioLeadIn: 993
PreviewTime: -1
Countdown: 1
SampleSet: Soft
StackLeniency: 0.7
Mode: 0
LetterboxInBreaks: 1
EditorBookmarks: 656,4156,9114,15239,22104,25114,30364,38614,51489,60989,68489,71989,76864,86364,90864,104239,112739,119989,129114,138739,145290,147729,150604,154354,158729,162604

[Metadata]
Title:Still Alive Rock Remix
Artist:GigaScythe
Creator:JarJarJacob
Version:Normal
Source:Portal
Tags:Portal Still Alive GigaScythe Giga Scythe Rock Remix Edit Ellen McLain

[Difficulty]
HPDrainRate:5
CircleSize:5
OverallDifficulty:6
SliderMultiplier:0.7
SliderTickRate:0.5

[Events]
//Background and Video events
0,0,"portal_wallpaper_jpg.jpg"
//Break Periods
2,45490,51240
2,97554,103554
2,149481,149981
//Storyboard Layer 0 (Background)
//Storyboard Layer 1 (Failing)
//Storyboard Layer 2 (Passing)
//Storyboard Layer 3 (Foreground)
//Storyboard Sound Samples
//Background Colour Transformations
3,100,163,162,255

[TimingPoints]
1531,250,4,2,0,100,1
28895,-100,4,1,0,70,0
81966,250,4,1,0,70,0
107783,250,4,2,0,100,0
121413,-100,4,1,0,70,0
132622,250,4,2,0,100,0
134871,250,4,1,0,71,0

[HitObjects]
32,192,531,1,0
96,192,781,1,0
160,192,1031,2,2,B|320:192,1,140
64,32,2531,1,2
288,192,3531,1,0
128,320,4281,5,0
192,320,4531,2,0,B|288:320,3,70
320,320,5531,1,2
160,96,6531,1,0
256,192,7031,1,2
256,192,7281,1,2
320,192,7531,1,0
96,352,8531,1,0
256,352,9281,5,0
256,352,9531,1,0
256,160,10281,2,2,B|320:160|352:160|352:224|224:224|512:224,1,280
384,288,11781,1,2
384,96,12531,2,2,B|192:0|32:96,1,350,2|8
96,288,14531,1,2
352,160,15531,1,0
96,64,16531,6,2,B|192:64,2,70
96,128,17281,1,0
96,128,17531,1,2
288,320,18531,1,2
0,320,19531,1,0
32,128,20281,5,0
96,128,20531,2,8,B|160:64,3,70
352,32,22031,2,0,B|416:96,1,70,0|8
480,288,23031,2,2,B|416:352,1,70
384,288,23531,1,0
384,0,24531,1,2
384,128,25031,1,2
160,192,25531,5,0
256,288,26031,1,0
288,224,26281,2,2,B|288:128|288:128|192:96|128:96|96:160|96:160|160:192,1,350
192,288,28031,1,0
256,288,28281,1,6
256,192,28781,12,6,30281
288,160,31531,5,4
416,160,32031,1,2
416,32,32531,1,4
288,32,33031,1,2
160,32,33531,1,4
160,160,34031,2,6,L|320:160,1,140
288,288,35031,5,4
416,288,35531,1,2
416,160,36031,1,4
288,160,36531,2,2,L|192:160,1,70
160,160,37031,1,4
160,288,37531,1,2
288,288,38031,2,6,L|448:288,1,140
416,160,39031,5,4
288,160,39531,1,2
160,160,40031,1,6
160,288,40531,1,6
288,288,41031,6,4,L|384:160,2,140,4|2|6
224,160,42531,1,6
256,192,43031,12,12,44281
256,96,44781,5,2
256,96,45031,1,2
256,96,45281,1,14
32,224,52281,5,2
96,192,52531,1,2
160,192,52781,1,2
224,192,53031,2,2,B|384:192,1,140
192,64,54281,1,8
256,64,54531,1,8
256,288,55281,2,8,B|160:288,1,70
160,224,56531,5,0
160,224,56781,1,8
160,224,57031,1,8
160,160,57281,2,8,B|160:32|256:0|256:288|256:288|416:288,1,420
352,160,59281,1,4
256,288,60281,1,8
256,224,60531,1,8
96,160,61531,5,0
224,160,62031,1,0
224,160,62281,2,2,B|256:256|384:192|480:224|384:288|448:352|128:224,1,490,2|4
159,236,64281,1,2
352,320,65031,1,0
288,320,65281,1,0
160,320,65781,1,4
160,192,66281,1,12
160,128,66531,1,12
352,32,67281,1,12
288,32,67531,1,12
256,192,68281,6,4,B|192:256,1,70
256,192,68781,2,4,B|320:256,1,70
256,192,69281,2,4,B|256:96,1,70,4|6
64,32,70281,2,8,B|64:128,1,70
64,320,71281,2,8,B|160:320,1,70
288,256,72531,6,8,B|192:256,3,70
256,64,74031,1,0
256,64,74281,1,2
384,224,75031,1,0
384,224,75281,1,4
96,224,76281,1,8
96,160,76531,1,8
416,64,77531,5,0
320,160,78031,1,0
256,192,78281,2,0,B|160:192|160:192|160:256|160:256|256:256|256:256|256:320|256:320|320:320|320:320|320:256|320:256|384:256|384:256|384:256,1,490
416,256,80281,1,2
256,192,80781,12,2,82281
256,192,83031,5,2
256,192,83281,1,2
256,128,83531,2,0,L|160:256,1,140,4|2
256,320,84531,1,4
352,224,85031,1,2
256,128,85531,1,6
160,224,86031,1,6
160,96,86531,1,6
256,192,87031,6,0,L|160:192,1,70
128,192,87531,1,2
160,64,88031,1,4
288,128,88531,1,2
224,256,89031,1,4
96,192,89531,1,6
96,192,90031,1,6
96,192,90531,1,6
256,256,91031,6,2,B|352:256,4,70
256,256,92531,1,4
128,256,93031,2,2,L|32:256,2,70
128,192,93781,2,2,L|32:192,2,70
192,192,94531,1,4
256,192,95031,12,4,96281
256,256,96781,5,14
256,256,97031,1,14
256,256,97281,1,14
64,96,104531,6,6,B|128:128|128:128|192:96|192:96|192:96|192:96|192:96|192:96|192:96,1,140
256,96,105281,1,0
320,96,105531,1,6
256,192,108281,6,0,B|352:192,1,70
320,128,108781,2,0,B|224:128,1,70
192,64,109281,1,0
32,192,110031,1,0
96,192,110281,1,2
320,192,111031,1,2
384,192,111281,1,0
256,192,113531,5,0
96,320,114281,1,2
96,96,115031,1,0
224,160,115531,1,0
224,288,116031,1,0
288,288,116281,1,0
96,288,117031,1,0
96,288,117281,1,0
224,224,117781,1,4
96,192,120531,5,2
160,192,120781,1,2
224,192,121031,1,2
288,192,121281,2,0,B|288:96,1,70,0|6
96,32,122281,1,8
96,96,122531,1,8
288,32,123281,2,8,L|288:128,1,70
64,192,124531,6,2,B|256:192|288:128|288:128|288:128|288:128,1,210
256,352,126031,2,2,B|160:352,1,70
352,224,127031,2,2,B|288:288,1,70
32,256,128281,1,8
32,192,128531,1,8
256,192,129531,12,4,132281
32,128,132781,6,2,B|96:192,1,70
128,224,133281,2,2,B|192:288,1,70
224,224,133781,2,2,B|288:160,1,70
320,128,134281,1,6
288,256,135531,5,4
192,160,136031,1,2
288,64,136531,1,4
160,64,137031,1,4
224,192,137531,1,4
128,288,138031,1,4
128,160,138531,1,4
256,224,139031,5,10
256,224,139281,1,10
256,224,139531,1,10
256,96,140031,1,4
128,160,140531,1,2
256,160,141031,1,4
416,160,141531,2,2,B|320:160,1,70
288,160,142031,1,6
288,160,142531,1,4
160,224,143031,5,4
288,224,143531,1,2
288,96,144031,1,4
160,96,144531,1,2
32,96,145031,1,4
32,224,145531,2,2,B|128:224,2,70
32,224,146281,1,10
32,224,146531,1,10
256,192,147031,12,6,149281
32,192,151031,6,0,B|416:192,1,350
384,64,152781,1,2
384,64,153031,1,2
384,64,153281,1,2
384,64,154781,6,0,B|288:128|384:192|384:192|416:256|320:320|320:320|256:320|224:256,1,420
160,160,156781,1,0
96,96,157031,1,0
32,32,157281,1,0
64,32,158781,5,0
64,96,159031,1,0
64,160,159281,1,0
64,224,159531,2,2,B|288:224,1,210
384,224,160781,1,2
384,224,161031,1,2
384,224,161281,1,2
288,256,162781,6,0,B|224:224|224:224|288:192|288:192|224:160|224:160|288:128|288:128|224:96|224:96|288:64,1,420
416,64,164781,1,6
416,128,165031,1,6
416,192,165281,1,6
416,192,166781,6,2,B|320:192,1,70
288,192,167281,2,2,B|192:192,1,70
160,192,167781,2,2,B|64:192,2,70
288,192,168781,1,2
352,192,169031,1,2
416,192,169281,1,6
192,192,170781,5,6
256,192,171031,1,6
320,192,171281,1,14
288,160,172781,5,10
288,224,173031,1,10
224,224,173281,1,14
224,160,173531,1,4
