osu file format v5

[General]
AudioFilename: Still Alive Rock Remix.mp3
AudioLeadIn: 982
PreviewTime: 28536
Countdown: 1
SampleSet: Soft
StackLeniency: 0.7
Mode: 0
LetterboxInBreaks: 1
EditorBookmarks: 656,4156,9114,15239,22104,25114,30364,38614,51489,60989,68489,71989,76864,86364,90864,104239,112739,119989,129114,138739,147729,150604,154354,158729,162604

[Metadata]
Title:Still Alive Rock Remix
Artist:GigaScythe
Creator:JarJarJacob
Version:Beginner
Source:Portal
Tags:Portal Still Alive GigaScythe Giga Scythe Rock Remix Edit Ellen McLain

[Difficulty]
HPDrainRate:4
CircleSize:4
OverallDifficulty:5
SliderMultiplier:0.5
SliderTickRate:0.5

[Events]
//Background and Video events
0,0,"portal_wallpaper_jpg.jpg"
//Break Periods
2,45490,51215
2,97554,103554
2,149481,149831
//Storyboard Layer 0 (Background)
//Storyboard Layer 1 (Failing)
//Storyboard Layer 2 (Passing)
//Storyboard Layer 3 (Foreground)
//Storyboard Sound Samples
//Background Colour Transformations
3,100,163,162,255

[TimingPoints]
1531,250,4,2,0,100,1
31264,-100,4,1,0,71,0
107913,-100,4,2,0,100,0
121413,-100,4,1,0,69,0
133163,-100,4,2,0,100,0
134808,-100,4,1,0,69,0

[HitObjects]
128,32,531,2,0,B|352:32,1,200
32,352,4281,6,0,L|288:352,1,250,0|2
288,160,6531,1,0
128,160,7281,1,2
64,192,9531,5,0
224,192,10281,2,2,B|224:32|224:32|384:32|384:32|384:192|384:192|256:192,1,600
256,288,13781,1,8
384,64,16531,6,0,B|352:128|320:96|320:96|288:64|256:128|256:128|224:96|224:96|224:96|224:96|224:96|224:96,1,200
32,192,20531,5,0
192,192,21281,1,0
384,192,22281,1,2
192,192,23281,1,2
128,192,26281,6,2,B|288:0|480:192,1,400
256,32,29531,6,4,B|256:192,1,150
32,192,31531,5,0
224,192,32531,1,0
384,320,33531,1,2
384,224,34031,1,2
384,128,34531,1,0
224,256,35531,5,0
224,64,36531,1,0
384,192,37531,1,2
320,256,38031,1,2
256,320,38531,1,2
64,128,39531,6,12,B|192:288,1,200
384,224,41531,2,12,B|256:64,1,200
256,192,43031,12,4,45281
96,192,52281,6,2,B|160:256|160:256|224:192|224:192|288:256,1,250
64,192,57281,5,0
352,192,58781,1,0
448,192,59281,1,2
256,192,61531,12,2,65781
32,192,68281,6,2,B|256:192,1,200
288,192,69531,1,2
128,192,72531,6,2,B|192:192|192:128|320:160,1,150
96,288,74281,1,0
256,192,75281,1,4
416,64,77531,5,0
256,64,78281,1,0
448,192,79531,2,0,B|288:192,1,150
256,192,80781,12,2,82281
224,128,83531,5,4
416,128,84531,1,0
224,224,85531,1,2
288,288,86031,1,2
352,224,86531,1,2
160,192,87531,5,0
352,192,88531,1,0
128,192,89531,1,2
128,288,90031,1,2
128,192,90531,1,2
128,96,91031,6,2,B|448:96,1,300
416,192,93031,2,2,B|96:192,1,300
256,192,95031,12,12,97281
96,192,104531,5,0
256,192,105281,1,2
320,192,105531,1,6
384,192,108281,6,2,B|160:192,1,200
32,32,110281,1,2
160,160,111281,1,2
256,192,113531,5,0
256,32,114281,1,0
416,32,115031,1,0
416,128,115531,2,2,B|416:256|416:256|160:256,1,350
96,256,117781,1,8
256,128,120531,6,0,B|256:192,2,50
256,64,121281,2,0,B|192:64,1,50,0|6
160,160,125281,5,2
160,320,126031,2,2,B|448:320,1,250
256,192,129531,12,4,132281
96,128,133531,5,2
256,128,134281,1,6
288,256,135531,5,4
96,256,136531,1,0
96,32,137531,1,2
192,32,138031,1,2
288,32,138531,1,2
288,128,139031,6,10,B|288:192,2,50
288,320,140531,1,0
288,128,141531,1,2
192,128,142031,1,2
96,128,142531,1,2
96,224,143031,6,2,B|416:224,1,300
384,128,145031,1,2
288,128,145531,1,10
192,128,146031,1,10
96,128,146531,1,10
256,192,147156,12,6,149281
32,192,151031,6,2,B|512:192,1,450
480,192,154781,6,2,B|416:192|416:192|320:0|192:224|192:224|288:320,1,500
288,320,158781,6,2,B|288:224|288:224|96:256|96:256|192:128|192:128|256:128|256:128|256:128,1,500
224,128,162781,6,2,B|224:64,2,50
160,128,163531,2,2,B|160:64,3,50
64,128,164781,2,10,B|96:224,1,100
96,224,166781,6,2,B|256:224|256:224|256:288|256:288|160:288|160:288|160:96,1,500
224,192,170781,6,8,B|288:192,2,50
192,192,172781,6,8,B|256:192,1,50
288,192,173281,1,4
