osu file format v14

[General]
AudioFilename: MEIKO V3Persecution Complex Cellphone Girl (LOL) ().mp3
AudioLeadIn: 0
PreviewTime: -1
Countdown: 1
SampleSet: None
StackLeniency: 0.7
Mode: 0
LetterboxInBreaks: 1
WidescreenStoryboard: 1

[Editor]
DistanceSpacing: 1
BeatDivisor: 4
GridSize: 4
TimelineZoom: 1.3

[Metadata]
Title:Persecution Complex Cellphone girl ft. Meiko
TitleUnicode:Persecution Complex Cellphone girl ft. Meiko
Artist:GigaP
ArtistUnicode:GigaP
Creator:Nitronic Techno
Version:Normal
Source:
Tags:Cellphone girl Meiko GigaP
BeatmapID:775048
BeatmapSetID:351660

[Difficulty]
HPDrainRate:4
CircleSize:4
OverallDifficulty:4
ApproachRate:5
SliderMultiplier:1.4
SliderTickRate:1

[Events]
//Background and Video events
0,0,"0.jpg",0,0
//Break Periods
2,16533,22606
2,60369,64651
2,162897,168969
//Storyboard Layer 0 (Background)
//Storyboard Layer 1 (Fail)
//Storyboard Layer 2 (Pass)
//Storyboard Layer 3 (Foreground)
//Storyboard Sound Samples

[TimingPoints]
1988,454.545454545455,4,1,0,100,1,0
9260,-90.9090909090909,4,1,0,100,0,0
14715,-166.666666666667,4,2,0,50,0,0
16533,-83.3333333333333,4,1,0,100,0,0
31078,-111.111111111111,4,2,0,100,0,0
60169,-142.857142857143,4,1,0,100,0,0
67442,-90.9090909090908,4,1,0,100,0,1
81988,-125,4,1,0,100,0,0
89260,-111.111111111111,4,2,0,100,0,0
103578,-99.9999999999999,4,1,0,100,0,0
118351,-90.9090909090909,4,1,0,100,0,1
132897,-83.3333333333333,4,1,0,100,0,1
147442,-133.333333333333,4,1,0,40,0,0
162442,-66.6666666666667,4,1,0,100,0,0
162897,-100,4,1,0,100,0,0
175851,-100,4,2,0,100,0,0
177442,-83.3333333333333,4,1,0,100,0,1
206533,-100,4,1,0,100,0,0
213806,-90.9090909090909,4,1,0,100,0,0

[HitObjects]
72,168,1988,6,2,P|152:132|224:136,1,140
344,148,2897,2,2,L|428:236,2,105
223,218,4033,1,2,0:0:0:0:
223,218,4260,1,2,0:0:0:0:
357,179,4715,2,2,L|417:73,2,105
287,169,5624,6,2,L|145:106,1,140
107,242,6533,2,2,P|174:268|218:250,2,105
226,168,7669,1,2,0:0:0:0:
226,168,7897,1,2,0:0:0:0:
365,168,8351,1,2,0:0:0:0:
365,168,8578,2,2,P|317:117|230:80,1,140
186,121,9260,6,2,P|173:197|230:282,1,154.000004699707
359,248,10169,2,2,L|432:125,2,115.50000352478
255,191,11306,1,2,0:0:0:0:
255,191,11533,1,2,0:0:0:0:
101,172,11988,2,2,L|65:296,2,115.50000352478
117,96,12897,2,2,P|202:88|282:96,1,154.000004699707
410,156,13806,2,2,L|451:290,2,115.50000352478
162,97,23806,5,4,2:0:0:0:
328,117,24260,1,0,0:0:0:0:
189,213,24715,2,0,L|100:311,2,125.999996154785
357,206,25851,2,0,P|380:154|320:49,1,167.999994873047
232,190,26760,1,0,0:0:0:0:
232,190,26988,1,0,0:0:0:0:
232,190,27215,1,0,0:0:0:0:
232,190,27442,5,0,0:0:0:0:
74,248,27897,1,0,0:0:0:0:
146,96,28351,2,0,P|210:76|300:89,2,125.999996154785
302,158,29488,2,0,P|335:201|275:309,1,167.999994873047
152,216,30397,2,0,L|80:164,2,83.9999974365235
192,167,31078,6,0,P|249:121|317:92,1,125.999996154785,4|0,2:0|0:0,0:0:0:0:
419,70,31988,2,0,P|428:140|408:206,1,125.999996154785
353,178,32669,2,0,P|334:228|263:279,1,125.999996154785
166,216,33578,2,0,L|97:208,4,62.9999980773926
172,153,34715,6,0,P|175:102|115:48,1,125.999996154785
250,67,35624,2,0,P|202:84|174:171,1,125.999996154785
233,155,36306,2,0,P|277:135|367:146,1,125.999996154785
365,265,37215,2,0,L|287:277,4,62.9999980773926
309,235,38351,6,4,L|174:179,1,125.999996154785,4|0,2:0|2:0,2:0:0:0:
68,208,39260,2,0,P|107:139|161:118,1,125.999996154785
208,105,39942,2,0,P|265:104|339:131,1,125.999996154785
397,231,40851,2,0,L|324:216,4,62.9999980773926
352,276,41988,6,0,P|281:300|212:281,1,125.999996154785
167,182,42897,2,0,P|172:120|236:94,1,125.999996154785
273,130,43578,2,0,P|309:162|338:251,1,125.999996154785
214,264,44488,2,0,L|281:302,1,62.9999980773926
56,158,45624,6,0,P|119:118|189:111,1,125.999996154785,4|0,0:0|0:0,0:0:0:0:
294,103,46533,2,0,P|367:114|424:166,1,125.999996154785
365,191,47215,2,0,P|323:238|239:231,1,125.999996154785
237,184,47897,2,0,P|200:198|169:280,1,125.999996154785
229,286,48578,2,0,L|310:288,2,62.9999980773926
216,224,49260,6,0,P|163:175|144:108,1,125.999996154785
264,85,50169,2,0,P|326:91|380:125,1,125.999996154785
330,165,50851,2,0,P|352:218|403:275,1,125.999996154785
333,275,51533,2,0,P|281:236|201:211,1,125.999996154785
161,204,52215,2,0,L|81:172,2,62.9999980773926
164,140,52897,6,0,B|167:70|167:70|242:72,1,125.999996154785,4|0,0:0|0:0,0:0:0:0:
310,162,53806,2,0,B|340:217|340:217|382:143,1,125.999996154785
339,107,54488,2,0,B|274:89|274:89|253:168,1,125.999996154785
284,203,55169,2,0,P|246:231|169:233,1,125.999996154785
189,173,55851,5,0,0:0:0:0:
189,173,56078,1,0,0:0:0:0:
189,173,56306,1,0,0:0:0:0:
357,86,56988,2,0,L|386:238,1,125.999996154785
314,102,57897,2,0,L|258:229,1,125.999996154785
268,91,58806,2,0,L|189:216,1,125.999996154785
122,98,59715,1,0,0:0:0:0:
120,195,60169,5,4,2:0:0:0:
325,270,65851,6,0,P|379:212|288:101,1,244.999992523194
152,73,67442,6,0,L|174:248,1,154.000004699707,4|0,2:0|0:0,0:0:0:0:
235,85,68351,2,0,L|268:250,1,154.000004699707
292,163,69033,2,0,L|372:299,1,154.000004699707
217,271,69942,2,0,L|130:256,4,77.0000023498536
282,311,71078,6,0,L|365:153,1,154.000004699707,4|0,2:0|0:0,0:0:0:0:
232,269,71988,2,0,L|302:117,1,154.000004699707
221,146,72669,2,0,L|146:298,1,154.000004699707
30,190,73578,2,0,L|72:114,1,77.0000023498536
116,182,74033,2,0,L|182:102,1,77.0000023498536
315,91,74715,6,4,L|350:268,1,154.000004699707,4|0,2:0|2:0,2:0:0:0:
278,102,75624,2,0,L|240:274,1,154.000004699707
304,203,76306,2,0,L|323:376,1,154.000004699707
171,319,77215,2,0,L|112:245,3,77.0000023498536
118,181,78124,6,0,P|186:107|420:302,1,462.000014099122,4|0,2:0|0:0,0:0:0:0:
282,320,79942,2,0,P|182:285|362:67,1,539.000016448975,4|0,2:0|0:0,0:0:0:0:
289,153,81988,6,0,L|224:262,1,112,8|0,0:0|0:0,0:0:0:0:
231,249,82897,2,8,L|165:145,1,112
170,154,83806,2,8,L|282:80,1,112
263,92,84715,2,8,L|377:170,1,112
355,155,85624,2,8,L|349:284,1,112
349,266,86533,2,8,L|219:290,1,112
238,286,87442,2,8,L|143:195,1,112
143,97,88351,1,8,0:0:0:0:
391,140,89260,6,0,L|428:290,1,125.999996154785,4|0,2:0|0:0,0:0:0:0:
334,170,90169,2,0,L|360:310,1,125.999996154785
307,254,90851,2,0,L|179:182,1,125.999996154785
185,130,91533,2,0,L|263:95,1,62.9999980773926
304,93,91988,2,0,L|383:98,3,62.9999980773926
346,156,92897,6,0,P|317:234|272:266,1,125.999996154785,4|0,0:0|0:0,0:0:0:0:
159,252,93806,2,0,L|256:361,1,125.999996154785
290,304,94488,2,0,L|253:184,1,125.999996154785
299,141,95169,2,0,L|377:170,1,62.9999980773926
421,166,95624,2,0,L|422:250,3,62.9999980773926
377,274,96533,6,0,L|249:326,1,125.999996154785,4|0,0:0|0:0,0:0:0:0:
136,298,97442,2,0,L|74:161,1,125.999996154785
124,134,98124,2,0,L|245:214,1,125.999996154785
286,175,98806,2,0,L|353:153,1,62.9999980773926
408,153,99260,2,0,L|383:225,3,62.9999980773926
350,263,100169,6,0,P|298:293|206:301,1,125.999996154785,4|0,0:0|0:0,0:0:0:0:
125,238,101078,2,0,P|157:170|213:126,1,125.999996154785
254,117,101760,2,0,P|310:138|358:197,1,125.999996154785
241,245,102669,2,0,L|292:286,1,62.9999980773926
432,129,103578,6,2,L|431:208,15,70,2|2|2|2|2|2|2|2|2|2|2|2|2|2|2|2,1:0|1:0|1:0|1:0|1:0|1:0|1:0|1:0|1:0|1:0|1:0|1:0|1:0|1:0|1:0|1:0,1:0:0:0:
363,180,107215,6,2,L|356:263,13,70,2|2|2|2|2|2|2|2|2|2|2|2|2|2,1:0|1:0|1:0|1:0|1:0|1:0|1:0|1:0|1:0|1:0|1:0|1:0|1:0|1:0,1:0:0:0:
261,147,110624,6,0,P|210:137|126:187,1,140
218,287,111533,2,0,P|281:254|310:214,2,105
357,302,112669,2,0,P|384:254|389:153,1,140
252,169,113578,2,0,L|136:166,2,105
320,291,114715,6,0,L|362:153,1,140
231,211,115624,2,0,L|103:307,1,140
152,158,116533,2,0,L|209:96,4,70
290,176,117897,1,0,0:0:0:0:
150,111,118351,6,0,P|199:70|317:84,1,154.000004699707,4|0,2:0|0:0,0:0:0:0:
377,190,119260,2,0,P|357:248|280:302,1,154.000004699707
206,300,119942,2,0,P|154:273|119:170,1,154.000004699707
263,141,120851,2,0,L|321:77,4,77.0000023498536
324,187,121988,6,0,P|339:247|261:338,1,154.000004699707,4|0,2:0|0:0,0:0:0:0:
153,261,122897,2,0,P|135:184|168:101,1,154.000004699707
230,88,123578,2,0,P|236:147|281:268,1,154.000004699707
408,293,124488,2,0,L|434:212,3,77.0000023498536
293,150,125624,6,0,P|240:133|150:184,1,154.000004699707,4|0,2:0|0:0,0:0:0:0:
302,223,126533,2,0,P|256:246|146:218,1,154.000004699707
222,184,127215,2,0,P|266:294|302:300,1,154.000004699707
435,257,128124,2,0,L|402:160,1,77.0000023498536
334,196,128578,2,0,L|254:150,2,77.0000023498536,0|0|4,0:0|0:0|2:0,0:0:0:0:
192,257,129488,6,0,P|157:304|96:318,2,115.50000352478
327,183,130624,1,0,0:0:0:0:
189,114,131078,2,0,P|158:155|151:222,2,115.50000352478
311,310,132442,1,0,0:0:0:0:
419,181,132897,6,0,P|371:152|239:160,1,167.999994873047,4|0,2:0|0:0,0:0:0:0:
98,107,133806,2,0,P|95:188|138:273,1,167.999994873047
211,292,134488,2,0,P|265:272|326:178,1,167.999994873047
173,109,135397,2,0,L|216:206,4,83.9999974365235
256,108,136533,6,0,P|308:105|408:193,1,167.999994873047,4|0,2:0|0:0,0:0:0:0:
232,193,137442,2,0,P|203:244|270:350,1,167.999994873047
303,279,138124,2,0,P|319:214|408:147,1,167.999994873047
235,93,139033,2,0,L|190:202,4,83.9999974365235
318,93,140169,6,0,P|296:144|323:261,1,167.999994873047,4|0,2:0|0:0,0:0:0:0:
245,98,141078,2,0,P|258:154|235:298,1,167.999994873047
165,249,141760,2,0,P|233:303|342:295,1,167.999994873047
295,139,142669,2,0,L|293:238,3,83.9999974365235
225,173,143578,6,0,L|81:62,1,167.999994873047,4|0,2:0|0:0,0:0:0:0:
99,238,144488,2,0,L|241:347,1,167.999994873047
311,311,145169,1,0,0:0:0:0:
360,242,145397,2,0,L|292:76,1,167.999994873047
212,92,146078,1,0,0:0:0:0:
139,135,146306,2,0,L|168:229,4,83.9999974365235
190,144,147442,6,0,L|378:252,2,210.000008010865
142,237,149715,2,0,L|166:350,1,105.000004005432
370,304,151078,6,0,L|182:196,2,210.000008010865
353,200,153351,2,0,L|250:153,1,105.000004005432
162,344,154715,6,0,L|156:120,2,210.000008010865
298,264,157215,6,2,L|322:254,10,26.2500010013581
256,192,158465,12,0,159942,0:0:0:0:
256,192,160056,12,2,161988,0:0:0:0:
99,111,170169,6,2,P|146:86|246:90,1,140
246,224,171078,1,2,0:0:0:0:
246,224,171419,1,2,0:0:0:0:
246,224,171760,1,2,0:0:0:0:
308,255,171988,6,2,P|292:193|229:143,1,140
135,243,172897,1,2,0:0:0:0:
135,243,173238,1,2,0:0:0:0:
135,243,173578,1,2,0:0:0:0:
64,245,173806,6,2,P|92:199|181:167,1,140
283,247,174715,1,2,0:0:0:0:
283,247,175056,1,2,0:0:0:0:
283,247,175397,1,2,0:0:0:0:
422,252,175851,6,0,P|401:202|380:188,1,70
333,151,176306,2,0,P|291:146|239:161,1,70
201,181,176760,2,0,P|177:224|191:266,1,70
99,94,177442,6,0,P|101:163|147:260,1,167.999994873047,4|0,2:0|0:0,0:0:0:0:
173,174,178124,1,0,0:0:0:0:
238,227,178351,2,0,L|351:233,1,83.9999974365235
465,319,179033,2,0,P|457:220|415:153,1,167.999994873047
270,90,179942,2,0,L|179:123,4,83.9999974365235
276,173,181078,6,0,P|261:241|189:339,1,167.999994873047,4|0,2:0|0:0,0:0:0:0:
133,282,181760,1,0,0:0:0:0:
59,240,181988,2,0,L|105:146,1,83.9999974365235
247,93,182669,2,0,P|316:93|405:145,1,167.999994873047
258,229,183578,2,0,L|165:229,3,83.9999974365235
338,265,184715,6,0,P|367:197|335:100,1,167.999994873047,4|0,2:0|0:0,0:0:0:0:
260,128,185397,1,0,0:0:0:0:
178,147,185624,2,0,P|175:221|191:253,1,83.9999974365235
345,234,186306,2,0,P|285:295|188:308,1,167.999994873047
38,313,187215,2,0,L|63:198,1,83.9999974365235
74,282,187669,2,0,L|136:208,1,83.9999974365235
151,253,188124,6,0,P|196:208|326:173,1,167.999994873047,4|0,2:0|0:0,0:0:0:0:
331,188,188806,2,0,L|424:255,1,83.9999974365235
359,249,189260,2,0,L|362:343,1,83.9999974365235
326,309,189715,2,0,L|242:348,1,83.9999974365235,0|4,0:0|2:0,0:0:0:0:
174,307,190397,6,0,L|119:238,1,83.9999974365235
162,231,190851,2,0,L|172:138,1,83.9999974365235
210,160,191306,1,0,0:0:0:0:
247,141,191533,2,0,P|298:125|435:133,1,167.999994873047,0|4,0:0|2:0,0:0:0:0:
391,208,192442,6,0,L|315:289,3,83.9999974365235
278,206,193578,2,0,P|202:183|108:197,1,167.999994873047
161,123,194488,2,0,L|256:111,4,83.9999974365235
217,184,195624,6,0,P|260:230|391:278,1,167.999994873047,4|0,2:0|0:0,0:0:0:0:
278,311,196306,1,0,0:0:0:0:
205,353,196533,2,0,L|143:278,1,83.9999974365235
62,145,197215,2,0,P|77:231|144:298,1,167.999994873047
273,203,198124,2,0,L|370:160,3,83.9999974365235
189,116,199260,6,0,P|179:191|220:273,1,167.999994873047,4|0,2:0|0:0,0:0:0:0:
287,319,199942,1,0,0:0:0:0:
350,263,200169,2,0,L|366:177,1,83.9999974365235
208,119,200851,2,0,P|196:205|246:281,1,167.999994873047
298,116,201760,2,0,L|394:109,1,83.9999974365235
310,154,202215,2,0,L|389:204,1,83.9999974365235
324,260,202669,6,0,P|282:317|166:335,1,167.999994873047,4|0,2:0|0:0,0:0:0:0:
154,265,203351,2,0,L|106:168,1,83.9999974365235
125,105,203806,2,0,L|229:78,1,83.9999974365235
226,165,204260,1,0,0:0:0:0:
280,228,204488,6,0,P|344:238|436:194,1,167.999994873047,4|0,2:0|0:0,0:0:0:0:
359,159,205169,2,0,L|277:106,1,83.9999974365235
212,148,205624,2,0,L|156:227,1,83.9999974365235
231,265,206078,1,0,0:0:0:0:
358,206,206533,6,8,L|291:337,1,140
294,330,207442,2,8,L|193:213,1,140
202,224,208351,2,8,L|360:223,1,140
341,223,209260,2,8,L|268:99,1,140
269,102,210169,2,8,L|187:230,1,140
193,219,211078,2,0,P|249:257|318:201,1,140
388,112,211988,2,8,L|392:167,2,35
248,105,212669,6,8,P|221:157|232:198,1,70
251,303,213351,6,8,L|325:323,1,70
