osu file format v14

[General]
AudioFilename: MEIKO V3Persecution Complex Cellphone Girl (LOL) ().mp3
AudioLeadIn: 0
PreviewTime: -1
Countdown: 1
SampleSet: None
StackLeniency: 0.7
Mode: 0
LetterboxInBreaks: 1
WidescreenStoryboard: 0

[Editor]
DistanceSpacing: 1
BeatDivisor: 4
GridSize: 4
TimelineZoom: 1

[Metadata]
Title:Persecution Complex Cellphone girl ft. Meiko
TitleUnicode:Persecution Complex Cellphone girl ft. Meiko
Artist:GigaP
ArtistUnicode:GigaP
Creator:Nitronic Techno
Version:Hard
Source:
Tags:Cellphone girl Meiko GigaP
BeatmapID:775047
BeatmapSetID:351660

[Difficulty]
HPDrainRate:6
CircleSize:4
OverallDifficulty:6
ApproachRate:7
SliderMultiplier:1.8
SliderTickRate:2

[Events]
//Background and Video events
0,0,"0.jpg",0,0
//Break Periods
2,16278,22906
//Storyboard Layer 0 (Background)
//Storyboard Layer 1 (Fail)
//Storyboard Layer 2 (Pass)
//Storyboard Layer 3 (Foreground)
//Storyboard Sound Samples

[TimingPoints]
1988,454.545454545455,4,1,0,100,1,0
9260,-90.9090909090909,4,1,0,100,0,0
14715,-166.666666666667,4,2,0,50,0,0
16533,-83.3333333333333,4,1,0,100,0,0
31078,-111.111111111111,4,2,0,100,0,0
60169,-142.857142857143,4,1,0,100,0,0
67442,-90.9090909090908,4,1,0,100,0,1
81988,-125,4,1,0,100,0,0
89260,-111.111111111111,4,2,0,100,0,0
103578,-99.9999999999999,4,1,0,100,0,0
118351,-90.9090909090909,4,1,0,100,0,1
132897,-83.3333333333333,4,1,0,100,0,1
147442,-133.333333333333,4,1,0,40,0,0
162442,-66.6666666666667,4,1,0,100,0,0
162897,-100,4,1,0,100,0,0
175851,-100,4,2,0,100,0,0
177442,-83.3333333333333,4,1,0,100,0,1
206533,-100,4,1,0,100,0,0
213806,-90.9090909090909,4,1,0,100,0,0

[HitObjects]
69,68,1988,5,2,0:0:0:0:
162,152,2442,1,2,0:0:0:0:
263,76,2897,2,2,P|325:100|384:168,2,135
264,202,4033,1,2,0:0:0:0:
264,264,4260,1,0,0:0:0:0:
151,320,4715,2,2,P|114:266|133:173,2,135
214,324,5624,5,2,0:0:0:0:
304,236,6078,1,2,0:0:0:0:
399,318,6533,2,2,P|447:266|455:195,2,135
317,222,7669,1,2,0:0:0:0:
272,176,7897,1,2,0:0:0:0:
174,96,8351,1,2,0:0:0:0:
137,147,8578,1,2,0:0:0:0:
229,232,9033,1,2,0:0:0:0:
282,276,9260,5,2,0:0:0:0:
389,188,9715,1,2,0:0:0:0:
253,162,10169,2,2,P|207:132|199:38,2,148.500004531861
136,238,11306,1,2,0:0:0:0:
178,292,11533,1,2,0:0:0:0:
310,333,11988,2,2,L|310:176,2,148.500004531861
379,332,12897,5,2,0:0:0:0:
452,214,13351,1,2,0:0:0:0:
355,114,13806,2,2,P|280:95|182:123,2,148.500004531861
256,242,14942,6,0,P|209:214|196:203,1,53.9999983520508
287,191,15397,2,0,P|247:178|223:175,1,53.9999983520508
272,220,15851,2,0,L|224:185,1,53.9999983520508
87,79,23806,6,0,P|113:148|116:297,1,215.999993408203,4|0,2:0|0:0,0:0:0:0:
187,318,24488,1,0,0:0:0:0:
249,275,24715,2,2,P|262:208|351:149,2,161.999995056153
145,166,25851,1,0,0:0:0:0:
223,129,26078,1,0,0:0:0:0:
329,218,26533,2,2,B|335:161|335:161|448:249,2,161.999995056153
315,292,27442,6,0,P|257:255|224:113,1,215.999993408203,4|0,2:0|0:0,0:0:0:0:
148,138,28124,1,0,0:0:0:0:
95,192,28351,2,2,P|76:263|139:314,2,161.999995056153
242,224,29488,1,0,0:0:0:0:
292,153,29715,1,0,0:0:0:0:
327,279,30169,1,0,0:0:0:0:
372,205,30397,1,0,0:0:0:0:
208,149,30851,1,0,0:0:0:0:
117,138,31078,6,0,P|123:216|180:287,1,161.999995056153,4|0,0:0|0:0,0:0:0:0:
264,311,31760,1,0,0:0:0:0:
355,276,31988,1,8,0:0:0:0:
415,200,32215,1,0,0:0:0:0:
189,111,32669,6,0,P|129:80|69:159,1,161.999995056153
128,214,33351,1,8,0:0:0:0:
208,267,33578,2,0,P|254:225|271:183,1,80.9999975280763
193,278,34033,2,0,P|148:306|97:297,2,80.9999975280763,0|8|0,0:0|0:0|0:0,0:0:0:0:
307,120,34942,5,0,0:0:0:0:
307,120,35056,1,0,0:0:0:0:
307,120,35169,2,0,P|332:192|322:214,1,80.9999975280763,8|0,0:0|0:0,0:0:0:0:
234,199,35624,2,0,P|269:256|305:270,1,80.9999975280763
120,149,36306,6,8,P|126:204|220:267,1,161.999995056153,0|0,0:0|0:0,0:0:0:0:
341,141,37215,1,0,0:0:0:0:
387,234,37442,1,8,0:0:0:0:
297,182,37669,1,0,0:0:0:0:
390,177,37897,1,0,0:0:0:0:
317,242,38124,1,0,0:0:0:0:
124,270,38578,6,0,P|78:242|68:201,2,80.9999975280763,0|8|0,0:0|0:0|0:0,0:0:0:0:
174,186,39260,1,0,0:0:0:0:
253,129,39488,1,0,0:0:0:0:
332,184,39715,1,8,0:0:0:0:
393,258,39942,1,0,0:0:0:0:
213,332,40397,5,0,0:0:0:0:
213,332,40510,1,0,0:0:0:0:
213,332,40624,2,0,L|214:242,1,80.9999975280763,8|0,0:0|0:0,0:0:0:0:
130,201,41078,1,0,0:0:0:0:
227,201,41306,1,0,0:0:0:0:
294,131,41533,1,8,0:0:0:0:
208,84,41760,1,0,0:0:0:0:
400,112,42215,5,0,0:0:0:0:
402,209,42442,1,8,0:0:0:0:
310,176,42669,1,0,0:0:0:0:
246,249,42897,1,0,0:0:0:0:
148,246,43124,2,0,P|96:210|86:169,1,80.9999975280763,0|8,0:0|0:0,0:0:0:0:
109,100,43578,2,0,P|135:158|215:248,1,161.999995056153
368,326,44488,1,0,0:0:0:0:
429,251,44715,2,0,P|411:177|340:111,1,161.999995056153,8|0,0:0|0:0,0:0:0:0:
161,78,45624,6,0,L|152:183,1,80.9999975280763,8|0,0:0|0:0,0:0:0:0:
209,78,46078,1,0,0:0:0:0:
305,94,46306,1,0,0:0:0:0:
388,142,46533,1,8,0:0:0:0:
362,235,46760,2,0,P|314:267|257:263,1,80.9999975280763
171,251,47215,6,0,P|140:218|127:85,1,161.999995056153
119,106,47783,1,0,0:0:0:0:
119,106,47897,1,0,0:0:0:0:
201,159,48124,1,0,0:0:0:0:
278,100,48351,1,8,0:0:0:0:
351,163,48578,1,0,0:0:0:0:
278,100,48806,1,0,0:0:0:0:
278,197,49033,1,0,0:0:0:0:
106,288,49488,5,0,0:0:0:0:
106,288,49601,1,0,0:0:0:0:
106,288,49715,1,0,0:0:0:0:
69,198,49942,1,0,0:0:0:0:
144,137,50169,1,8,0:0:0:0:
182,226,50397,2,0,P|230:260|337:249,1,161.999995056153
442,95,51306,6,0,P|358:83|265:104,1,161.999995056153
293,210,51988,1,8,0:0:0:0:
214,130,52215,1,0,0:0:0:0:
324,154,52442,1,0,0:0:0:0:
220,200,52669,1,0,0:0:0:0:
122,330,53124,6,0,P|155:278|198:260,1,80.9999975280763
86,192,53578,2,0,P|131:142|173:125,1,80.9999975280763,0|8,0:0|0:0,0:0:0:0:
74,44,54033,2,0,L|178:74,2,80.9999975280763
300,61,54942,5,0,0:0:0:0:
343,83,55056,1,0,0:0:0:0:
381,112,55169,1,0,0:0:0:0:
297,162,55397,2,0,P|354:198|375:232,1,80.9999975280763,0|8,0:0|0:0,0:0:0:0:
319,295,55851,2,0,L|392:347,1,80.9999975280763
287,340,56306,2,0,P|232:324|182:228,1,161.999995056153
129,155,56988,5,0,0:0:0:0:
200,88,57215,1,0,0:0:0:0:
296,88,57442,1,8,0:0:0:0:
368,156,57669,1,0,0:0:0:0:
368,256,57897,1,0,0:0:0:0:
300,328,58124,1,0,0:0:0:0:
192,328,58351,1,8,0:0:0:0:
128,256,58578,1,0,0:0:0:0:
128,156,58806,2,0,L|232:156,1,80.9999975280763
430,67,59942,5,0,0:0:0:0:
424,142,60169,2,0,P|395:214|352:239,1,125.999996154785,4|0,2:0|0:0,0:0:0:0:
315,173,60851,2,0,P|269:209|252:296,1,125.999996154785
97,280,61760,2,0,P|119:208|178:168,1,125.999996154785
91,39,62669,2,0,P|116:100|181:140,1,125.999996154785
236,155,63351,1,0,0:0:0:0:
256,192,63578,12,0,65624,0:0:0:0:
255,192,66988,5,4,2:0:0:0:
98,194,67442,6,0,P|137:147|272:120,1,198.000006042481,4|0,2:0|0:0,0:0:0:0:
352,165,68124,1,2,0:0:0:0:
384,258,68351,2,0,P|368:325|311:338,1,99.0000030212403
147,326,69033,2,0,P|98:289|116:154,1,198.000006042481
284,76,69942,6,8,L|390:118,1,99.0000030212403
279,133,70397,2,8,L|389:181,2,99.0000030212403
180,122,71078,6,0,P|192:193|243:317,1,198.000006042481,4|0,2:0|0:0,0:0:0:0:
274,216,71760,1,0,0:0:0:0:
371,199,71988,1,8,0:0:0:0:
300,129,72215,1,0,0:0:0:0:
114,60,72669,2,0,P|104:157|136:261,1,198.000006042481
320,313,73578,1,0,0:0:0:0:
384,237,73806,1,8,0:0:0:0:
286,221,74033,1,0,0:0:0:0:
227,301,74260,1,8,0:0:0:0:
145,120,74715,6,0,B|231:72|231:72|313:136,1,198.000006042481,4|0,2:0|0:0,0:0:0:0:
233,69,75397,1,0,0:0:0:0:
218,166,75624,2,0,L|199:284,1,99.0000030212403
398,289,76306,2,0,P|424:227|409:89,1,198.000006042481
216,115,77215,5,0,0:0:0:0:
178,206,77442,1,8,0:0:0:0:
266,162,77669,1,0,0:0:0:0:
167,153,77897,1,8,0:0:0:0:
243,215,78124,2,0,P|323:211|411:121,1,198.000006042481,4|2,2:0|0:0,0:0:0:0:
449,244,78806,1,2,0:0:0:0:
349,179,79033,1,2,0:0:0:0:
467,177,79260,1,0,0:0:0:0:
370,246,79488,1,2,0:0:0:0:
410,134,79715,1,2,0:0:0:0:
295,103,79942,6,0,P|240:113|138:214,1,198.000006042481,2|0,0:0|0:0,0:0:0:0:
210,304,80624,1,2,0:0:0:0:
91,304,80851,2,2,P|140:260|203:237,1,99.0000030212403
288,250,81306,2,2,P|338:274|390:320,1,99.0000030212403
252,176,81988,6,0,B|220:157|220:157|232:154|232:154|219:149|219:149|232:147|232:147|205:137|205:137|214:135|214:135|203:132|203:132|214:130|214:130|196:123|196:123|202:121|202:121|195:119|195:119|201:121|201:121,1,144,8|0,0:0|0:0,0:0:0:0:
377,95,82897,2,8,L|420:172,1,72
391,329,83578,2,8,P|309:316|267:263,1,144
106,328,84488,2,8,P|171:322|212:231,1,144
258,187,85169,2,8,B|196:124|196:124|279:123,1,144
416,69,86078,5,8,0:0:0:0:
243,63,86533,2,8,L|246:145,1,72
79,183,87215,2,8,L|42:327,1,144
216,329,88124,2,0,L|312:302,1,72,8|8,0:0|0:0,0:0:0:0:
448,33,89260,6,0,L|451:217,1,161.999995056153,4|8,0:0|0:0,0:0:0:0:
383,265,89942,1,0,0:0:0:0:
305,206,90169,1,0,0:0:0:0:
382,147,90397,2,0,L|203:147,1,161.999995056153
225,341,91306,1,0,0:0:0:0:
292,271,91533,1,8,0:0:0:0:
225,200,91760,1,0,0:0:0:0:
170,280,91988,2,0,P|131:248|123:203,1,80.9999975280763
131,123,92442,2,0,P|180:89|230:84,1,80.9999975280763,8|0,0:0|0:0,0:0:0:0:
342,216,93124,5,0,0:0:0:0:
342,216,93238,1,0,0:0:0:0:
342,216,93351,1,8,0:0:0:0:
339,313,93578,1,0,0:0:0:0:
418,255,93806,1,0,0:0:0:0:
419,157,94033,1,0,0:0:0:0:
225,134,94488,6,0,L|190:236,1,80.9999975280763
183,130,94942,2,0,L|200:221,1,80.9999975280763,0|8,0:0|0:0,0:0:0:0:
196,307,95397,1,0,0:0:0:0:
254,229,95624,1,0,0:0:0:0:
351,230,95851,1,0,0:0:0:0:
411,154,96078,1,8,0:0:0:0:
353,75,96306,1,0,0:0:0:0:
158,80,96760,6,0,L|100:155,1,80.9999975280763,0|8,0:0|0:0,0:0:0:0:
158,80,97215,2,0,L|220:172,1,80.9999975280763
203,147,97669,2,8,L|159:239,1,80.9999975280763
120,154,98124,2,0,L|182:240,1,80.9999975280763
264,219,98578,5,0,0:0:0:0:
312,220,98692,1,0,0:0:0:0:
360,224,98806,1,8,0:0:0:0:
360,126,99033,1,0,0:0:0:0:
262,126,99260,1,0,0:0:0:0:
164,124,99488,1,0,0:0:0:0:
67,129,99715,2,0,L|68:238,1,80.9999975280763,8|0,0:0|0:0,0:0:0:0:
248,282,100397,5,0,0:0:0:0:
344,286,100624,1,8,0:0:0:0:
431,244,100851,1,0,0:0:0:0:
333,242,101078,1,0,0:0:0:0:
245,198,101306,1,0,0:0:0:0:
66,120,101760,2,0,P|124:84|245:104,1,161.999995056153
123,136,102669,2,0,P|162:114|224:125,1,80.9999975280763
394,298,103578,6,2,L|446:205,1,90
334,250,104033,2,0,L|251:164,1,90
350,111,104488,2,2,L|427:192,1,90
306,152,104942,2,0,L|220:64,1,90
134,94,105397,2,2,L|171:192,1,90
150,285,105851,2,0,L|271:336,1,90
325,263,106306,2,2,L|413:191,1,90
401,98,106760,2,0,L|301:61,1,90
234,137,107215,1,2,0:0:0:0:
131,170,107442,5,2,0:0:0:0:
193,257,107669,1,0,0:0:0:0:
270,181,107897,1,0,0:0:0:0:
340,263,108124,1,2,0:0:0:0:
403,176,108351,1,2,0:0:0:0:
341,87,108578,1,0,0:0:0:0:
270,181,108806,1,0,0:0:0:0:
206,93,109033,1,2,0:0:0:0:
131,170,109260,2,0,P|104:225|112:284,1,90,2|0,0:0|0:0,0:0:0:0:
184,324,109715,2,0,L|300:328,2,90,0|2|2,0:0|0:0|0:0,0:0:0:0:
383,239,110624,5,0,0:0:0:0:
382,131,110851,1,0,0:0:0:0:
274,135,111078,1,4,0:0:0:0:
274,243,111306,1,0,0:0:0:0:
386,185,111533,1,0,0:0:0:0:
275,189,111760,2,0,L|83:188,1,180
98,238,112669,5,0,0:0:0:0:
97,199,112783,1,0,0:0:0:0:
98,158,112897,1,0,0:0:0:0:
205,157,113124,1,4,0:0:0:0:
202,246,113351,1,0,0:0:0:0:
151,201,113578,2,0,P|144:140|246:59,1,180
299,224,114488,5,0,0:0:0:0:
338,304,114715,2,8,L|446:144,1,180
348,147,115397,1,0,0:0:0:0:
259,133,115624,2,8,P|202:164|166:217,1,90
246,305,116306,5,0,0:0:0:0:
308,240,116533,1,4,0:0:0:0:
248,172,116760,1,0,0:0:0:0:
177,115,116988,1,4,0:0:0:0:
242,53,117215,1,0,0:0:0:0:
313,108,117442,1,4,0:0:0:0:
248,172,117669,1,0,0:0:0:0:
190,241,117897,1,4,2:0:0:0:
332,351,118351,6,0,P|410:320|458:183,1,198.000006042481,4|0,0:0|0:0,0:0:0:0:
367,260,119033,1,0,0:0:0:0:
376,170,119260,1,0,0:0:0:0:
442,108,119488,1,0,0:0:0:0:
292,207,119942,2,0,P|310:136|426:58,1,198.000006042481
208,61,120851,6,8,L|110:135,1,99.0000030212403
166,196,121306,2,8,L|261:112,2,99.0000030212403
136,290,121988,6,0,B|177:340|177:340|229:266|229:266|277:268,1,198.000006042481,4|0,2:0|0:0,0:0:0:0:
351,326,122669,1,0,0:0:0:0:
434,272,122897,1,0,0:0:0:0:
360,205,123124,1,0,0:0:0:0:
162,212,123578,2,0,B|135:168|134:167|206:116|206:116|288:162,1,198.000006042481
94,248,124488,1,0,0:0:0:0:
189,221,124715,1,2,0:0:0:0:
207,318,124942,1,0,0:0:0:0:
299,284,125169,1,2,0:0:0:0:
474,192,125624,6,0,L|279:95,1,198.000006042481,4|0,2:0|0:0,0:0:0:0:
257,194,126306,1,2,0:0:0:0:
255,95,126533,1,0,0:0:0:0:
156,93,126760,1,2,0:0:0:0:
159,291,127215,2,0,P|249:285|367:201,1,198.000006042481
145,195,128124,1,0,0:0:0:0:
226,139,128351,1,2,0:0:0:0:
224,237,128578,1,0,0:0:0:0:
145,195,128806,1,2,0:0:0:0:
142,96,129033,6,0,P|199:56|332:49,1,198.000006042481,4|0,2:0|0:0,0:0:0:0:
375,131,129715,2,0,L|424:228,1,99.0000030212403
375,131,130169,2,0,L|311:229,1,99.0000030212403
379,223,130624,1,0,0:0:0:0:
383,321,130851,2,0,P|295:314|184:245,1,198.000006042481,4|0,2:0|0:0,0:0:0:0:
126,194,131533,2,0,L|127:78,1,99.0000030212403
194,168,131988,2,0,L|319:168,1,99.0000030212403
252,77,132442,1,0,0:0:0:0:
254,275,132897,6,0,P|291:321|446:307,1,215.999993408203,4|0,2:0|0:0,0:0:0:0:
366,249,133578,1,0,0:0:0:0:
272,214,133806,1,0,0:0:0:0:
182,255,134033,1,0,0:0:0:0:
254,70,134488,2,0,P|200:134|70:108,1,215.999993408203
94,326,135397,6,8,L|95:211,1,107.999996704102
94,326,135851,2,8,L|216:328,2,107.999996704102
164,256,136533,6,0,P|226:220|382:219,1,215.999993408203,4|0,2:0|0:0,0:0:0:0:
415,285,137215,1,2,0:0:0:0:
336,345,137442,1,0,0:0:0:0:
255,287,137669,2,2,P|201:180|231:94,1,215.999993408203
172,242,138578,2,2,P|257:287|367:205,1,215.999993408203
360,148,139260,1,0,0:0:0:0:
273,99,139488,1,0,0:0:0:0:
186,147,139715,1,2,0:0:0:0:
300,325,140169,6,0,B|333:281|333:281|250:212|250:212|298:161,1,215.999993408203,4|0,2:0|0:0,0:0:0:0:
388,137,140851,1,0,0:0:0:0:
309,62,141078,1,0,0:0:0:0:
220,124,141306,1,0,0:0:0:0:
112,311,141760,2,2,P|80:206|112:96,1,215.999993408203
233,280,142669,2,0,L|233:169,1,107.999996704102
274,271,143124,2,0,L|276:142,1,107.999996704102
314,263,143578,2,0,P|315:179|219:74,1,215.999993408203,4|0,2:0|0:0,0:0:0:0:
146,143,144260,5,0,0:0:0:0:
175,247,144488,1,0,0:0:0:0:
258,315,144715,1,0,0:0:0:0:
365,309,144942,1,0,0:0:0:0:
457,253,145169,1,0,0:0:0:0:
382,174,145397,2,0,P|315:141|133:158,1,215.999993408203,4|0,2:0|0:0,0:0:0:0:
232,232,146078,1,0,0:0:0:0:
335,200,146306,1,0,0:0:0:0:
333,92,146533,1,0,0:0:0:0:
229,61,146760,1,0,0:0:0:0:
150,135,146988,1,0,0:0:0:0:
121,266,147442,6,0,L|320:332,1,202.500007724762,4|0,0:0|0:0,0:0:0:0:
277,272,148351,2,0,P|215:233|153:200,1,135.000005149842,4|0,0:0|0:0,0:0:0:0:
200,148,149033,2,0,P|252:137|408:192,1,202.500007724762,4|0,0:0|0:0,0:0:0:0:
422,117,149942,2,0,P|378:86|163:99,1,270.000010299683,4|0,0:0|0:0,0:0:0:0:
163,160,151078,6,0,P|198:237|286:326,1,202.500007724762,4|0,0:0|0:0,0:0:0:0:
213,340,151988,2,0,P|218:289|285:221,1,135.000005149842,4|0,0:0|0:0,0:0:0:0:
334,249,152669,2,0,P|332:170|236:95,1,202.500007724762,4|0,0:0|0:0,0:0:0:0:
174,92,153578,2,0,B|131:225|131:225|284:225,1,270.000010299683,4|0,0:0|0:0,0:0:0:0:
280,160,154715,6,0,P|331:123|446:208,1,202.500007724762,4|0,0:0|0:0,0:0:0:0:
432,249,155624,2,0,P|375:297|292:313,1,135.000005149842,4|0,0:0|0:0,0:0:0:0:
251,300,156306,2,0,P|182:256|151:142,1,202.500007724762,4|0,0:0|0:0,0:0:0:0:
210,113,157215,2,0,L|200:164,3,33.7500012874604
233,130,157669,2,0,L|259:177,3,33.7500012874604
217,171,158124,2,0,L|191:219,2,33.7500012874604
256,192,158465,12,0,159828,0:0:0:0:
256,192,159942,12,4,161988,0:0:0:0:
209,59,162442,6,4,P|177:206|225:337,1,270.000010299683,4|6,2:0|2:0,2:0:0:0:
371,232,163351,1,2,0:0:0:0:
195,189,163806,2,2,P|266:163|353:157,2,135
128,250,164715,1,2,0:0:0:0:
214,92,165169,1,2,0:0:0:0:
295,252,165624,2,2,P|350:218|391:128,2,135
226,310,166533,5,2,0:0:0:0:
385,226,166988,1,2,0:0:0:0:
225,143,167442,2,2,P|172:123|139:44,2,135
225,233,168351,1,2,0:0:0:0:
339,161,168692,2,2,L|328:114,1,45
238,120,169033,1,0,0:0:0:0:
167,175,169260,1,0,0:0:0:0:
180,264,169488,1,0,0:0:0:0:
268,278,169715,2,2,L|333:275,2,45
301,194,170169,6,2,P|293:132|200:58,1,180
110,211,171078,1,2,0:0:0:0:
222,285,171419,1,2,0:0:0:0:
338,217,171760,1,2,0:0:0:0:
428,223,171988,2,2,P|390:285|264:331,1,180
173,197,172897,1,2,0:0:0:0:
293,136,173238,1,2,0:0:0:0:
414,193,173578,1,2,0:0:0:0:
341,246,173806,6,2,P|259:267|181:206,1,180
255,49,174715,1,2,0:0:0:0:
255,184,175056,1,2,0:0:0:0:
258,318,175397,1,2,0:0:0:0:
168,320,175624,1,2,0:0:0:0:
147,232,175851,5,2,0:0:0:0:
147,232,176078,1,2,0:0:0:0:
194,105,176306,1,2,0:0:0:0:
194,105,176533,1,2,0:0:0:0:
268,217,176760,1,2,0:0:0:0:
268,217,176988,1,2,0:0:0:0:
463,47,177442,6,0,P|390:58|279:159,1,215.999993408203,4|0,2:0|0:0,0:0:0:0:
352,232,178124,1,0,0:0:0:0:
254,278,178351,1,0,0:0:0:0:
174,204,178578,1,0,0:0:0:0:
381,141,179033,2,0,P|320:89|171:120,1,215.999993408203
254,309,179942,5,0,0:0:0:0:
310,192,180169,1,0,0:0:0:0:
186,251,180397,1,0,0:0:0:0:
309,254,180624,1,0,0:0:0:0:
188,193,180851,1,0,0:0:0:0:
255,82,181078,6,0,P|242:143|310:307,1,215.999993408203,4|0,2:0|0:0,0:0:0:0:
417,262,181760,1,0,0:0:0:0:
341,156,181988,1,0,0:0:0:0:
214,129,182215,1,0,0:0:0:0:
423,79,182669,2,0,P|405:155|288:242,1,215.999993408203
85,244,183578,2,0,L|131:136,1,107.999996704102
165,245,184033,2,0,L|218:354,1,107.999996704102
414,267,184715,6,0,P|357:171|248:107,1,215.999993408203,4|0,2:0|0:0,0:0:0:0:
270,222,185397,1,0,0:0:0:0:
169,183,185624,1,0,0:0:0:0:
143,78,185851,1,0,0:0:0:0:
359,75,186306,2,0,P|406:148|442:288,1,215.999993408203
269,139,187215,1,0,0:0:0:0:
193,215,187442,1,0,0:0:0:0:
276,282,187669,1,0,0:0:0:0:
349,202,187897,1,0,0:0:0:0:
269,139,188124,6,0,P|199:103|74:154,1,215.999993408203,4|0,2:0|0:0,0:0:0:0:
138,238,188806,1,0,0:0:0:0:
205,322,189033,1,0,0:0:0:0:
266,233,189260,1,0,0:0:0:0:
198,148,189488,1,0,0:0:0:0:
138,238,189715,1,0,0:0:0:0:
205,322,189942,2,0,P|302:324|426:251,1,215.999993408203,4|0,2:0|0:0,0:0:0:0:
334,189,190624,1,0,0:0:0:0:
389,96,190851,1,0,0:0:0:0:
444,188,191078,1,0,0:0:0:0:
393,283,191306,1,0,0:0:0:0:
334,189,191533,1,0,0:0:0:0:
145,83,191988,6,0,L|139:313,1,215.999993408203,4|0,2:0|0:0,0:0:0:0:
224,232,192669,1,0,0:0:0:0:
286,320,192897,1,0,0:0:0:0:
356,237,193124,1,0,0:0:0:0:
191,96,193578,2,0,P|263:60|414:93,1,215.999993408203
440,290,194488,5,0,0:0:0:0:
338,325,194715,1,0,0:0:0:0:
236,289,194942,1,0,0:0:0:0:
131,315,195169,1,0,0:0:0:0:
27,282,195397,1,0,0:0:0:0:
122,232,195624,6,0,P|177:188|345:164,1,215.999993408203,4|0,2:0|0:0,0:0:0:0:
400,227,196306,1,0,0:0:0:0:
400,119,196533,1,0,0:0:0:0:
300,76,196760,1,0,0:0:0:0:
84,90,197215,2,0,P|135:187|239:218,1,215.999993408203
387,69,198124,5,0,0:0:0:0:
427,168,198351,1,0,0:0:0:0:
375,262,198578,1,0,0:0:0:0:
290,193,198806,1,0,0:0:0:0:
121,58,199260,6,0,P|188:92|252:231,1,215.999993408203,4|0,2:0|0:0,0:0:0:0:
145,192,199942,1,0,0:0:0:0:
238,138,200169,1,0,0:0:0:0:
345,128,200397,1,0,0:0:0:0:
424,328,200851,6,0,P|319:329|221:277,1,215.999993408203
431,223,201760,1,0,0:0:0:0:
329,185,201988,1,0,0:0:0:0:
229,144,202215,1,0,0:0:0:0:
134,92,202442,1,0,0:0:0:0:
91,191,202669,2,0,P|175:245|294:234,1,215.999993408203,4|0,2:0|0:0,0:0:0:0:
384,190,203351,5,0,0:0:0:0:
415,86,203578,1,0,0:0:0:0:
319,34,203806,1,0,0:0:0:0:
241,108,204033,1,0,0:0:0:0:
280,208,204260,1,0,0:0:0:0:
227,302,204488,6,0,P|124:286|83:171,1,215.999993408203,4|0,2:0|0:0,0:0:0:0:
71,85,205169,1,0,0:0:0:0:
166,34,205397,1,0,0:0:0:0:
239,112,205624,1,0,0:0:0:0:
176,200,205851,1,0,0:0:0:0:
68,195,206078,2,0,P|114:264|238:297,1,215.999993408203,0|2,0:0|0:0,0:0:0:0:
404,228,206988,5,2,0:0:0:0:
317,70,207442,1,2,0:0:0:0:
278,151,207669,1,2,0:0:0:0:
114,74,208124,1,2,0:0:0:0:
144,251,208578,1,2,0:0:0:0:
323,266,209033,1,2,0:0:0:0:
272,92,209488,1,2,0:0:0:0:
203,150,209715,1,2,0:0:0:0:
375,98,210169,5,2,0:0:0:0:
400,276,210624,1,2,0:0:0:0:
220,273,211078,1,2,0:0:0:0:
294,222,211306,1,2,0:0:0:0:
141,127,211760,1,2,0:0:0:0:
117,214,211988,2,2,L|190:214,2,45
256,327,212669,1,2,0:0:0:0:
345,314,212897,1,2,0:0:0:0:
364,135,213351,6,8,L|271:117,1,90
204,62,213806,6,0,P|178:142|211:271,1,198.000006042481,4|0,2:0|0:0,0:0:0:0:
278,312,214488,1,0,0:0:0:0:
363,261,214715,1,0,0:0:0:0:
450,141,215056,1,0,0:0:0:0:
318,71,215397,1,0,0:0:0:0:
144,165,215851,1,0,0:0:0:0:
195,249,216078,1,0,0:0:0:0:
402,312,216533,1,0,0:0:0:0:
267,248,216874,1,0,0:0:0:0:
390,165,217215,1,0,0:0:0:0:
291,165,217442,6,0,B|203:100|203:100|169:199,1,198.000006042481
222,270,218124,1,0,0:0:0:0:
313,308,218351,1,0,0:0:0:0:
413,198,218692,1,0,0:0:0:0:
310,90,219033,1,0,0:0:0:0:
125,162,219488,1,0,0:0:0:0:
155,256,219715,1,0,0:0:0:0:
352,254,220169,1,0,0:0:0:0:
401,167,220397,1,0,0:0:0:0:
252,36,220851,1,0,0:0:0:0:
246,134,221078,6,0,L|200:343,1,198.000006042481
278,262,221760,1,0,0:0:0:0:
339,183,221988,1,0,0:0:0:0:
432,297,222328,1,0,0:0:0:0:
475,154,222669,1,0,0:0:0:0:
295,70,223124,1,0,0:0:0:0:
232,146,223351,1,0,0:0:0:0:
171,334,223806,1,0,0:0:0:0:
301,263,224147,1,0,0:0:0:0:
163,207,224488,1,0,0:0:0:0:
261,196,224715,6,0,P|371:178|423:100,1,198.000006042481
320,99,225397,1,0,0:0:0:0:
221,101,225624,1,0,0:0:0:0:
122,211,225965,1,0,0:0:0:0:
263,254,226306,1,0,0:0:0:0:
445,177,226760,1,0,0:0:0:0:
355,133,226988,1,0,0:0:0:0:
157,125,227442,1,0,0:0:0:0:
183,220,227669,2,0,P|267:268|378:262,1,198.000006042481
260,160,228351,5,0,0:0:0:0:
