osu file format v13

[General]
AudioFilename: [Eng Sub] LUVORATORRRRRY! [GUMI & Rin].mp3
AudioLeadIn: 0
PreviewTime: 121871
Countdown: 0
SampleSet: None
StackLeniency: 0.7
Mode: 0
LetterboxInBreaks: 0
WidescreenStoryboard: 1

[Editor]
DistanceSpacing: 1.2
BeatDivisor: 8
GridSize: 8
TimelineZoom: 1.8

[Metadata]
Title:LUVORATORRRRRY!
TitleUnicode:LUVORATORRRRRY!
Artist:GigaP
ArtistUnicode:GigaP
Creator:Xivaxi
Version:DANCE AR9
Source:
Tags:gumi kagamine rin
BeatmapID:533196
BeatmapSetID:229093

[Difficulty]
HPDrainRate:5
CircleSize:4
OverallDifficulty:8
ApproachRate:9
SliderMultiplier:2
SliderTickRate:4

[Events]
//Background and Video events
0,0,"lewdbg.png",0,0
//Break Periods
2,50821,53771
//Storyboard Layer 0 (Background)
//Storyboard Layer 1 (Fail)
//Storyboard Layer 2 (Pass)
//Storyboard Layer 3 (Foreground)
//Storyboard Sound Samples
//Background Colour Transformations
3,100,0,0,0

[TimingPoints]
1871.0500112962,468.75,4,2,1,75,1,0
60933,-100,4,2,1,100,0,0
60992,-100,4,2,1,5,0,0
61050,-100,4,2,1,100,0,0
61109,-100,4,2,1,5,0,0
61167,-100,4,2,1,100,0,0
61226,-100,4,2,1,5,0,0
61285,-100,4,2,1,100,0,0
61343,-100,4,2,1,5,0,0
61871,-100,4,2,1,75,0,0
63570,-100,4,2,1,5,0,0
63628,-100,4,2,1,75,0,0
63687,-100,4,2,1,5,0,0
63746,-100,4,2,1,75,0,0
66851,-100,4,2,1,5,0,0
66910,-100,4,2,1,75,0,0
66968,-100,4,2,1,5,0,0
67261,-100,4,2,1,75,0,0
121871,-66.6666666666667,4,2,1,90,0,1
136871,-133.333333333333,4,2,1,50,0,0
153746,-100,4,2,1,50,0,0
169683,-66.6666666666667,4,2,1,90,0,0
170621,-66.6666666666667,4,2,1,90,0,1
191480,-100,4,2,1,90,0,0
198277,-50,4,2,1,90,0,0
198511,-50,4,2,1,5,0,0

[HitObjects]
160,88,8902,5,8,1:2:0:0:
97,256,9136,1,4,0:1:0:0:
128,231,9195,1,0,0:0:0:0:
163,214,9253,1,0,0:0:0:0:
202,205,9312,1,0,0:0:0:0:
242,202,9371,2,0,B|263:225|263:225|362:226,1,125
345,305,9722,1,0,0:0:0:0:
504,261,9839,2,0,P|500:207|461:161,1,100,8|0,0:2|0:0,0:0:0:0:
357,296,10191,1,0,0:0:0:0:
407,119,10308,2,0,B|392:120|392:120|339:67,1,75
480,49,10542,5,0,0:0:0:0:
256,192,10777,5,8,0:2:0:0:
79,43,11011,5,0,0:0:0:0:
53,183,11128,1,0,0:0:0:0:
71,176,11187,1,0,0:0:0:0:
90,171,11246,2,0,B|122:162|122:162|191:162,1,100
151,236,11597,1,0,0:0:0:0:
306,107,11714,1,8,0:2:0:0:
314,337,11949,1,0,0:0:0:0:
171,305,12066,2,0,L|225:283,1,50,0|2,0:0|0:2,0:0:0:0:
348,239,12300,1,0,0:0:0:0:
479,288,12417,1,0,0:0:0:0:
258,51,12652,1,8,0:2:0:0:
73,111,12886,5,0,0:0:0:0:
24,225,13003,1,0,0:0:0:0:
153,148,13121,2,0,B|168:174|168:174|238:198,1,100,0|0,0:0|0:0,0:0:0:0:
310,295,13472,1,0,0:0:0:0:
307,166,13589,2,0,B|337:156|337:156|410:178,1,100,0|0,0:0|0:0,0:0:0:0:
446,299,13941,1,0,0:0:0:0:
465,144,14058,2,0,B|477:144|477:144|463:126|463:126|463:78,1,75
367,37,14292,1,0,0:0:0:0:
112,280,14527,5,0,0:0:0:0:
217,80,14761,5,0,0:0:0:0:
38,115,14996,5,0,0:0:0:0:
300,200,15230,6,0,L|356:192,1,50,8|0,0:0|0:0,0:0:0:0:
442,289,15464,6,0,L|498:281,1,50,8|0,0:0|0:0,0:0:0:0:
145,298,15699,6,0,L|201:290,1,50,8|0,0:0|0:0,0:0:0:0:
316,98,15933,6,0,L|372:90,1,50,4|0,0:0|0:0,0:0:0:0:
277,302,16167,6,0,L|333:294,1,50,4|0,0:0|0:0,0:0:0:0:
25,238,16402,6,0,L|81:230,1,50,0|0,1:0|0:0,0:0:0:0:
105,70,16636,5,4,1:0:0:0:
141,53,16695,1,0,0:0:0:0:
180,49,16753,1,0,0:0:0:0:
219,54,16812,1,0,0:0:0:0:
252,75,16871,2,0,L|308:43,1,50
464,56,17105,2,0,B|467:78|467:78|411:113,1,75
346,203,17339,2,0,P|364:219|402:227,1,50
512,218,17574,1,0,0:0:0:0:
335,323,17691,1,0,0:0:0:0:
499,337,17808,2,0,L|438:308,1,50
271,260,18042,2,0,B|244:267|244:267|188:231,1,75
266,165,18277,1,0,0:0:0:0:
45,254,18511,5,0,0:0:0:0:
84,111,18628,1,0,0:0:0:0:
118,226,18746,2,0,L|174:202,1,50
385,120,19097,1,0,0:0:0:0:
422,238,19214,2,0,L|363:201,1,50
310,105,19449,1,0,0:0:0:0:
191,161,19566,1,0,0:0:0:0:
203,61,19683,2,0,L|251:37,1,50
477,38,19917,2,0,B|469:61|469:61|407:93,1,75
449,160,20152,2,0,P|425:165|398:161,1,50
275,194,20386,5,0,0:0:0:0:
207,352,20503,1,0,0:0:0:0:
37,215,20621,2,0,P|55:167|102:128,1,100
475,169,21089,2,0,P|457:217|410:256,1,100
304,257,21441,1,0,0:0:0:0:
140,236,21558,2,0,B|165:237|165:237|223:194,1,75
176,127,21792,1,0,0:0:0:0:
481,310,22027,1,0,0:0:0:0:
179,231,22496,6,0,L|236:202,1,50
397,152,22730,1,0,0:0:0:0:
262,109,22847,1,0,0:0:0:0:
489,130,22964,2,0,P|459:80|403:65,1,100
378,305,23433,2,0,L|322:273,1,50
312,168,23667,1,0,0:0:0:0:
177,232,23785,1,0,0:0:0:0:
59,204,23902,2,0,B|65:183|65:183|126:152,1,75
200,128,24136,5,0,0:0:0:0:
388,204,24253,1,0,0:0:0:0:
314,35,24371,2,0,P|332:18|355:10,1,50
501,51,24605,1,0,0:0:0:0:
385,109,24722,1,0,0:0:0:0:
316,247,24839,2,0,B|304:272|304:272|256:295,1,75
157,333,25074,1,0,0:0:0:0:
238,223,25191,1,0,0:0:0:0:
63,317,25308,1,0,0:0:0:0:
152,213,25425,1,0,0:0:0:0:
25,245,25542,1,0,0:0:0:0:
103,143,25660,1,0,0:0:0:0:
203,143,25777,2,0,P|232:130|255:104,1,50
368,184,26011,6,0,L|303:155,1,50
339,32,26246,1,0,0:0:0:0:
212,48,26363,1,0,0:0:0:0:
332,74,26480,1,0,0:0:0:0:
452,80,26597,1,0,0:0:0:0:
325,122,26714,2,0,B|323:146|323:146|275:172,1,75
250,264,26949,2,0,L|302:236,1,50
464,300,27183,2,0,L|407:309,1,50
292,356,27417,1,0,0:0:0:0:
155,268,27535,1,0,0:0:0:0:
376,229,27652,2,0,P|412:235|447:223,1,75
401,110,27886,2,0,L|395:59,1,50
243,69,28121,6,0,L|180:88,1,50
92,54,28355,1,0,0:0:0:0:
165,187,28472,1,0,0:0:0:0:
9,227,28589,2,0,B|37:220|37:220|81:147,1,100
21,92,28941,1,0,0:0:0:0:
173,197,29058,2,0,L|229:165,1,50
315,124,29292,1,0,0:0:0:0:
239,254,29410,2,0,P|265:274|300:277,1,50
182,33,29761,1,0,0:0:0:0:
129,279,30230,5,0,0:0:0:0:
173,149,30347,1,0,0:0:0:0:
191,155,30406,1,0,0:0:0:0:
209,161,30464,2,0,B|228:169|228:169|276:138,1,75
443,80,30699,2,0,L|387:120,1,50
256,253,30933,2,0,L|306:219,1,50
469,172,31167,2,0,B|468:194|468:194|418:226,1,75
367,294,31402,2,0,L|367:358,1,50
288,146,31636,2,0,L|288:90,1,50
288,74,31812,1,0,0:0:0:0:
288,53,31871,1,0,0:0:0:0:
59,133,32105,6,0,B|138:128|138:128|157:96,1,100
78,159,32456,2,0,B|146:197|146:197|180:181,1,100
77,192,32808,2,0,B|113:262|113:262|150:266,1,100
270,220,33160,2,0,B|295:200|295:200|322:203|322:203|360:208|390:180,1,125
467,127,33511,2,0,P|493:176|461:230,1,100
459,346,33980,6,0,B|415:345|415:345|392:337|392:337|343:334,1,100
77,282,34331,2,0,B|121:281|121:281|144:273|144:273|193:270,1,100
452,220,34683,2,0,B|408:219|408:219|385:211|385:211|336:208,1,100
203,203,35035,2,0,B|231:160|231:160|261:147|261:147|284:103,1,125
292,16,35386,2,0,P|342:22|366:72,1,100
48,159,35855,6,0,L|150:129,1,100
160,215,36206,2,0,L|232:191,1,75
250,184,36441,1,0,0:0:0:0:
346,150,36558,1,0,0:0:0:0:
487,215,36910,2,0,L|366:259,1,125
291,260,37261,2,0,P|300:299|339:324,1,75
412,333,37496,1,0,0:0:0:0:
221,348,37730,1,0,0:0:0:0:
74,215,37964,1,0,0:0:0:0:
299,158,38199,5,0,0:0:0:0:
225,58,38316,1,0,0:0:0:0:
324,81,38433,2,0,L|396:57,1,75
480,69,38667,2,0,P|473:96|448:117,1,50
374,182,38902,1,0,0:0:0:0:
97,83,39136,1,0,0:0:0:0:
325,349,39605,6,0,B|342:326|342:326|379:333|434:311,1,100
177,285,39956,2,0,B|160:262|160:262|123:269|68:247,1,100
186,126,40308,2,0,B|195:100|195:100|246:73|292:126,1,125
293,228,40660,2,0,P|345:223|389:180,1,100
389,175,40953,1,0,0:0:0:0:
397,157,41011,2,0,P|433:116|497:103,1,100
0,116,41480,2,0,B|54:92|54:92|104:84,1,100
287,141,41831,2,0,B|246:147|246:147|192:171,1,100
54,261,42183,2,0,B|70:285|70:285|93:304|144:302,1,100
253,271,42535,2,0,B|282:241|282:241|331:229|376:258,1,125
378,359,42886,2,0,P|414:355|445:329,1,75
453,192,43121,1,0,0:0:0:0:
247,130,43589,6,0,L|191:66,1,75
98,61,43824,1,0,0:0:0:0:
46,293,44058,2,0,P|100:298|150:261,1,100
213,192,44410,1,0,0:0:0:0:
319,210,44527,1,0,0:0:0:0:
400,42,44761,1,0,0:0:0:0:
420,76,44820,1,0,0:0:0:0:
431,113,44878,1,0,0:0:0:0:
432,153,44937,1,0,0:0:0:0:
432,193,44996,6,0,L|432:249,1,50
192,144,45230,6,0,L|192:200,1,50
341,121,45464,6,0,L|341:177,1,50
104,272,45699,6,0,L|104:328,1,50
58,114,45933,6,0,B|74:90|74:90|98:74,1,50
352,280,46167,6,0,L|352:344,1,50
448,112,46402,6,0,B|432:88|432:88|408:72,1,50
256,56,46636,6,0,L|256:112,1,50
256,126,46812,1,0,0:0:0:0:
256,146,46871,1,0,0:0:0:0:
256,192,46929,12,0,50621,0:0:0:0:
84,273,54371,5,0,0:0:0:0:
401,85,54839,1,0,0:0:0:0:
76,124,55191,2,0,B|105:95|105:95|130:97|130:97|160:74|204:68,1,125
225,64,55542,1,0,0:0:0:0:
388,300,55777,1,0,0:0:0:0:
211,178,56011,1,0,0:0:0:0:
460,50,56246,2,0,B|421:71|378:71|378:71|406:140|372:201,1,200
186,303,56949,5,0,0:0:0:0:
71,238,57066,2,0,P|104:189|156:173,1,100
216,192,57359,1,0,0:0:0:0:
216,192,57417,2,0,P|219:161|199:126,1,50
134,76,57652,1,0,0:0:0:0:
426,55,57886,1,0,0:0:0:0:
97,312,58121,5,0,0:0:0:0:
421,267,58589,1,0,0:0:0:0:
49,148,58941,2,0,B|71:111|71:111|163:95,1,125
193,91,59292,1,0,0:0:0:0:
382,182,59527,1,0,0:0:0:0:
256,24,59761,1,0,0:0:0:0:
129,333,59996,1,0,0:0:0:0:
375,314,60230,1,0,0:0:0:0:
216,352,60464,5,0,0:0:0:0:
296,304,60581,1,0,0:0:0:0:
176,264,60699,1,0,0:0:0:0:
312,208,60816,1,0,0:0:0:0:
128,184,60933,6,0,L|105:173,1,25
208,144,61050,6,0,L|186:133,1,25
293,101,61167,6,0,L|268:89,1,25
376,56,61285,6,0,L|352:46,1,25
61,280,61871,6,0,P|111:284|165:240,1,100
359,85,62339,1,0,0:0:0:0:
118,160,62574,1,0,0:0:0:0:
223,181,62691,1,0,0:0:0:0:
110,286,62808,2,0,P|150:310|213:300,1,100
256,43,63277,1,0,0:0:0:0:
483,130,63511,6,0,L|439:137,1,25
420,209,63628,2,0,L|391:212,1,25
430,301,63746,2,0,P|383:318|335:308,1,100
151,83,64214,1,0,0:0:0:0:
317,197,64449,2,0,B|343:206|343:206|364:229,1,50
339,316,64683,2,0,P|296:341|241:338,1,100
305,41,65152,1,0,0:0:0:0:
138,212,65386,6,0,B|114:223|114:223|89:278,1,75
41,330,65621,2,0,P|76:349|141:325,1,100
199,35,66089,1,0,0:0:0:0:
191,272,66324,2,0,L|253:246,1,50
251,326,66558,2,0,P|289:331|331:310,1,75
394,339,66792,2,0,L|419:331,1,25
434,253,66910,2,0,L|472:241,1,25
470,168,67027,1,0,0:0:0:0:
63,192,67261,5,0,0:0:0:0:
41,225,67320,1,0,0:0:0:0:
34,263,67378,1,0,0:0:0:0:
39,302,67437,1,0,0:0:0:0:
58,336,67496,2,0,P|100:304|160:302,1,100
351,61,67964,1,0,0:0:0:0:
293,134,68199,1,0,0:0:0:0:
179,200,68316,1,0,0:0:0:0:
201,322,68433,2,0,P|234:306|267:309,1,50
383,342,68667,1,0,0:0:0:0:
261,217,68785,1,0,0:0:0:0:
384,256,68902,2,0,P|412:245|432:216,1,50
456,103,69136,2,0,P|432:114|400:143,1,50
211,68,69371,6,0,B|202:92|202:92|121:120,1,100
256,344,69722,1,0,0:0:0:0:
218,110,69839,2,0,B|221:133|221:133|169:209,1,100
256,336,70191,1,0,0:0:0:0:
254,138,70308,2,0,B|267:157|267:157|254:247,1,100
148,262,70660,1,0,0:0:0:0:
137,278,70718,1,0,0:0:0:0:
125,294,70777,2,0,L|141:358,1,50
394,344,71011,2,0,L|378:288,1,50
438,93,71246,6,0,B|435:70|435:70|350:32,1,100
256,328,71597,1,0,0:0:0:0:
400,136,71714,2,0,B|390:120|390:120|305:123,1,100
256,320,72066,1,0,0:0:0:0:
390,199,72183,2,0,B|374:183|374:183|293:220,1,100
135,111,72535,1,0,0:0:0:0:
150,99,72593,1,0,0:0:0:0:
166,86,72652,2,0,L|198:150,1,50
377,338,72886,2,0,L|348:288,1,50
33,275,73121,6,0,B|112:259|112:259|121:233,1,100
256,312,73472,1,0,0:0:0:0:
79,200,73589,2,0,B|158:184|158:184|167:158,1,100
256,304,73941,1,0,0:0:0:0:
121,125,74058,2,0,B|200:109|200:109|209:83,1,100
432,68,74410,1,0,0:0:0:0:
423,85,74468,1,0,0:0:0:0:
416,104,74527,2,0,L|459:144,1,50
202,226,74761,2,0,L|152:191,1,50
398,346,74996,6,0,B|405:320|405:320|426:309|426:309|434:282|462:250,1,100
348,223,75347,1,0,0:0:0:0:
338,86,75464,2,0,L|290:30,1,50
142,44,75699,1,0,0:0:0:0:
249,109,75816,1,0,0:0:0:0:
223,191,75933,2,0,L|151:191,1,50
64,293,76167,1,0,0:0:0:0:
179,269,76285,1,0,0:0:0:0:
249,324,76402,2,0,L|196:371,1,50
346,331,76636,1,0,0:0:0:0:
382,313,76695,1,0,0:0:0:0:
399,277,76753,1,0,0:0:0:0:
405,237,76812,1,0,0:0:0:0:
387,200,76871,1,0,0:0:0:0:
429,64,76988,6,0,B|450:43|450:43|485:37,2,50
278,62,77339,2,0,B|266:51|266:51|194:40,1,75
131,32,77574,1,0,0:0:0:0:
36,214,77808,2,0,B|61:212|61:212|118:188,1,75
179,157,78042,1,0,0:0:0:0:
331,196,78277,1,0,0:0:0:0:
236,234,78394,1,0,0:0:0:0:
332,250,78511,1,0,0:0:0:0:
265,271,78628,1,0,0:0:0:0:
331,351,78746,6,0,B|349:331|349:331|392:318,1,50
502,331,78980,1,0,0:0:0:0:
487,224,79097,1,0,0:0:0:0:
356,129,79214,2,0,B|375:111|375:111|410:99,1,50
485,128,79449,1,0,0:0:0:0:
325,36,79566,1,0,0:0:0:0:
142,100,79683,2,0,B|127:119|127:119|97:129,1,50
26,88,79917,1,0,0:0:0:0:
72,216,80035,1,0,0:0:0:0:
72,216,80093,1,0,0:0:0:0:
72,216,80152,1,0,0:0:0:0:
174,268,80269,1,0,0:0:0:0:
155,275,80328,1,0,0:0:0:0:
136,282,80386,2,0,L|188:303,1,50
386,297,80621,5,0,0:0:0:0:
397,181,80738,1,0,0:0:0:0:
465,324,80855,1,0,0:0:0:0:
331,235,80972,1,0,0:0:0:0:
315,247,81031,1,0,0:0:0:0:
299,259,81089,2,0,L|240:273,1,50
248,175,81324,1,0,0:0:0:0:
311,106,81441,1,0,0:0:0:0:
159,150,81558,6,0,B|139:133|139:133|99:121,1,50,0|0,0:0|0:0,0:0:0:0:
52,239,81792,1,0,0:0:0:0:
202,254,81910,1,0,0:0:0:0:
218,264,81968,1,0,0:0:0:0:
235,273,82027,2,0,L|290:282,1,50
448,258,82261,1,0,0:0:0:0:
325,352,82378,1,0,0:0:0:0:
363,202,82496,6,0,L|330:247,1,50
320,84,82730,2,0,L|358:29,1,50
458,69,82964,1,0,0:0:0:0:
86,34,83199,1,0,0:0:0:0:
32,161,83316,1,0,0:0:0:0:
50,168,83374,1,0,0:0:0:0:
68,175,83433,2,0,L|112:144,1,50
267,154,83667,1,0,0:0:0:0:
184,271,83785,1,0,0:0:0:0:
128,136,83902,2,0,L|176:102,1,50
368,192,84136,5,0,0:0:0:0:
256,296,84253,1,0,0:0:0:0:
169,162,84371,2,0,L|217:122,1,50
376,192,84605,1,0,0:0:0:0:
256,304,84722,1,0,0:0:0:0:
219,121,84839,2,0,L|267:81,1,50
384,192,85074,1,0,0:0:0:0:
256,312,85191,1,0,0:0:0:0:
270,79,85308,2,0,L|318:39,1,50
360,288,85542,5,0,0:0:0:0:
168,256,85660,1,0,0:0:0:0:
153,269,85718,1,0,0:0:0:0:
137,281,85777,2,0,L|83:298,1,50
300,238,86011,1,0,0:0:0:0:
309,73,86128,1,0,0:0:0:0:
322,87,86187,1,0,0:0:0:0:
334,102,86246,2,0,L|394:77,1,50
245,193,86480,1,0,0:0:0:0:
411,224,86597,1,0,0:0:0:0:
424,238,86656,1,0,0:0:0:0:
438,251,86714,2,0,L|489:273,1,50
503,177,86949,1,0,0:0:0:0:
383,320,87066,1,0,0:0:0:0:
203,325,87183,2,0,L|265:288,1,50
188,152,87417,2,0,L|132:182,1,50
126,186,87593,1,0,0:0:0:0:
109,196,87652,1,0,0:0:0:0:
256,40,87886,5,0,0:0:0:0:
88,288,88121,1,0,0:0:0:0:
274,206,88355,1,0,0:0:0:0:
386,131,88472,1,0,0:0:0:0:
387,270,88589,1,0,0:0:0:0:
92,94,88824,5,0,0:0:0:0:
49,202,88941,1,0,0:0:0:0:
60,217,88999,1,0,0:0:0:0:
73,232,89058,2,0,L|129:223,1,50
283,139,89292,1,0,0:0:0:0:
340,226,89410,1,0,0:0:0:0:
328,242,89468,1,0,0:0:0:0:
317,258,89527,2,0,L|255:284,1,50
185,337,89761,1,0,0:0:0:0:
228,197,89878,1,0,0:0:0:0:
151,42,89996,6,0,L|213:43,1,50
361,58,90230,2,0,L|299:55,1,50
148,150,90464,1,0,0:0:0:0:
429,138,90699,1,0,0:0:0:0:
478,249,90816,1,0,0:0:0:0:
307,355,90933,2,0,L|371:343,1,50
381,223,91167,2,0,L|331:232,1,50
62,258,91402,1,0,0:0:0:0:
66,275,91519,2,0,L|154:290,1,75
257,56,91871,5,0,0:0:0:0:
481,111,92105,1,0,0:0:0:0:
17,127,92339,2,0,L|77:100,1,50
218,118,92574,2,0,L|168:141,1,50
154,258,92808,2,0,B|184:256|184:256|233:230,1,75
306,203,93042,1,0,0:0:0:0:
351,72,93160,1,0,0:0:0:0:
453,167,93277,1,0,0:0:0:0:
159,326,93511,1,0,0:0:0:0:
38,184,93746,6,0,L|91:158,1,50
142,51,94097,2,0,L|199:26,1,50
291,140,94449,1,0,0:0:0:0:
277,286,94566,1,0,0:0:0:0:
160,217,94683,2,0,B|208:208|208:208|229:181,1,75
214,107,94917,1,0,0:0:0:0:
344,80,95035,1,0,0:0:0:0:
310,214,95152,1,0,0:0:0:0:
495,157,95386,1,0,0:0:0:0:
45,121,95621,6,0,P|69:75|125:50,1,100
142,50,96089,2,0,P|111:95|60:119,1,100
261,72,96558,1,0,0:0:0:0:
174,167,96675,2,0,B|200:172|200:172|258:151,1,75
315,130,96910,1,0,0:0:0:0:
278,230,97027,1,0,0:0:0:0:
472,163,97261,1,0,0:0:0:0:
381,340,97496,6,0,P|432:326|466:275,1,100
468,270,97964,2,0,P|423:283|383:323,1,100
271,318,98433,1,0,0:0:0:0:
271,226,98550,2,0,B|305:221|305:221|346:185,1,75
398,146,98785,1,0,0:0:0:0:
298,116,98902,1,0,0:0:0:0:
145,217,99136,1,0,0:0:0:0:
502,126,99371,6,0,B|472:115|472:115|434:69,1,75
363,46,99605,1,0,0:0:0:0:
159,61,99839,1,0,0:0:0:0:
269,44,99956,1,0,0:0:0:0:
233,153,100074,1,0,0:0:0:0:
120,176,100191,1,0,0:0:0:0:
204,264,100308,2,0,B|230:272|230:272|276:260,1,75
369,172,100542,2,0,L|318:185,1,50
451,292,100777,1,0,0:0:0:0:
75,260,101011,1,0,0:0:0:0:
354,100,101246,6,0,L|292:76,1,50
174,108,101597,2,0,L|121:89,1,50
198,239,101949,1,0,0:0:0:0:
294,156,102066,1,0,0:0:0:0:
314,290,102183,2,0,B|346:288|346:288|378:248,1,75
475,233,102417,1,0,0:0:0:0:
493,84,102535,1,0,0:0:0:0:
353,137,102652,1,0,0:0:0:0:
132,53,102886,1,0,0:0:0:0:
98,352,103121,6,0,P|53:331|37:282,1,100
43,258,103589,2,0,P|88:289|95:342,1,100
92,165,104058,1,0,0:0:0:0:
153,235,104175,2,0,B|188:235|188:235|233:214,1,75
296,254,104410,1,0,0:0:0:0:
335,167,104527,1,0,0:0:0:0:
203,315,104761,1,0,0:0:0:0:
328,41,104996,6,0,B|317:51|317:51|248:52,1,75
120,32,105230,6,0,L|120:104,1,50
416,144,105464,6,0,L|416:208,1,50
208,160,105699,6,0,L|208:216,1,50
56,232,105933,6,0,L|56:296,1,50
352,224,106167,6,0,L|352:288,1,50
144,360,106402,5,0,0:0:0:0:
256,304,106636,5,0,0:0:0:0:
285,276,106695,1,0,0:0:0:0:
298,238,106753,1,0,0:0:0:0:
300,197,106812,1,0,0:0:0:0:
290,157,106871,2,0,B|302:119|302:119|331:142|331:142|396:133|446:78,1,200
179,73,107691,1,0,0:0:0:0:
172,89,107749,1,0,0:0:0:0:
165,105,107808,2,0,B|131:107|131:107|68:131,1,100
35,246,108277,2,0,B|60:246|60:246|130:218,1,100
481,261,108980,6,0,B|471:234|471:234|422:216|388:171,1,125,0|0,0:0|0:0,0:0:0:0:
371,85,109331,1,0,0:0:0:0:
271,185,109566,1,0,0:0:0:0:
265,201,109624,1,0,0:0:0:0:
259,217,109683,2,0,B|225:230|225:230|192:298,1,100
41,342,110152,2,0,B|78:331|78:331|114:259,1,100
125,241,110445,1,0,0:0:0:0:
144,206,110503,1,0,0:0:0:0:
160,169,110562,1,0,0:0:0:0:
180,134,110621,2,0,B|198:98|198:98|239:105|239:105|221:62|221:62|281:51|277:6,1,200
352,132,111441,5,0,0:0:0:0:
358,151,111500,1,0,0:0:0:0:
364,169,111558,2,0,P|414:170|460:217,1,100
394,348,112027,2,0,P|344:347|298:300,1,100
383,256,112730,5,0,0:0:0:0:
160,280,112964,2,0,B|136:280|136:280|91:246,1,75
16,247,113199,1,0,0:0:0:0:
177,195,113316,2,0,B|202:195|202:195|242:155,1,75
369,236,113550,1,0,0:0:0:0:
319,127,113667,1,0,0:0:0:0:
192,36,113902,1,0,0:0:0:0:
428,86,114136,1,0,0:0:0:0:
83,344,114371,5,0,0:0:0:0:
460,263,114839,1,0,0:0:0:0:
93,95,115191,1,0,0:0:0:0:
237,308,115542,1,0,0:0:0:0:
345,174,115777,1,0,0:0:0:0:
172,154,116011,1,0,0:0:0:0:
251,213,116246,1,0,0:0:0:0:
411,61,116714,5,0,0:0:0:0:
140,235,116949,1,0,0:0:0:0:
296,102,117066,1,0,0:0:0:0:
243,303,117300,1,0,0:0:0:0:
359,206,117417,1,0,0:0:0:0:
123,65,117652,1,0,0:0:0:0:
219,162,117886,5,0,0:0:0:0:
216,182,117945,5,0,0:0:0:0:
231,193,118003,5,0,0:0:0:0:
246,180,118062,5,0,0:0:0:0:
238,161,118121,5,0,0:0:0:0:
102,286,118589,5,0,0:0:0:0:
436,94,118941,1,0,0:0:0:0:
42,218,119292,1,0,0:0:0:0:
40,96,119527,1,0,0:0:0:0:
181,80,119761,1,0,0:0:0:0:
306,10,119996,1,0,0:0:0:0:
392,104,120230,1,0,0:0:0:0:
336,208,120464,5,0,0:0:0:0:
248,304,120581,1,0,0:0:0:0:
368,248,120699,1,0,0:0:0:0:
208,264,120816,1,0,0:0:0:0:
405,284,120933,5,0,0:0:0:0:
417,256,120992,1,0,0:0:0:0:
419,226,121050,1,0,0:0:0:0:
414,196,121109,1,0,0:0:0:0:
400,169,121167,5,0,0:0:0:0:
394,139,121226,1,0,0:0:0:0:
398,109,121285,1,0,0:0:0:0:
414,84,121343,1,0,0:0:0:0:
417,54,121402,5,0,0:0:0:0:
374,66,121460,5,0,0:0:0:0:
330,80,121519,5,0,0:0:0:0:
287,96,121578,5,0,0:0:0:0:
244,110,121636,5,0,0:0:0:0:
201,124,121695,5,0,0:0:0:0:
159,140,121753,5,0,0:0:0:0:
116,155,121812,5,0,0:0:0:0:
75,171,121871,6,0,B|74:129|74:129|69:173|69:173|33:205|33:302|70:337,1,262.500010013581
148,256,122339,1,0,0:0:0:0:
312,183,122574,1,0,0:0:0:0:
390,221,122691,1,0,0:0:0:0:
400,236,122749,1,0,0:0:0:0:
408,252,122808,2,0,B|425:282|425:282|356:319|290:273,1,150.000005722046
129,150,123277,2,0,B|112:122|112:122|181:83|247:129,1,150.000005722046
317,103,123628,1,0,0:0:0:0:
227,202,123746,1,0,0:0:0:0:
31,331,123980,6,0,B|53:309|53:309|88:314|88:314|137:268|219:294,1,187.500007152558
240,302,124331,1,0,0:0:0:0:
467,188,124566,1,0,0:0:0:0:
443,205,124624,1,0,0:0:0:0:
418,221,124683,2,0,B|386:244|386:244|325:238|290:184,1,150.000005722046
128,256,125035,1,0,0:0:0:0:
96,88,125152,2,0,B|128:65|128:65|189:71|224:125,1,150.000005722046
72,344,125621,6,0,B|146:341|146:341|230:268,1,150.000005722046
432,32,126089,2,0,B|358:35|358:35|274:108,1,150.000005722046
316,236,126441,1,0,0:0:0:0:
191,136,126558,1,0,0:0:0:0:
415,273,126792,1,0,0:0:0:0:
94,105,127027,1,0,0:0:0:0:
257,34,127261,1,0,0:0:0:0:
33,227,127378,5,0,0:0:0:0:
52,250,127437,1,0,0:0:0:0:
70,274,127496,2,0,B|108:251|108:251|201:266,1,112.500004291535
248,208,127730,1,0,0:0:0:0:
384,76,127964,1,0,0:0:0:0:
411,274,128199,1,0,0:0:0:0:
499,236,128316,2,0,P|470:191|402:176,1,112.500004291535
320,127,128550,1,0,0:0:0:0:
303,223,128667,2,0,P|251:209|220:154,1,112.500004291535
136,161,128902,1,0,0:0:0:0:
257,32,129136,1,0,0:0:0:0:
153,317,129371,1,0,0:0:0:0:
311,274,129605,6,0,B|329:212|329:212|368:195|368:195|396:139|442:124,1,187.500007152558
479,56,129956,2,0,P|441:40|394:47,1,75.0000028610231
249,69,130191,1,0,0:0:0:0:
231,93,130250,1,0,0:0:0:0:
214,118,130309,2,0,L|58:163,1,150.000005722046
325,334,130660,1,0,0:0:0:0:
84,279,130777,2,0,L|236:229,1,150.000005722046
472,295,131128,1,0,0:0:0:0:
373,192,131246,1,0,0:0:0:0:
410,107,131480,6,0,P|380:83|328:79,1,75.0000028610231
334,105,131656,1,0,0:0:0:0:
325,133,131714,2,0,P|253:119|199:58,1,150.000005722046
117,318,132066,1,0,0:0:0:0:
143,304,132124,1,0,0:0:0:0:
169,289,132183,2,0,B|211:266|211:266|131:234|115:186,1,150.000005722046
257,58,132535,1,0,0:0:0:0:
386,210,132652,2,0,B|383:235|303:267|303:267|345:290,1,150.000005722046
475,342,133003,1,0,0:0:0:0:
256,163,133121,1,0,0:0:0:0:
39,293,133355,6,0,P|74:231|151:211,1,150.000005722046
139,311,133648,1,0,0:0:0:0:
139,311,133706,2,0,P|206:307|252:232,1,150.000005722046
441,84,134058,2,0,P|352:70|297:106,1,150.000005722046
463,248,134410,1,0,0:0:0:0:
473,263,134468,1,0,0:0:0:0:
482,279,134527,2,0,P|424:276|367:223,1,112.500004291535
470,144,134761,2,0,B|429:120|429:120|383:131|383:131|359:72|261:54,1,225.000008583069
129,108,135230,6,0,L|93:183,1,75.0000028610231
375,267,135464,2,0,L|341:339,1,75.0000028610231
331,87,135699,2,0,L|302:164,1,75.0000028610231
184,264,135933,1,0,0:0:0:0:
184,264,135992,1,0,0:0:0:0:
184,264,136050,1,0,0:0:0:0:
256,56,136167,1,0,0:0:0:0:
256,352,136402,1,0,0:0:0:0:
136,128,136871,6,0,P|256:52|376:128,1,300.000011444092
256,240,138277,1,0,0:0:0:0:
256,168,138394,2,0,L|256:128,2,37.5000014305115
376,256,138746,6,0,P|256:332|136:256,1,300.000011444092
256,168,139917,5,0,0:0:0:0:
49,120,140269,6,0,L|89:104,1,37.5000014305115
158,128,140503,2,0,L|202:107,1,37.5000014305115
266,81,140738,1,0,0:0:0:0:
336,127,140855,1,0,0:0:0:0:
442,159,140972,2,0,L|399:178,1,37.5000014305115
269,309,141324,1,0,0:0:0:0:
43,242,141558,6,0,L|77:224,1,37.5000014305115
96,331,141792,1,0,0:0:0:0:
212,226,141910,2,0,L|145:259,1,75.0000028610231
230,323,142261,1,0,0:0:0:0:
287,247,142378,1,0,0:0:0:0:
352,336,142496,2,0,L|352:296,1,37.5000014305115
424,288,142730,1,0,0:0:0:0:
424,280,142847,1,0,0:0:0:0:
496,272,142964,2,0,L|496:234,1,37.5000014305115
424,192,143199,1,0,0:0:0:0:
424,184,143316,1,0,0:0:0:0:
344,160,143433,2,0,L|344:120,1,37.5000014305115
424,88,143667,1,0,0:0:0:0:
488,40,143785,2,0,P|456:17|406:19,1,75.0000028610231
137,290,144136,5,0,0:0:0:0:
229,233,144253,1,0,0:0:0:0:
149,177,144371,2,0,P|173:151|203:143,1,56.2500021457673
233,145,144605,1,0,0:0:0:0:
166,67,144722,2,0,P|180:55|200:46,1,37.5000014305115
304,38,144956,1,0,0:0:0:0:
343,111,145074,1,0,0:0:0:0:
429,107,145191,1,0,0:0:0:0:
455,203,145308,2,0,L|491:210,1,37.5000014305115
512,297,145542,2,0,L|470:291,1,37.5000014305115
201,200,145894,5,0,0:0:0:0:
160,288,146011,1,0,0:0:0:0:
290,239,146128,1,0,0:0:0:0:
114,143,146246,2,0,L|143:105,1,37.5000014305115
208,107,146480,2,0,B|235:73,1,37.5000014305115
303,81,146714,2,0,L|328:50,1,37.5000014305115
412,26,146949,1,0,0:0:0:0:
472,125,147066,1,0,0:0:0:0:
428,218,147183,2,0,L|390:205,1,37.5000014305115
259,181,147417,2,0,L|339:152,1,75.0000028610231
215,330,147886,5,0,0:0:0:0:
121,250,148121,2,0,B|146:220|146:220|172:211,1,56.2500021457673
204,205,148355,1,0,0:0:0:0:
287,251,148472,1,0,0:0:0:0:
321,342,148589,2,0,P|353:324|375:280,1,75.0000028610231
374,202,148941,2,0,L|405:182,1,37.5000014305115
408,80,149175,1,0,0:0:0:0:
327,124,149292,1,0,0:0:0:0:
323,37,149410,1,0,0:0:0:0:
174,122,149527,2,0,L|239:83,1,75.0000028610231
54,284,149996,6,0,P|83:252|120:236,1,75.0000028610231
168,320,150347,1,0,0:0:0:0:
288,272,150464,2,0,L|248:258,1,37.5000014305115
168,208,150699,1,0,0:0:0:0:
168,200,150816,1,0,0:0:0:0:
64,152,150933,2,0,L|111:139,1,37.5000014305115
168,104,151167,1,0,0:0:0:0:
168,96,151285,1,0,0:0:0:0:
264,48,151402,2,0,P|296:24|341:19,1,75.0000028610231
336,112,151753,1,0,0:0:0:0:
256,192,151871,12,0,153277,0:0:0:0:
440,296,153746,6,0,P|392:304|328:283,1,100
256,64,154214,1,0,0:0:0:0:
396,186,154449,1,0,0:0:0:0:
306,230,154566,1,0,0:0:0:0:
315,319,154683,2,0,P|267:339|217:339,1,100
256,72,155152,1,0,0:0:0:0:
56,182,155386,6,0,L|88:173,1,25
113,250,155503,2,0,L|149:243,1,25
65,326,155621,2,0,P|112:338|167:323,1,100
256,80,156089,1,0,0:0:0:0:
298,274,156324,1,0,0:0:0:0:
204,238,156441,1,0,0:0:0:0:
161,337,156558,2,0,P|204:356|263:348,1,100
256,88,157027,1,0,0:0:0:0:
424,176,157261,6,0,B|408:200|408:200|418:267,1,75,0|0,0:0|0:0,0:0:0:0:
488,292,157496,2,0,P|448:324|393:325,1,100
291,230,157847,1,0,0:0:0:0:
256,96,157964,1,0,0:0:0:0:
92,206,158199,2,0,B|105:219|105:219|94:271,1,50
70,334,158433,2,0,P|111:335|151:311,1,75
208,264,158668,2,0,L|234:245,1,25
184,176,158785,2,0,L|212:160,1,25
256,104,158902,1,0,0:0:0:0:
392,176,159136,5,0,0:0:0:0:
408,212,159195,1,0,0:0:0:0:
413,251,159253,1,0,0:0:0:0:
404,290,159312,1,0,0:0:0:0:
383,324,159371,2,0,B|361:307|361:307|320:313|288:291,1,100
256,112,159839,1,0,0:0:0:0:
70,176,160074,1,0,0:0:0:0:
127,240,160191,1,0,0:0:0:0:
77,337,160308,2,0,L|143:312,1,50
218,282,160542,1,0,0:0:0:0:
288,337,160660,1,0,0:0:0:0:
348,186,160777,2,0,L|378:138,1,50
159,77,161011,2,0,L|186:33,1,50
387,58,161246,6,0,P|337:57|295:30,1,100
256,160,161597,1,0,0:0:0:0:
104,132,161714,2,0,P|154:131|196:104,1,100
256,168,162066,1,0,0:0:0:0:
184,208,162183,2,0,L|128:224,1,50
256,256,162417,1,0,0:0:0:0:
328,208,162535,1,0,0:0:0:0:
328,216,162593,1,0,0:0:0:0:
328,224,162652,2,0,L|376:240,1,50
448,344,162886,2,0,L|392:320,1,50
192,176,163121,6,0,P|240:168|296:128,1,100
256,264,163472,1,0,0:0:0:0:
352,96,163589,2,0,P|288:92|240:68,1,100
256,272,163941,1,0,0:0:0:0:
133,235,164058,2,0,L|185:220,1,50
328,312,164292,1,0,0:0:0:0:
448,208,164410,1,0,0:0:0:0:
448,216,164468,1,0,0:0:0:0:
448,224,164527,2,0,L|398:233,1,50
286,151,164761,2,0,L|336:144,1,50
464,56,164996,6,0,P|417:72|360:64,1,100
256,40,165347,1,0,0:0:0:0:
48,56,165464,2,0,P|94:72|152:64,1,100
256,48,165816,1,0,0:0:0:0:
208,128,165933,2,0,L|160:143,1,50
88,168,166167,1,0,0:0:0:0:
304,128,166285,1,0,0:0:0:0:
304,136,166343,1,0,0:0:0:0:
304,144,166402,2,0,L|351:159,1,50
454,280,166636,2,0,L|390:257,1,50
126,268,166871,6,0,L|175:281,1,50
256,224,167105,1,0,0:0:0:0:
256,304,167222,1,0,0:0:0:0:
376,263,167339,2,0,L|331:284,1,50
256,216,167574,1,0,0:0:0:0:
256,312,167691,1,0,0:0:0:0:
176,280,167808,5,0,0:0:0:0:
336,240,167925,1,0,0:0:0:0:
144,320,168042,5,0,0:0:0:0:
360,200,168160,1,0,0:0:0:0:
128,224,168277,5,0,0:0:0:0:
161,208,168335,1,0,0:0:0:0:
194,190,168394,1,0,0:0:0:0:
228,175,168453,1,0,0:0:0:0:
261,160,168511,5,0,0:0:0:0:
295,144,168570,1,0,0:0:0:0:
329,130,168628,1,0,0:0:0:0:
364,116,168687,1,0,0:0:0:0:
399,102,168746,5,0,0:0:0:0:
256,56,169683,5,0,0:0:0:0:
94,219,169917,5,0,0:0:0:0:
133,197,169976,1,0,0:0:0:0:
177,189,170035,1,0,0:0:0:0:
221,191,170093,1,0,0:0:0:0:
263,208,170152,2,0,B|294:186|294:186|322:213|322:213|365:197|404:233,1,150.000005722046
264,335,170621,1,0,0:0:0:0:
449,127,170855,5,0,0:0:0:0:
416,95,170914,1,0,0:0:0:0:
373,81,170972,1,0,0:0:0:0:
328,74,171031,1,0,0:0:0:0:
283,77,171089,2,0,B|272:64|272:64|252:90|201:96,1,75.0000028610231
47,199,171441,1,0,0:0:0:0:
82,210,171499,1,0,0:0:0:0:
117,222,171558,2,0,L|186:192,1,75.0000028610231
431,200,171792,2,0,L|358:238,1,75.0000028610231
127,348,172027,2,0,L|195:316,1,75.0000028610231
411,92,172261,2,0,L|340:118,1,75.0000028610231
288,200,172437,1,0,0:0:0:0:
288,208,172496,6,0,B|264:216|264:216|264:176|264:176|233:146|244:87,1,150.000005722046
161,213,172847,1,0,0:0:0:0:
124,237,172906,1,0,0:0:0:0:
87,260,172964,2,0,B|57:266|57:266|57:243|57:243|21:218|28:142,1,150.000005722046
207,38,173316,1,0,0:0:0:0:
240,67,173374,1,0,0:0:0:0:
282,84,173433,2,0,B|310:94|310:94|332:81|332:81|351:110|402:111,1,112.500004291535
457,80,173667,1,0,0:0:0:0:
462,190,173785,1,0,0:0:0:0:
421,208,173843,1,0,0:0:0:0:
381,231,173902,2,0,B|345:226|345:226|290:240|250:308,1,150.000005722046
468,307,174371,1,0,0:0:0:0:
146,305,174605,5,0,0:0:0:0:
129,200,174722,1,0,0:0:0:0:
170,217,174781,1,0,0:0:0:0:
210,235,174839,2,0,P|265:249|326:209,1,112.500004291535
267,157,175074,1,0,0:0:0:0:
447,36,175191,2,0,P|404:32|328:72,1,112.500004291535
408,120,175425,1,0,0:0:0:0:
235,52,175542,1,0,0:0:0:0:
9,120,175777,6,0,L|83:130,1,75.0000028610231
362,315,176011,2,0,L|285:299,1,75.0000028610231
66,331,176246,1,0,0:0:0:0:
470,235,176480,6,0,B|450:251|450:251|441:230|441:230|393:234|354:168,1,150.000005722046
328,88,176773,1,0,0:0:0:0:
328,96,176831,2,0,P|367:86|408:103,1,75.0000028610231
258,193,177066,1,0,0:0:0:0:
220,216,177124,1,0,0:0:0:0:
183,242,177183,2,0,L|89:263,1,75.0000028610231
23,104,177417,2,0,L|102:88,1,75.0000028610231
319,88,177652,2,0,L|239:109,1,75.0000028610231
193,321,177886,5,0,0:0:0:0:
231,297,177945,1,0,0:0:0:0:
275,291,178003,1,0,0:0:0:0:
319,297,178062,1,0,0:0:0:0:
360,314,178121,2,0,B|393:322|393:322|373:270|385:232,1,112.500004291535
452,214,178355,2,0,P|451:155|427:108,1,112.500004291535
431,26,178589,1,0,0:0:0:0:
252,58,178824,5,0,0:0:0:0:
209,70,178882,1,0,0:0:0:0:
174,99,178941,1,0,0:0:0:0:
151,137,178999,1,0,0:0:0:0:
143,181,179058,2,0,L|217:164,1,75.0000028610231
472,189,179292,2,0,L|385:211,1,75.0000028610231
120,320,179527,2,0,L|194:296,1,75.0000028610231
389,126,179761,2,0,L|294:158,1,75.0000028610231
256,352,179996,1,0,0:0:0:0:
44,173,180230,6,0,B|63:151|63:151|103:155|159:126,1,112.500004291535
217,97,180464,1,0,0:0:0:0:
212,245,180581,2,0,B|254:220|254:220|291:223|291:223|369:186,1,150.000005722046
456,136,180874,1,0,0:0:0:0:
456,144,180933,2,0,L|388:101,1,75.0000028610231
216,60,181167,2,0,L|294:101,1,75.0000028610231
411,279,181402,2,0,L|343:236,1,75.0000028610231
264,264,181578,1,0,0:0:0:0:
264,272,181636,2,0,B|243:281|236:260|236:260|193:264|146:240,1,112.500004291535
122,157,181871,1,0,0:0:0:0:
379,64,181988,5,0,0:0:0:0:
346,94,182046,1,0,0:0:0:0:
308,120,182105,2,0,L|234:107,1,75.0000028610231
16,244,182339,2,0,L|90:238,1,75.0000028610231
401,246,182574,2,0,L|327:261,1,75.0000028610231
90,327,182808,2,0,L|165:319,1,75.0000028610231
457,126,183042,2,0,L|389:158,1,75.0000028610231
91,80,183277,2,0,L|124:152,1,75.0000028610231
222,198,183511,5,0,0:0:0:0:
236,240,183570,1,0,0:0:0:0:
239,284,183628,1,0,0:0:0:0:
229,328,183687,1,0,0:0:0:0:
213,370,183746,2,0,B|245:355|245:355|273:371|273:371|293:343|358:326,1,150.000005722046
502,336,184097,1,0,0:0:0:0:
482,166,184214,2,0,B|451:160|451:160|416:183|416:183|378:179|340:196,1,150.000005722046
83,237,184566,1,0,0:0:0:0:
126,228,184624,1,0,0:0:0:0:
171,223,184683,2,0,L|247:169,1,75.0000028610231
441,60,184917,2,0,L|361:117,1,75.0000028610231
45,140,185152,2,0,L|118:123,1,75.0000028610231
457,163,185386,2,0,L|405:239,1,75.0000028610231
395,257,185562,1,0,0:0:0:0:
373,288,185621,1,0,0:0:0:0:
67,327,185855,6,0,B|94:299|94:299|129:304|129:304|157:286|210:281,1,150.000005722046
288,296,186148,1,0,0:0:0:0:
288,296,186206,2,0,B|291:271|291:271|321:230,1,75.0000028610231
272,65,186441,1,0,0:0:0:0:
228,76,186499,1,0,0:0:0:0:
186,93,186558,2,0,L|95:70,1,75.0000028610231
387,197,186792,2,0,L|487:219,1,75.0000028610231
105,202,187027,2,0,L|11:217,1,75.0000028610231
316,295,187261,2,0,L|401:336,1,75.0000028610231
423,348,187437,1,0,0:0:0:0:
462,370,187496,1,0,0:0:0:0:
293,167,187730,5,0,0:0:0:0:
108,312,187848,1,0,0:0:0:0:
145,287,187906,1,0,0:0:0:0:
182,261,187965,2,0,B|209:244|209:244|146:225|87:167,1,150.000005722046
7,69,188316,1,0,0:0:0:0:
45,95,188374,1,0,0:0:0:0:
81,119,188433,2,0,L|169:92,1,75.0000028610231
473,143,188667,2,0,L|394:170,1,75.0000028610231
220,341,188902,2,0,L|268:275,1,75.0000028610231
303,23,189136,2,0,L|255:90,1,75.0000028610231
62,280,189371,6,0,L|141:255,1,75.0000028610231,0|0,0:0|0:0,0:0:0:0:
419,330,189605,2,0,L|344:333,1,75.0000028610231
173,260,189839,5,0,0:0:0:0:
332,209,189956,5,0,0:0:0:0:
182,267,190074,5,0,0:0:0:0:
320,199,190191,5,0,0:0:0:0:
119,298,190308,5,0,0:0:0:0:
107,270,190367,1,0,0:0:0:0:
105,240,190425,1,0,0:0:0:0:
110,210,190484,1,0,0:0:0:0:
124,183,190542,5,0,0:0:0:0:
130,153,190601,1,0,0:0:0:0:
126,123,190660,1,0,0:0:0:0:
110,98,190718,1,0,0:0:0:0:
107,68,190777,5,0,0:0:0:0:
150,80,190835,5,0,0:0:0:0:
194,94,190894,5,0,0:0:0:0:
237,110,190953,5,0,0:0:0:0:
280,124,191011,5,0,0:0:0:0:
323,138,191070,5,0,0:0:0:0:
365,154,191128,5,0,0:0:0:0:
408,169,191187,5,0,0:0:0:0:
449,186,191246,5,0,0:0:0:0:
471,79,191480,6,0,P|436:41|371:22,1,100
220,157,191831,1,0,0:0:0:0:
474,153,192066,1,0,0:0:0:0:
459,166,192124,1,0,0:0:0:0:
442,177,192183,2,0,L|392:184,1,50
295,260,192417,2,0,L|344:255,1,50
482,271,192652,2,0,L|432:278,1,50
263,348,192886,2,0,L|312:340,1,50
490,358,193121,1,0,0:0:0:0:
65,211,193355,6,0,L|128:189,1,50
105,95,193589,2,0,P|140:69|196:68,1,100
393,94,193941,1,0,0:0:0:0:
384,111,193999,1,0,0:0:0:0:
373,128,194058,2,0,L|317:118,1,50
129,139,194292,2,0,L|182:153,1,50
355,256,194527,2,0,L|313:218,1,50
189,42,194761,2,0,L|237:95,1,50
243,321,194996,1,0,0:0:0:0:
35,282,195230,6,0,P|77:231|148:219,1,125
214,246,195581,1,0,0:0:0:0:
262,120,195816,1,0,0:0:0:0:
255,138,195874,1,0,0:0:0:0:
247,156,195933,2,0,P|297:158|349:137,1,100
457,228,196402,1,0,0:0:0:0:
371,61,196519,1,0,0:0:0:0:
359,44,196578,1,0,0:0:0:0:
346,28,196636,2,0,B|336:13|336:13|305:34|305:34|275:22|246:25,1,100
15,159,197105,6,0,L|65:141,1,50
144,226,197339,2,0,L|199:218,1,50
237,334,197574,2,0,L|307:334,1,50
467,84,197808,2,0,L|413:48,1,50
368,155,198042,2,0,L|317:143,1,50
149,61,198277,6,0,B|192:40|221:48|221:48|209:139|245:214,1,200
