osu file format v14

[General]
AudioFilename: drop pop candy..mp3
AudioLeadIn: 0
PreviewTime: 127438
Countdown: 0
SampleSet: Normal
StackLeniency: 0.7
Mode: 0
LetterboxInBreaks: 1
WidescreenStoryboard: 1

[Editor]
DistanceSpacing: 0.8
BeatDivisor: 4
GridSize: 8
TimelineZoom: 1

[Metadata]
Title:Drop Pop Candy
TitleUnicode:Drop Pop Candy
Artist:GigaP & Reol
ArtistUnicode:ギガP & れをる
Creator:- M a o n -
Version:Normal
Source:
Tags:Drop Pop Candy GigaP Giga Reol Vocaloid Cover Kagamine Rin Len Megurine Luka
BeatmapID:473589
BeatmapSetID:194576

[Difficulty]
HPDrainRate:4
CircleSize:3
OverallDifficulty:5
ApproachRate:6
SliderMultiplier:1.4
SliderTickRate:1

[Events]
//Background and Video events
0,0,"Reol.png",0,0
Video,0,"drop pop candy ver reol.avi"
//Break Periods
2,85191,89249
2,159037,168865
//Storyboard Layer 0 (Background)
//Storyboard Layer 1 (Fail)
//Storyboard Layer 2 (Pass)
//Storyboard Layer 3 (Foreground)
//Storyboard Sound Samples

[TimingPoints]
1915,461.538461538462,4,1,0,100,1,0
53607,-100,4,1,0,100,0,1
83145,-100,4,1,0,100,0,0
127453,-100,4,1,0,100,0,1
156991,-100,4,1,0,100,0,0
173607,-100,4,1,0,100,0,1
203145,-100,4,1,0,100,0,0

[Colours]
Combo1 : 0,89,179
Combo2 : 71,77,141
Combo3 : 186,27,95
Combo4 : 16,16,140
Combo5 : 196,30,146

[HitObjects]
160,48,9299,6,0,P|104:80|80:176,1,140,0|12,0:0|0:0,0:0:0:0:
80,232,9991,1,0,0:0:0:0:
144,296,10222,2,0,L|288:256,1,140,0|12,0:0|0:0,0:0:0:0:
368,280,10915,1,0,0:0:0:0:
448,232,11145,2,0,P|480:176|472:144,2,70,0|0|12,0:0|0:0|0:0,0:0:0:0:
392,160,11838,2,0,L|272:48,1,140,0|12,0:0|0:0,0:0:0:0:
200,40,12530,1,0,0:0:0:0:
224,120,12761,1,12,0:0:0:0:
248,200,12991,6,0,P|224:280|160:304,1,140,0|12,0:0|0:0,0:0:0:0:
112,248,13684,1,0,0:0:0:0:
48,184,13915,2,0,L|16:96,2,70,0|0|12,0:0|0:0|0:0,0:0:0:0:
128,136,14607,1,0,0:0:0:0:
208,184,14838,2,0,L|240:96,2,70,0|0|12,0:0|0:0|0:0,0:0:0:0:
248,264,15530,2,0,P|312:304|376:280,1,140,0|12,0:0|0:0,0:0:0:0:
424,224,16222,1,0,0:0:0:0:
456,144,16453,5,8,0:0:0:0:
408,64,16684,2,0,L|312:40,2,70,0|0|8,0:0|0:0|0:0,0:0:0:0:
336,136,17376,2,0,P|272:160|264:176,1,70,0|0,0:0|0:0,0:0:0:0:
272,296,18068,1,0,0:0:0:0:
272,296,18299,2,0,P|176:336|136:320,1,140,8|0,0:0|0:0,0:0:0:0:
72,280,18991,1,8,0:0:0:0:
24,200,19222,1,0,0:0:0:0:
32,112,19453,2,0,L|88:40,2,70,8|0|0,0:0|0:0|0:0,0:0:0:0:
24,200,20145,1,8,0:0:0:0:
136,232,20607,5,0,0:0:0:0:
176,312,20838,2,0,P|240:336|272:336,1,70,8|0,0:0|0:0,0:0:0:0:
288,264,21299,2,0,P|368:216|384:160,1,140,8|8,0:0|0:0,0:0:0:0:
368,88,21991,1,0,0:0:0:0:
288,40,22222,2,0,L|200:80,1,70,8|0,0:0|0:0,0:0:0:0:
200,184,22915,2,0,P|112:144|88:80,1,140,8|0,0:0|0:0,0:0:0:0:
93,109,23607,1,8,0:0:0:0:
93,109,23838,1,0,0:0:0:0:
176,48,24068,6,0,L|272:32,2,70,8|0|8,0:0|0:0|0:0,0:0:0:0:
93,109,24761,1,0,0:0:0:0:
48,200,24991,2,0,P|48:256|120:320,1,140,8|0,0:0|0:0,0:0:0:0:
192,344,25684,2,0,L|304:224,1,140,8|0,0:0|0:0,0:0:0:0:
384,256,26376,2,0,P|432:248|448:224,2,70,8|0|8,0:0|0:0|0:0,0:0:0:0:
296,216,27068,2,0,P|248:152|256:80,1,140,8|0,0:0|0:0,0:0:0:0:
328,40,27761,5,8,0:0:0:0:
328,40,28222,1,8,0:0:0:0:
392,104,28453,1,0,0:0:0:0:
408,192,28684,2,0,L|392:232,2,35,0|0|12,0:0|0:0|0:0,0:0:0:0:
392,104,29376,1,8,0:0:0:0:
304,120,29607,2,0,L|224:152,2,70,0|8|0,0:0|0:0|0:0,0:0:0:0:
360,192,30299,1,12,0:0:0:0:
304,264,30530,2,0,L|224:320,1,70,0|8,0:0|0:0,0:0:0:0:
184,248,30991,2,0,L|112:288,1,70,0|8,0:0|0:0,0:0:0:0:
72,216,31453,6,0,P|24:176|40:88,1,140,8|8,0:0|0:0,0:0:0:0:
104,64,32145,1,0,0:0:0:0:
192,24,32376,2,0,L|288:40,2,70,8|0|8,0:0|0:0|0:0,0:0:0:0:
104,64,33068,1,0,0:0:0:0:
144,144,33299,2,0,L|216:176,2,70,8|0|8,0:0|0:0|0:0,0:0:0:0:
128,232,33991,2,0,P|160:320|224:344,1,140,8|8,0:0|0:0,0:0:0:0:
196,340,34684,1,8,0:0:0:0:
196,340,34915,1,0,0:0:0:0:
296,336,35145,6,0,P|360:304|384:232,1,140,8|8,0:0|0:0,0:0:0:0:
440,168,35838,1,0,0:0:0:0:
376,104,36068,2,0,P|344:120|336:160,2,70,8|0|8,0:0|0:0|0:0,0:0:0:0:
440,40,36761,1,0,0:0:0:0:
352,16,36991,2,0,P|321:30|310:62,2,70,8|0|8,0:0|0:0|0:0,0:0:0:0:
440,40,37684,2,0,P|480:104|472:192,1,140,12|8,0:0|0:0,0:0:0:0:
448,248,38376,1,8,0:0:0:0:
360,232,38607,1,0,0:0:0:0:
272,208,38838,6,0,P|192:224|160:296,1,140,8|8,0:0|0:0,0:0:0:0:
88,320,39530,1,0,0:0:0:0:
24,256,39761,2,0,P|0:200|0:168,2,70,8|0|8,0:0|0:0|0:0,0:0:0:0:
96,200,40453,1,0,0:0:0:0:
168,144,40684,2,0,P|192:88|192:56,1,70,8|0,0:0|0:0,0:0:0:0:
256,24,41145,1,8,0:0:0:0:
336,64,41376,2,0,L|480:136,1,140,12|8,0:0|0:0,0:0:0:0:
488,208,42068,5,8,0:0:0:0:
488,208,42299,1,0,0:0:0:0:
456,296,42530,2,0,P|376:328|304:320,1,140,8|0,0:0|0:0,0:0:0:0:
264,176,43453,2,0,L|192:192,2,70,8|0|8,0:0|0:0|0:0,0:0:0:0:
304,96,44145,1,0,0:0:0:0:
240,32,44376,2,0,P|200:24|160:32,1,70,8|0,0:0|0:0,0:0:0:0:
160,112,44838,2,0,P|112:136|104:168,1,70,8|8,0:0|0:0,0:0:0:0:
56,248,45530,1,0,0:0:0:0:
128,296,45761,2,0,L|192:216,1,70
104,176,46222,1,8,0:0:0:0:
56,104,46453,5,0,0:0:0:0:
144,64,46684,2,0,L|192:128,1,70
104,176,47145,1,8,0:0:0:0:
176,224,47376,5,0,0:0:0:0:
264,256,47607,2,0,L|336:248,1,70
416,192,48068,1,8,0:0:0:0:
336,152,48299,5,0,0:0:0:0:
248,120,48530,2,0,L|168:136,1,70
96,184,48991,1,8,0:0:0:0:
160,248,49222,5,0,0:0:0:0:
224,312,49453,2,0,L|296:256,1,70
352,320,49915,1,8,0:0:0:0:
400,248,50145,5,0,0:0:0:0:
464,176,50376,2,0,L|408:128,1,70
472,56,50838,1,8,0:0:0:0:
392,24,51068,5,0,0:0:0:0:
312,48,51299,1,8,0:0:0:0:
232,80,51530,1,0,0:0:0:0:
152,112,51761,5,8,0:0:0:0:
176,272,52222,1,8,0:0:0:0:
336,248,52684,1,8,0:0:0:0:
312,88,53145,1,12,0:0:0:0:
152,112,53607,2,0,P|104:112|72:128,2,70,0|0|8,0:0|0:0|0:0,0:0:0:0:
144,200,54299,1,0,0:0:0:0:
96,272,54530,2,0,L|48:288,2,35,0|0|12,0:0|0:0|0:0,0:0:0:0:
96,272,55222,1,0,0:0:0:0:
176,320,55453,2,0,P|232:336|272:328,2,70,8|0|0,0:0|0:0|0:0,0:0:0:0:
216,240,56145,1,0,0:0:0:0:
280,176,56376,2,0,L|376:192,1,70,8|0,0:0|0:0,0:0:0:0:
400,120,56838,2,0,L|480:136,1,70,12|0,0:0|0:0,0:0:0:0:
504,56,57299,1,12,0:0:0:0:
504,56,57761,5,0,0:0:0:0:
416,16,57991,1,0,0:0:0:0:
344,64,58222,1,8,0:0:0:0:
344,64,58453,1,8,0:0:0:0:
176,88,58915,2,0,P|120:56|120:32,1,70,0|8,0:0|0:0,0:0:0:0:
176,216,59838,2,0,P|120:248|120:272,2,70,0|8|8,0:0|0:0|0:0,0:0:0:0:
232,288,60530,2,0,L|320:264,1,70,8|0,0:0|0:0,0:0:0:0:
384,296,60991,6,0,P|448:264|456:240,2,70,0|0|8,0:0|0:0|0:0,0:0:0:0:
328,224,61684,1,0,0:0:0:0:
336,136,61915,2,0,L|376:112,2,35,0|0|8,0:0|0:0|0:0,0:0:0:0:
336,136,62607,1,0,0:0:0:0:
264,80,62838,2,0,P|216:64|184:72,1,70,8|0,0:0|0:0,0:0:0:0:
128,104,63299,1,0,0:0:0:0:
184,168,63530,1,0,0:0:0:0:
128,232,63761,2,0,L|208:272,1,70,8|0,0:0|0:0,0:0:0:0:
160,336,64222,2,0,L|240:376,1,70,8|0,0:0|0:0,0:0:0:0:
296,328,64684,1,8,0:0:0:0:
296,328,65145,5,0,0:0:0:0:
368,280,65376,1,0,0:0:0:0:
440,232,65607,1,8,0:0:0:0:
440,232,65838,1,8,0:0:0:0:
416,64,66299,2,0,L|360:40,2,35,0|0|8,0:0|0:0|0:0,0:0:0:0:
224,64,67222,2,0,L|256:77,2,35,0|0|8,0:0|0:0|0:0,0:0:0:0:
136,80,67684,2,0,P|80:112|64:144,1,70,8|8,0:0|0:0,0:0:0:0:
56,200,68145,1,12,0:0:0:0:
128,336,68607,6,0,L|192:296,1,70,0|8,0:0|0:0,0:0:0:0:
272,320,69068,1,0,0:0:0:0:
352,288,69299,2,0,P|416:224|408:192,2,105,8|8|12,0:0|0:0|0:0,0:0:0:0:
312,144,70453,6,0,L|288:64,1,70,0|8,0:0|0:0,0:0:0:0:
208,64,70915,1,0,0:0:0:0:
128,24,71145,2,0,P|64:48|32:96,2,105,8|8|12,0:0|0:0|0:0,0:0:0:0:
144,200,72299,6,0,L|224:264,1,70,0|8,0:0|0:0,0:0:0:0:
280,208,72761,1,0,0:0:0:0:
368,232,72991,2,0,P|416:200|416:128,2,105,8|8|12,0:0|0:0|0:0,0:0:0:0:
304,80,74145,6,0,L|232:40,2,70,0|8|0,0:0|0:0|0:0,0:0:0:0:
416,152,75068,2,0,L|488:112,2,70,0|8|0,0:0|0:0|0:0,0:0:0:0:
272,232,75991,2,0,P|224:248|200:280,1,70,0|8,0:0|0:0,0:0:0:0:
144,320,76453,1,0,0:0:0:0:
64,272,76684,2,0,L|24:152,2,105,8|8|12,0:0|0:0|0:0,0:0:0:0:
184,128,77838,6,0,P|216:88|264:80,1,70,0|8,0:0|0:0,0:0:0:0:
320,112,78299,1,0,0:0:0:0:
400,64,78530,2,0,L|480:176,2,105,8|8|12,0:0|0:0|0:0,0:0:0:0:
320,248,79684,6,0,P|296:280|304:328,1,70,0|8,0:0|0:0,0:0:0:0:
216,280,80145,1,0,0:0:0:0:
152,224,80376,2,0,L|208:120,2,105,8|8|12,0:0|0:0|0:0,0:0:0:0:
88,80,81530,5,0,0:0:0:0:
160,40,81761,1,8,0:0:0:0:
248,32,81991,1,0,0:0:0:0:
328,64,82222,2,0,L|408:88,1,70,8|0,0:0|0:0,0:0:0:0:
408,176,82684,2,0,L|328:152,1,70,8|0,0:0|0:0,0:0:0:0:
256,192,83376,12,4,84991,0:0:0:0:
176,160,90299,5,0,0:0:0:0:
224,88,90530,2,0,P|272:48|296:48,2,70,0|0|8,0:0|0:0|0:0,0:0:0:0:
304,128,91222,1,0,0:0:0:0:
384,160,91453,2,0,P|432:216|408:296,1,140,0|8,0:0|0:0,0:0:0:0:
368,344,92145,2,0,L|208:304,1,140
152,280,92838,1,8,0:0:0:0:
80,320,93068,1,0,0:0:0:0:
64,240,93299,2,0,P|48:192|48:144,1,70,8|0,0:0|0:0,0:0:0:0:
32,56,93991,1,8,0:0:0:0:
152,200,94453,5,0,0:0:0:0:
152,112,94684,2,0,P|136:80|88:40,1,70,8|0,0:0|0:0,0:0:0:0:
192,16,95145,2,0,L|344:56,1,140,8|0,0:0|0:0,0:0:0:0:
384,112,95838,1,8,0:0:0:0:
472,96,96068,2,0,P|488:144|480:168,1,70,8|8,0:0|0:0,0:0:0:0:
448,304,96761,2,0,P|384:312|312:272,1,140,0|8,0:0|0:0,0:0:0:0:
272,208,97453,1,8,0:0:0:0:
272,208,97684,1,0,0:0:0:0:
184,232,97915,6,0,L|112:256,2,70,8|0|8,0:0|0:0|0:0,0:0:0:0:
144,152,98607,1,0,0:0:0:0:
64,112,98838,2,0,P|88:40|168:24,1,140,8|0,0:0|0:0,0:0:0:0:
224,64,99530,2,0,L|392:32,1,140,8|0,0:0|0:0,0:0:0:0:
440,80,100222,2,0,P|480:128|480:152,2,70,8|0|8,0:0|0:0|0:0,0:0:0:0:
400,160,100915,2,0,L|320:288,1,140,8|0,0:0|0:0,0:0:0:0:
240,320,101607,5,2,0:0:0:0:
240,320,102068,2,0,L|168:264,1,70,2|2,0:0|0:0,0:0:0:0:
112,224,102530,2,0,L|72:240,2,35,2|0|2,0:0|0:0|0:0,0:0:0:0:
112,224,103222,1,10,0:0:0:0:
112,96,103684,2,0,P|160:56|184:56,1,70,8|0,0:0|0:0,0:0:0:0:
248,64,104145,1,0,0:0:0:0:
280,144,104376,2,0,L|376:160,1,70,2|0,0:0|0:0,0:0:0:0:
384,248,104838,2,0,L|288:232,1,70,2|0,0:0|0:0,0:0:0:0:
256,296,105299,6,0,P|200:288|104:328,1,140,8|8,0:0|0:0,0:0:0:0:
64,256,105991,1,0,0:0:0:0:
24,176,106222,2,0,P|24:128|40:104,2,70,8|0|8,0:0|0:0|0:0,0:0:0:0:
104,160,106915,1,0,0:0:0:0:
176,200,107145,2,0,P|190:168|186:133,2,70,8|0|8,0:0|0:0|0:0,0:0:0:0:
232,272,107838,2,0,L|384:240,1,140,8|0,0:0|0:0,0:0:0:0:
432,184,108530,1,8,0:0:0:0:
432,184,108761,1,0,0:0:0:0:
368,120,108991,1,8,0:0:0:0:
368,120,109453,6,0,L|296:80,2,70,8|0|8,0:0|0:0|0:0,0:0:0:0:
432,184,110145,1,0,0:0:0:0:
376,248,110376,2,0,L|304:288,2,70,8|0|8,0:0|0:0|0:0,0:0:0:0:
320,184,111068,1,0,0:0:0:0:
232,184,111299,2,0,L|144:184,1,70,8|8,0:0|0:0,0:0:0:0:
160,184,111991,5,8,0:0:0:0:
80,160,112222,1,8,0:0:0:0:
48,80,112453,1,0,0:0:0:0:
104,16,112684,2,0,P|168:8|224:64,1,140,8|8,0:0|0:0,0:0:0:0:
280,120,113376,1,0,0:0:0:0:
352,176,113607,2,0,P|400:144|400:120,2,70,8|0|8,0:0|0:0|0:0,0:0:0:0:
336,264,114299,2,0,P|288:288|272:320,2,70,0|8|0,0:0|0:0|0:0,0:0:0:0:
400,328,114991,1,8,0:0:0:0:
448,256,115222,2,0,P|440:192|376:120,1,140,8|0,0:0|0:0,0:0:0:0:
312,144,115915,5,8,0:0:0:0:
248,80,116145,1,0,0:0:0:0:
176,128,116376,2,0,L|40:72,1,140,8|0,0:0|0:0,0:0:0:0:
32,224,117299,2,0,P|48:288|64:296,2,70,8|0|8,0:0|0:0|0:0,0:0:0:0:
104,168,117991,1,0,0:0:0:0:
184,192,118222,2,0,L|256:248,1,70,8|0,0:0|0:0,0:0:0:0:
312,192,118684,2,0,L|384:240,1,70,8|8,0:0|0:0,0:0:0:0:
432,304,119376,5,0,0:0:0:0:
464,224,119607,2,0,L|448:152,1,70
384,104,120069,1,8,0:0:0:0:
336,176,120299,5,0,0:0:0:0:
256,136,120530,2,0,L|176:160,1,70
136,224,120992,1,8,0:0:0:0:
200,280,121222,5,0,0:0:0:0:
272,328,121453,2,0,L|328:256,1,70
248,216,121915,1,8,0:0:0:0:
296,152,122145,5,0,0:0:0:0:
224,104,122376,2,0,L|176:168,1,70
248,216,122838,1,8,0:0:0:0:
336,232,123068,5,0,0:0:0:0:
280,304,123299,2,0,L|208:320,1,70
136,280,123761,1,8,0:0:0:0:
88,352,123991,5,0,0:0:0:0:
24,296,124222,2,0,L|8:224,1,70
40,152,124684,1,8,0:0:0:0:
128,144,124915,5,0,0:0:0:0:
176,72,125145,1,8,0:0:0:0:
248,120,125376,1,0,0:0:0:0:
312,64,125607,5,8,0:0:0:0:
384,216,126068,1,8,0:0:0:0:
232,288,126530,1,8,0:0:0:0:
160,136,126991,1,12,0:0:0:0:
352,96,127453,6,0,P|400:96|432:112,2,70,0|0|8,0:0|0:0|0:0,0:0:0:0:
360,184,128145,1,0,0:0:0:0:
408,256,128376,2,0,L|456:272,2,35,8|0|8,0:0|0:0|0:0,0:0:0:0:
408,256,129068,1,0,0:0:0:0:
328,304,129299,2,0,P|272:320|232:312,2,70,8|0|8,0:0|0:0|0:0,0:0:0:0:
288,224,129991,1,0,0:0:0:0:
224,160,130222,2,0,L|128:176,1,70,8|0,0:0|0:0,0:0:0:0:
104,104,130684,2,0,L|24:120,1,70,8|0,0:0|0:0,0:0:0:0:
0,40,131145,1,8,0:0:0:0:
0,40,131607,5,8,0:0:0:0:
88,0,131837,1,0,0:0:0:0:
160,48,132068,1,8,0:0:0:0:
160,48,132299,1,8,0:0:0:0:
328,72,132761,2,0,P|384:40|384:16,1,70,0|8,0:0|0:0,0:0:0:0:
328,200,133684,2,0,P|384:232|384:256,2,70,0|8|8,0:0|0:0|0:0,0:0:0:0:
272,272,134376,2,0,L|184:248,1,70,8|0,0:0|0:0,0:0:0:0:
120,280,134837,6,0,P|56:248|48:224,2,70,8|0|8,0:0|0:0|0:0,0:0:0:0:
176,208,135530,1,0,0:0:0:0:
168,120,135761,2,0,L|128:96,2,35,8|0|8,0:0|0:0|0:0,0:0:0:0:
168,120,136453,1,0,0:0:0:0:
240,64,136684,2,0,P|288:48|320:56,1,70,8|0,0:0|0:0,0:0:0:0:
376,88,137145,1,8,0:0:0:0:
320,152,137376,1,0,0:0:0:0:
376,216,137607,2,0,L|296:256,1,70,8|0,0:0|0:0,0:0:0:0:
344,320,138068,2,0,L|264:360,1,70,8|0,0:0|0:0,0:0:0:0:
208,312,138530,1,8,0:0:0:0:
208,312,138991,5,8,0:0:0:0:
136,264,139222,1,0,0:0:0:0:
64,216,139453,1,8,0:0:0:0:
64,216,139684,1,8,0:0:0:0:
88,48,140145,2,0,L|144:24,2,35,0|0|8,0:0|0:0|0:0,0:0:0:0:
280,48,141068,2,0,L|247:61,2,35,0|0|8,0:0|0:0|0:0,0:0:0:0:
368,64,141530,2,0,P|424:96|440:128,1,70,0|8,0:0|0:0,0:0:0:0:
448,184,141991,1,8,0:0:0:0:
376,320,142453,6,0,L|312:280,1,70,0|8,0:0|0:0,0:0:0:0:
232,304,142914,1,0,0:0:0:0:
152,272,143145,2,0,P|88:208|96:176,2,105,8|8|8,0:0|0:0|0:0,0:0:0:0:
192,128,144299,6,0,L|216:48,1,70,0|8,0:0|0:0,0:0:0:0:
296,48,144761,1,0,0:0:0:0:
376,8,144991,2,0,P|440:32|472:80,2,105,8|8|8,0:0|0:0|0:0,0:0:0:0:
360,184,146145,6,0,L|280:248,1,70,0|8,0:0|0:0,0:0:0:0:
224,192,146607,1,0,0:0:0:0:
136,216,146837,2,0,P|88:184|88:112,2,105,8|8|8,0:0|0:0|0:0,0:0:0:0:
200,64,147991,6,0,L|272:24,2,70,0|8|0,0:0|0:0|0:0,0:0:0:0:
88,136,148914,2,0,L|16:96,2,70,0|8|0,0:0|0:0|0:0,0:0:0:0:
232,216,149837,2,0,P|280:232|304:264,1,70,0|8,0:0|0:0,0:0:0:0:
360,304,150299,1,0,0:0:0:0:
440,256,150530,2,0,L|480:136,2,105,8|8|8,0:0|0:0|0:0,0:0:0:0:
320,112,151684,6,0,P|288:72|240:64,1,70,0|8,0:0|0:0,0:0:0:0:
184,96,152145,1,0,0:0:0:0:
104,48,152376,2,0,L|24:160,2,105,8|8|8,0:0|0:0|0:0,0:0:0:0:
184,232,153530,6,0,P|208:264|200:312,1,70,0|8,0:0|0:0,0:0:0:0:
288,264,153991,1,0,0:0:0:0:
352,208,154222,2,0,L|296:104,2,105,8|8|8,0:0|0:0|0:0,0:0:0:0:
416,64,155376,5,0,0:0:0:0:
344,24,155607,1,8,0:0:0:0:
256,16,155837,1,0,0:0:0:0:
176,48,156068,2,0,L|96:72,1,70,8|0,0:0|0:0,0:0:0:0:
96,160,156530,2,0,L|176:136,1,70,8|8,0:0|0:0,0:0:0:0:
256,192,157222,12,0,158837,0:0:0:0:
256,80,169915,5,8,0:0:0:0:
144,192,170376,1,8,0:0:0:0:
256,304,170838,1,8,0:0:0:0:
368,192,171299,1,8,0:0:0:0:
232,120,171761,5,2,0:0:0:0:
184,216,172222,1,2,0:0:0:0:
280,264,172684,1,2,0:0:0:0:
328,168,173145,1,6,0:0:0:0:
232,120,173607,6,0,P|176:96|160:72,2,70,8|0|8,0:0|0:0|0:0,0:0:0:0:
312,72,174299,1,0,0:0:0:0:
392,104,174530,2,0,L|432:80,2,35,8|0|8,0:0|0:0|0:0,0:0:0:0:
392,104,175222,1,0,0:0:0:0:
408,192,175453,2,0,P|384:224|400:256,2,70,8|0|8,0:0|0:0|0:0,0:0:0:0:
480,240,176145,1,0,0:0:0:0:
496,320,176376,2,0,P|464:344|432:328,2,70,8|0|8,0:0|0:0|0:0,0:0:0:0:
480,240,177068,2,0,L|424:176,1,70,0|8,0:0|0:0,0:0:0:0:
433,187,177761,5,8,0:0:0:0:
376,120,177991,1,0,0:0:0:0:
296,120,178222,1,8,0:0:0:0:
296,120,178453,1,8,0:0:0:0:
88,64,178915,2,0,L|40:104,2,35,0|0|8,0:0|0:0|0:0,0:0:0:0:
208,192,179838,2,0,L|256:232,2,35,0|0|8,0:0|0:0|0:0,0:0:0:0:
112,200,180299,1,8,0:0:0:0:
56,272,180530,2,0,P|64:312|112:344,1,70,8|0,0:0|0:0,0:0:0:0:
168,296,180991,6,0,L|248:328,1,70,8|0,0:0|0:0,0:0:0:0:
312,296,181453,1,8,0:0:0:0:
392,320,181684,1,0,0:0:0:0:
448,256,181915,2,0,L|480:224,2,35,8|0|8,0:0|0:0|0:0,0:0:0:0:
448,256,182607,1,0,0:0:0:0:
384,192,182838,2,0,P|360:144|376:112,2,70,8|0|8,0:0|0:0|0:0,0:0:0:0:
312,240,183530,1,0,0:0:0:0:
240,192,183761,2,0,P|264:144|248:112,2,70,8|0|8,0:0|0:0|0:0,0:0:0:0:
168,144,184453,1,0,0:0:0:0:
168,144,184684,1,8,0:0:0:0:
88,264,185145,6,0,P|48:248|16:216,1,70,8|0,0:0|0:0,0:0:0:0:
32,144,185607,1,8,0:0:0:0:
32,144,185838,1,8,0:0:0:0:
176,56,186299,2,0,L|216:32,2,35,0|0|8,0:0|0:0|0:0,0:0:0:0:
304,152,187222,2,0,L|344:176,2,35,0|0|8,0:0|0:0|0:0,0:0:0:0:
336,72,187684,1,8,0:0:0:0:
416,48,187915,1,8,0:0:0:0:
496,72,188145,1,8,0:0:0:0:
496,240,188607,6,0,L|416:256,1,70,0|8,0:0|0:0,0:0:0:0:
376,320,189068,1,0,0:0:0:0:
296,288,189299,2,0,P|248:264|176:296,2,105,8|8|8,0:0|0:0|0:0,0:0:0:0:
312,128,190453,6,0,L|264:72,1,70,0|8,0:0|0:0,0:0:0:0:
184,88,190915,1,0,0:0:0:0:
96,72,191145,2,0,P|56:96|56:168,2,105,8|8|8,0:0|0:0|0:0,0:0:0:0:
192,216,192299,6,0,L|264:280,1,70,0|8,0:0|0:0,0:0:0:0:
192,328,192761,1,0,0:0:0:0:
104,344,192991,2,0,P|40:312|32:272,2,105,8|8|8,0:0|0:0|0:0,0:0:0:0:
128,144,194145,6,0,L|72:96,2,70,0|8|0,0:0|0:0|0:0,0:0:0:0:
288,144,195068,2,0,L|344:192,2,70,0|8|0,0:0|0:0|0:0,0:0:0:0:
192,256,195991,2,0,P|192:296|232:320,1,70,0|8,0:0|0:0,0:0:0:0:
296,288,196453,1,0,0:0:0:0:
368,336,196684,2,0,L|440:232,2,105,8|8|8,0:0|0:0|0:0,0:0:0:0:
360,128,197838,6,0,P|320:112|304:72,1,70,0|8,0:0|0:0,0:0:0:0:
232,48,198299,1,0,0:0:0:0:
152,80,198530,2,0,L|64:144,2,105,8|8|8,0:0|0:0|0:0,0:0:0:0:
184,224,199684,6,0,P|208:264|200:312,1,70,0|8,0:0|0:0,0:0:0:0:
296,264,200145,1,0,0:0:0:0:
384,240,200376,2,0,L|448:128,2,105,8|8|8,0:0|0:0|0:0,0:0:0:0:
312,104,201530,5,0,0:0:0:0:
232,72,201761,1,8,0:0:0:0:
144,64,201991,1,0,0:0:0:0:
64,104,202222,2,0,L|24:176,1,70,8|0,0:0|0:0,0:0:0:0:
96,216,202684,2,0,L|64:288,1,70,8|8,0:0|0:0,0:0:0:0:
256,192,203376,12,0,204991,0:0:0:0:
320,248,205222,6,0,P|368:224|384:192,2,70,0|8|0,0:0|0:0|0:0,0:0:0:0:
264,320,205915,2,0,L|136:248,1,140,8|8,0:0|0:0,0:0:0:0:
56,256,206607,2,0,P|32:216|48:176,1,70,8|0,0:0|0:0,0:0:0:0:
256,192,207068,12,0,208222,0:0:0:0:
168,112,208453,6,0,P|168:72|216:48,2,70,8|8|0,0:0|0:0|0:0,0:0:0:0:
256,144,209145,2,0,L|328:208,1,70,8|0,0:0|0:0,0:0:0:0:
400,200,209607,2,0,P|400:264|320:320,1,140,8|8,0:0|0:0,0:0:0:0:
264,280,210299,2,0,L|192:320,1,70,0|8,0:0|0:0,0:0:0:0:
