osu file format v12

[General]
AudioFilename: Okochama Sensou.mp3
AudioLeadIn: 0
PreviewTime: 49483
Countdown: 1
SampleSet: Soft
StackLeniency: 0.7
Mode: 0
LetterboxInBreaks: 1
WidescreenStoryboard: 0

[Editor]
Bookmarks: 138626
DistanceSpacing: 0.6
BeatDivisor: 4
GridSize: 4
TimelineZoom: 3.099999

[Metadata]
Title:okochama sensou
TitleUnicode:おこちゃま戦争
Artist:Giga-P
ArtistUnicode:ギガP
Creator:judgment light
Version:Insane
Source:
Tags:
BeatmapID:401859
BeatmapSetID:165197

[Difficulty]
HPDrainRate:7
CircleSize:4
OverallDifficulty:8
ApproachRate:9
SliderMultiplier:2
SliderTickRate:1

[Events]
//Background and Video events
0,0,"40036121_m.jpg",0,0
//Break Periods
2,72997,77683
2,127854,138026
2,161940,172312
//Storyboard Layer 0 (Background)
//Storyboard Layer 1 (Fail)
//Storyboard Layer 2 (Pass)
//Storyboard Layer 3 (Foreground)
//Storyboard Sound Samples
//Background Colour Transformations
3,100,163,162,255

[TimingPoints]
112,342.857142857143,4,2,0,25,1,0
2600,-100,4,2,0,5,0,0
2854,-100,4,2,0,25,0,0
4226,-100,4,2,0,25,0,0
5597,-100,4,2,0,70,0,0
6969,-100,4,1,1,80,0,0
12112,-66.6666666666667,4,1,1,80,0,0
12454,-133.333333333333,4,2,1,80,0,0
18283,-133.333333333333,4,2,1,5,0,0
18626,-133.333333333333,4,2,1,80,0,0
18969,-133.333333333333,4,2,1,5,0,0
19312,-133.333333333333,4,2,1,80,0,0
19654,-133.333333333333,4,2,1,5,0,0
19997,-133.333333333333,4,2,1,80,0,0
20340,-133.333333333333,4,1,1,40,0,0
20683,-200,4,1,1,40,0,0
22054,-200,4,1,2,70,0,0
23426,-100,4,1,2,70,0,0
29683,-100,4,1,2,5,0,0
29769,-100,4,1,2,70,0,0
30026,-100,4,1,2,5,0,0
30112,-100,4,1,2,70,0,0
30369,-100,4,1,2,5,0,0
30454,-100,4,1,2,70,0,0
30712,-100,4,1,2,5,0,0
30797,-100,4,1,2,70,0,0
43397,-100,4,1,2,5,0,0
43483,-100,4,1,2,70,0,0
45369,-200,4,1,2,70,0,0
49140,-133.333333333333,4,1,2,70,0,0
49483,-100,4,1,2,70,0,0
50854,-83.3333333333333,4,1,1,80,0,1
53597,-133.333333333333,4,1,1,80,0,0
56340,-83.3333333333333,4,1,1,80,0,1
59083,-133.333333333333,4,1,1,80,0,0
61826,-83.3333333333333,4,1,1,80,0,1
65769,-83.3333333333333,4,1,2,80,0,1
65940,-83.3333333333333,4,1,1,80,0,1
66112,-83.3333333333333,4,1,2,80,0,1
66283,-83.3333333333333,4,1,1,80,0,1
66454,-83.3333333333333,4,1,2,80,0,1
66626,-83.3333333333333,4,1,1,80,0,1
66797,-83.3333333333333,4,1,2,80,0,1
66969,-83.3333333333333,4,1,1,80,0,1
67054,-83.3333333333333,4,1,2,80,0,1
67140,-83.3333333333333,4,1,1,80,0,1
70054,-133.333333333333,4,1,1,80,0,1
71426,-100,4,1,1,80,0,0
72626,-66.6666666666667,4,1,1,80,0,0
72797,-133.333333333333,4,1,1,80,0,1
72883,-133.333333333333,4,1,1,80,0,0
78283,-100,4,1,2,70,0,0
84540,-100,4,1,2,10,0,0
84626,-100,4,1,2,70,0,0
85483,-66.6666666666667,4,1,2,70,0,0
85826,-100,4,1,2,70,0,0
86769,-66.6666666666667,4,1,2,70,0,0
87883,-100,4,1,2,70,0,0
88912,-66.6666666666667,4,1,2,70,0,0
89254,-100,4,1,2,70,0,0
91483,-66.6666666666667,4,1,2,70,0,0
91997,-100,4,1,2,70,0,0
96369,-100,4,1,2,5,0,0
96454,-100,4,1,2,70,0,0
96712,-100,4,1,2,5,0,0
96797,-100,4,1,2,70,0,0
97054,-100,4,1,2,5,0,0
97140,-100,4,1,2,70,0,0
97397,-100,4,1,2,5,0,0
97483,-100,4,1,2,70,0,0
99883,-66.6666666666667,4,1,2,70,0,0
100226,-200,4,1,2,70,0,0
102969,-200,4,1,2,100,0,0
103654,-100,4,1,2,70,0,0
104512,-100,4,2,2,70,0,0
105712,-83.3333333333333,4,1,1,80,0,1
108283,-133.333333333333,4,1,1,80,0,0
110512,-100,4,1,1,80,0,0
111197,-83.3333333333333,4,1,1,80,0,1
113940,-133.333333333333,4,1,1,80,0,0
115997,-100,4,1,1,80,0,0
116683,-83.3333333333333,4,1,1,80,0,1
120626,-83.3333333333333,4,1,2,80,0,1
120797,-83.3333333333333,4,1,1,80,0,1
120969,-83.3333333333333,4,1,2,80,0,1
121140,-83.3333333333333,4,1,1,80,0,1
121312,-83.3333333333333,4,1,2,80,0,1
121483,-83.3333333333333,4,1,1,80,0,1
121654,-83.3333333333333,4,1,2,80,0,1
121826,-83.3333333333333,4,1,1,80,0,1
121912,-83.3333333333333,4,1,2,80,0,1
121997,-83.3333333333333,4,1,1,80,0,1
124912,-133.333333333333,4,1,1,80,0,1
126283,-133.333333333333,4,1,1,80,0,0
127140,-100,4,1,1,80,0,0
127226,-100,4,1,1,5,0,0
127312,-100,4,1,1,80,0,0
127397,-100,4,1,1,5,0,0
127483,-100,4,1,1,80,0,0
127569,-100,4,1,1,5,0,0
127654,-100,4,1,1,99,0,1
127740,-133.333333333333,4,2,1,70,0,0
174283,-100,4,2,2,70,0,0
175654,-83.3333333333333,4,1,1,80,0,1
178397,-133.333333333333,4,1,1,80,0,0
181140,-83.3333333333333,4,1,1,80,0,1
183883,-133.333333333333,4,1,1,80,0,0
185597,-83.3333333333333,4,1,1,80,0,0
186626,-83.3333333333333,4,1,1,80,0,1
190569,-83.3333333333333,4,1,2,80,0,1
190740,-83.3333333333333,4,1,1,80,0,1
190912,-83.3333333333333,4,1,2,80,0,1
191083,-83.3333333333333,4,1,1,80,0,1
191254,-83.3333333333333,4,1,2,80,0,1
191426,-83.3333333333333,4,1,1,80,0,1
191597,-83.3333333333333,4,1,2,80,0,1
191769,-83.3333333333333,4,1,1,80,0,1
191854,-83.3333333333333,4,1,2,80,0,1
191940,-83.3333333333333,4,1,1,80,0,1
194854,-133.333333333333,4,1,1,80,0,1
196226,-133.333333333333,4,1,1,80,0,0
198626,-166.666666666667,4,1,1,80,0,0
198969,-83.3333333333333,4,1,1,80,0,1
199740,-83.3333333333333,4,1,1,5,0,1
199826,-83.3333333333333,4,1,1,80,0,1
200083,-83.3333333333333,4,1,1,5,0,1
200169,-83.3333333333333,4,1,1,80,0,1
200254,-83.3333333333333,4,1,1,5,0,1
200340,-83.3333333333333,4,1,1,80,0,1
201283,-83.3333333333333,4,1,1,5,0,1
201369,-83.3333333333333,4,1,1,80,0,1
201454,-83.3333333333333,4,1,1,5,0,1
201540,-83.3333333333333,4,1,1,80,0,1
201626,-83.3333333333333,4,1,1,5,0,1
201712,-83.3333333333333,4,1,1,80,0,1
204026,-83.3333333333333,4,1,1,5,0,1
204112,-83.3333333333333,4,1,1,80,0,1
204197,-83.3333333333333,4,1,1,5,0,1
204283,-83.3333333333333,4,1,1,80,0,1
204369,-83.3333333333333,4,1,1,5,0,1
204454,-100,4,1,1,80,0,0
209597,-100,4,2,2,100,0,0

[Colours]
Combo1 : 255,0,0
Combo2 : 128,0,255
Combo3 : 255,128,0
Combo4 : 255,128,192
Combo5 : 255,0,255
Combo6 : 192,192,192
Combo7 : 255,255,255

[HitObjects]
350,93,1483,5,0,0:0:0:0:
406,251,1826,1,2,0:0:0:0:
350,93,1997,1,0,0:0:0:0:
350,93,2512,2,0,L|262:86,1,50,0|0,0:0|0:0,0:0:0:0:
234,42,2854,5,0,0:0:0:0:
234,42,3026,1,0,0:0:0:0:
164,159,3197,1,2,0:0:0:0:
265,241,3369,1,0,0:0:0:0:
266,241,3712,6,0,L|293:179,1,50,2|0,0:0|0:0,0:0:0:0:
316,302,3883,1,2,0:0:0:0:
200,291,4054,1,0,0:0:0:0:
89,258,4226,2,8,P|88:188|142:119,1,150,0|8,0:0|0:3,0:3:0:0:
160,109,4569,1,0,0:0:0:0:
266,121,4740,1,0,0:0:0:0:
367,98,4912,2,0,L|474:36,1,100,0|0,0:0|0:0,0:0:0:0:
449,171,5254,2,0,L|362:221,1,100,0|0,0:0|0:0,0:0:0:0:
186,318,5597,5,4,1:3:0:0:
46,143,5769,1,2,0:0:0:0:
46,143,5854,1,0,0:0:0:0:
46,143,5940,1,2,0:0:0:0:
3,275,6112,1,0,0:0:0:0:
99,85,6283,1,2,0:0:0:0:
179,221,6454,1,0,0:0:0:0:
155,27,6626,1,2,0:0:0:0:
126,161,6797,1,0,0:0:0:0:
238,85,6969,54,0,P|315:64|391:98,1,150,2|0,1:2|2:0,0:0:0:0:
417,157,7312,1,8,0:0:0:0:
321,249,7483,2,0,L|276:357,1,100,2|0,0:0|0:0,0:0:0:0:
195,191,7826,2,0,L|233:98,1,100,2|8,0:0|0:0,0:0:0:0:
8,160,8169,2,0,P|40:208|87:223,1,100,2|0,0:0|0:0,0:0:0:0:
272,185,8512,5,2,0:0:0:0:
196,20,8683,1,10,0:0:0:0:
86,154,8854,1,0,0:0:0:0:
256,92,9026,1,2,0:0:0:0:
401,206,9197,2,0,L|378:280,1,50,2|0,0:0|0:0,0:0:0:0:
321,319,9369,1,10,0:0:0:0:
193,209,9540,1,0,0:0:0:0:
338,111,9712,6,0,P|423:115|461:87,1,100,2|2,0:0|0:0,0:0:0:0:
234,47,10054,1,10,0:0:0:0:
182,119,10226,2,0,P|171:185|203:243,1,100,2|0,0:0|0:0,0:0:0:0:
391,330,10569,2,0,P|402:281|390:233,1,100,2|8,0:0|0:0,0:0:0:0:
226,47,10912,2,0,P|174:38|112:54,1,100,2|0,0:0|0:0,0:0:0:0:
59,160,11254,1,2,0:0:0:0:
157,238,11426,2,0,L|132:353,1,100,10|0,0:0|0:0,0:0:0:0:
125,122,11769,2,0,L|178:154,1,50,2|0,0:0|2:0,0:0:0:0:
236,215,11940,2,0,L|292:185,1,50,2|0,0:0|2:0,0:0:0:0:
340,119,12112,54,0,P|417:132|459:209,1,150.000005722046,8|0,0:0|0:0,0:0:0:0:
365,309,12454,54,0,P|397:319|432:313,2,50.0000019073487
294,283,12797,2,0,P|237:268|188:288,1,100.000003814697
128,305,13140,2,0,P|115:237|135:185,1,100.000003814697
167,148,13483,1,0,0:0:0:0:
335,94,13712,1,0,0:0:0:0:
361,118,13826,2,0,P|402:118|426:111,2,50.0000019073487
296,158,14169,2,0,P|285:213|320:267,1,100.000003814697
366,292,14512,1,0,0:0:0:0:
180,206,14854,53,0,0:0:0:0:
121,304,15083,1,0,0:0:0:0:
96,329,15197,2,0,P|56:341|5:316,1,100.000003814697
0,243,15540,2,0,L|36:136,1,100.000003814697
85,88,15883,2,0,P|131:73|201:106,1,100.000003814697
227,150,16226,2,0,P|292:169|339:142,1,100.000003814697
349,123,16569,5,0,0:0:0:0:
365,153,16683,1,0,0:0:0:0:
381,183,16797,1,0,0:0:0:0:
398,213,16912,1,0,0:0:0:0:
337,307,17140,1,0,0:0:0:0:
323,338,17254,1,0,0:0:0:0:
273,228,17483,1,0,0:0:0:0:
259,197,17597,1,0,0:0:0:0:
204,308,17826,1,0,0:0:0:0:
188,342,17940,6,0,B|165:378|165:378|138:348|129:256,1,150.000005722046,4|0,0:1|0:0,0:0:0:0:
351,219,18626,6,0,B|387:242|387:242|357:269|265:278,1,150.000005722046,4|0,0:1|0:0,0:0:0:0:
204,62,19312,54,0,B|227:26|227:26|254:56|263:148,1,150.000005722046,4|0,0:1|0:0,0:0:0:0:
70,254,19997,6,0,B|34:231|34:231|64:204|156:195,1,150.000005722046,4|0,0:1|1:0,0:0:0:0:
169,199,20454,1,0,1:0:0:0:
200,213,20569,1,0,1:0:0:0:
231,228,20683,6,0,P|308:252|431:213,2,200,4|0|0,0:2|0:0|0:0,0:0:0:0:
205,208,22397,5,0,0:0:0:0:
179,180,22740,53,0,0:0:0:0:
164,96,22912,1,0,0:0:0:0:
85,195,23083,1,0,0:0:0:0:
139,303,23254,1,0,0:0:0:0:
254,260,23426,6,0,P|308:256|355:268,1,100,2|0,0:0|0:0,0:0:0:0:
367,275,23683,1,0,0:0:0:0:
377,284,23769,1,8,0:0:0:0:
456,343,23940,2,0,L|448:228,1,100
437,91,24283,2,0,P|368:131|329:132,1,100,0|8,0:0|0:0,0:0:0:0:
308,113,24540,1,0,0:0:0:0:
274,94,24626,2,0,P|219:79|160:90,1,100,0|0,0:0|0:0,0:0:0:0:
119,164,24969,5,0,0:0:0:0:
100,294,25140,1,8,0:0:0:0:
160,141,25312,1,0,0:0:0:0:
224,281,25483,1,8,0:0:0:0:
207,136,25654,1,0,0:0:0:0:
238,303,25826,1,8,0:0:0:0:
196,112,25997,1,0,0:0:0:0:
251,318,26169,6,0,P|306:346|360:336,1,100,0|0,0:0|0:0,0:0:0:0:
380,329,26426,1,0,0:0:0:0:
418,304,26512,2,0,P|452:234|447:200,1,100,8|0,0:0|0:0,0:0:0:0:
422,178,26769,1,0,0:0:0:0:
383,154,26854,2,0,P|378:92|406:46,1,100,0|0,0:0|0:0,0:0:0:0:
497,43,27197,1,8,0:0:0:0:
382,172,27369,2,0,P|306:195|230:169,1,150
210,149,27712,54,0,L|191:77,1,50
169,219,27883,1,8,0:0:0:0:
260,301,28054,1,0,0:0:0:0:
127,145,28226,1,0,0:0:0:0:
81,318,28397,1,0,0:0:0:0:
252,222,28569,2,0,P|308:212|376:237,1,100,8|0,0:0|0:0,0:0:0:0:
381,238,28826,1,0,0:0:0:0:
402,262,28912,6,0,L|423:151,1,100
451,33,29254,1,8,0:0:0:0:
374,100,29426,2,0,P|288:133|218:123,1,150
140,86,29769,2,0,P|240:40|283:51,1,150,8|0,0:0|0:0,0:0:0:0:
221,146,30112,2,0,P|204:226|248:282,1,150,8|0,0:0|0:0,0:0:0:0:
382,254,30454,2,0,P|368:203|272:223,1,150,8|0,0:0|0:0,0:0:0:0:
271,235,30797,6,0,L|234:301,1,50
215,345,30969,1,8,0:0:0:0:
69,284,31140,1,0,0:0:0:0:
202,203,31312,1,8,0:0:0:0:
112,55,31483,1,0,0:0:0:0:
28,193,31654,1,0,0:0:0:0:
179,114,31826,6,0,L|253:113,1,50
296,138,31997,1,8,0:0:0:0:
412,226,32169,2,0,L|338:225,1,50
295,255,32340,1,0,0:0:0:0:
417,303,32512,1,0,0:0:0:0:
378,144,32683,1,8,0:0:0:0:
256,315,32854,1,0,0:0:0:0:
132,257,33026,54,0,P|119:206|132:162,1,100
243,75,33369,1,8,0:0:0:0:
338,156,33540,2,0,P|416:166|453:146,1,100
376,275,33883,2,0,L|358:335,1,50
447,233,34054,1,8,0:0:0:0:
257,202,34226,1,0,0:0:0:0:
405,86,34397,1,2,0:0:0:0:
240,122,34569,5,0,0:0:0:0:
101,53,34740,1,8,0:0:0:0:
105,207,34912,1,0,0:0:0:0:
191,49,35083,1,0,0:0:0:0:
62,134,35254,1,0,0:0:0:0:
197,209,35426,1,8,0:0:0:0:
97,63,35597,2,0,L|36:195,1,100,0|2,0:0|0:0,0:0:0:0:
0,259,35940,6,0,L|45:308,1,50
93,347,36112,1,8,0:0:0:0:
179,282,36283,1,0,0:0:0:0:
262,351,36454,1,0,0:0:0:0:
334,286,36626,1,0,0:0:0:0:
180,198,36797,1,8,0:0:0:0:
332,119,36969,2,0,L|457:56,1,100,0|2,0:0|0:0,0:0:0:0:
376,204,37312,5,0,0:0:0:0:
242,77,37483,1,8,0:0:0:0:
243,250,37654,1,0,0:0:0:0:
444,228,37826,1,0,0:0:0:0:
278,163,37997,1,0,0:0:0:0:
212,316,38169,1,8,0:0:0:0:
132,210,38340,2,0,L|59:83,1,100,0|0,0:0|0:0,0:0:0:0:
51,251,38683,54,0,L|31:313,1,50
8,181,38854,1,8,0:0:0:0:
121,82,39026,1,0,0:0:0:0:
219,182,39197,1,0,0:0:0:0:
256,196,39283,1,0,0:0:0:0:
296,193,39369,1,0,0:0:0:0:
331,174,39454,1,0,0:0:0:0:
361,148,39540,2,0,L|435:64,1,100,8|0,0:0|0:0,0:0:0:0:
232,255,39883,6,0,L|143:346,1,100,2|0,0:0|0:0,0:0:0:0:
267,132,40226,1,8,0:0:0:0:
196,61,40397,1,0,0:0:0:0:
255,265,40569,2,0,L|166:356,1,100,2|0,0:0|0:0,0:0:0:0:
290,142,40912,1,8,0:0:0:0:
219,71,41083,1,0,0:0:0:0:
219,71,41169,1,0,0:0:0:0:
219,71,41254,6,0,L|341:37,1,100,2|0,0:0|0:0,0:0:0:0:
353,53,41512,1,0,0:0:0:0:
376,82,41597,2,0,L|387:194,1,100,10|0,0:0|0:0,0:0:0:0:
384,316,41940,1,10,0:0:0:0:
282,253,42112,1,0,0:0:0:0:
414,329,42283,1,8,0:0:0:0:
254,242,42454,1,0,0:0:0:0:
155,305,42626,6,0,P|94:309|46:289,1,100,0|0,0:0|0:0,0:0:0:0:
115,213,42969,1,8,0:0:0:0:
190,163,43140,2,0,P|215:104|184:27,1,150
239,86,43483,2,0,P|292:115|353:108,1,100,0|8,0:0|0:0,0:0:0:0:
484,46,43826,54,0,L|469:113,1,50
409,160,43997,2,0,L|464:291,1,100,2|0,0:0|0:0,0:0:0:0:
357,238,44254,1,0,0:0:0:0:
357,238,44340,2,0,L|412:369,1,100,10|0,0:0|0:0,0:0:0:0:
304,308,44683,1,2,0:0:0:0:
183,332,44854,1,0,0:0:0:0:
183,332,44940,1,0,0:0:0:0:
183,332,45026,1,8,0:0:0:0:
221,213,45197,1,0,0:0:0:0:
148,128,45369,54,0,P|95:117|42:139,1,100,0|2,0:0|0:2,0:0:0:0:
14,200,45883,1,0,0:0:0:0:
152,130,46054,6,0,P|101:109|45:122,1,100,0|2,0:0|0:2,0:0:0:0:
10,204,46569,1,0,0:0:0:0:
156,135,46740,86,0,L|150:70,1,50
238,101,47083,2,0,L|244:35,1,50,2|0,0:2|0:0,0:0:0:0:
319,122,47426,2,0,L|348:73,1,50
394,177,47769,1,2,0:2:0:0:
310,213,47940,1,0,0:0:0:0:
225,180,48112,5,8,0:0:0:0:
215,176,48454,1,8,0:0:0:0:
205,175,48797,1,8,0:0:0:0:
198,176,49140,2,0,L|133:224,1,75.0000028610231,8|0,0:0|0:0,0:0:0:0:
214,255,49483,21,8,1:0:0:0:
121,79,49654,1,2,0:2:0:0:
121,79,49740,1,0,0:0:0:0:
121,79,49826,1,2,0:2:0:0:
63,251,49997,1,0,0:0:0:0:
168,47,50169,1,2,0:2:0:0:
209,230,50340,1,0,0:0:0:0:
217,18,50512,1,2,0:2:0:0:
190,159,50683,1,0,0:0:0:0:
306,98,50854,5,6,0:0:0:0:
387,215,51026,1,0,0:0:0:0:
387,215,51112,1,0,0:0:0:0:
387,215,51197,1,10,0:0:0:0:
383,46,51369,1,0,0:0:0:0:
300,258,51540,1,2,0:0:0:0:
179,157,51712,2,0,P|114:145|37:172,1,119.999996337891,0|10,0:0|0:0,0:0:0:0:
125,292,52054,6,0,P|183:309|245:298,1,119.999996337891,0|2,0:0|0:0,0:0:0:0:
326,169,52397,1,0,0:0:0:0:
326,169,52483,1,0,0:0:0:0:
326,169,52569,1,10,0:0:0:0:
379,297,52740,1,0,0:0:0:0:
305,78,52912,1,2,0:0:0:0:
266,249,53083,1,0,0:0:0:0:
403,70,53254,1,10,0:0:0:0:
238,42,53426,1,0,0:0:0:0:
110,127,53597,22,0,P|84:187|123:273,1,150.000005722046,0|8,0:0|0:0,0:0:0:0:
207,214,54112,1,0,0:0:0:0:
308,172,54283,2,0,P|382:187|409:258,1,150.000005722046,0|8,0:0|0:0,0:0:0:0:
310,306,54797,1,0,0:0:0:0:
281,199,54969,2,0,L|234:54,1,150.000005722046,0|8,0:0|0:0,0:0:0:0:
162,149,55483,1,0,0:0:0:0:
359,204,55654,85,8,0:0:0:0:
118,283,55997,1,8,0:0:0:0:
402,186,56340,53,2,0:0:0:0:
348,300,56512,1,0,0:0:0:0:
348,300,56597,1,0,0:0:0:0:
348,300,56683,2,0,P|276:318|217:298,1,119.999996337891,10|0,0:0|0:0,0:0:0:0:
246,124,57026,1,2,0:0:0:0:
170,244,57197,1,0,0:0:0:0:
181,55,57369,1,10,0:0:0:0:
295,202,57540,6,0,P|382:217|417:197,1,119.999996337891,0|2,0:0|0:0,0:0:0:0:
492,75,57883,1,0,0:0:0:0:
492,75,57969,1,0,0:0:0:0:
492,75,58054,1,10,0:0:0:0:
375,134,58226,1,0,0:0:0:0:
446,306,58397,1,2,0:0:0:0:
294,270,58569,2,0,P|226:269|147:299,1,119.999996337891,0|10,0:0|0:0,0:0:0:0:
95,360,58912,1,0,0:0:0:0:
32,240,59083,38,0,P|53:150|119:127,1,150.000005722046,0|8,0:0|0:0,0:0:0:0:
99,127,59769,1,0,0:0:0:0:
167,197,59940,1,0,0:0:0:0:
263,213,60112,1,8,0:0:0:0:
345,161,60283,1,0,0:0:0:0:
386,57,60454,2,0,L|446:202,1,150.000005722046,0|8,0:0|0:0,0:0:0:0:
370,288,60969,1,0,0:0:0:0:
262,331,61140,69,8,0:0:0:0:
56,253,61483,1,8,0:0:0:0:
300,348,61826,5,2,0:0:0:0:
353,212,61997,1,0,0:0:0:0:
149,244,62169,1,10,0:0:0:0:
205,69,62340,1,0,0:0:0:0:
155,223,62512,1,2,0:0:0:0:
212,52,62683,2,0,P|288:38|351:75,1,119.999996337891,0|10,0:0|0:0,0:0:0:0:
432,225,63026,53,0,0:0:0:0:
432,225,63112,1,0,0:0:0:0:
432,225,63197,1,2,0:0:0:0:
273,139,63369,1,0,0:0:0:0:
240,305,63540,1,10,0:0:0:0:
355,189,63712,1,0,0:0:0:0:
198,90,63883,1,2,0:0:0:0:
60,213,64054,2,0,P|58:293|98:331,1,119.999996337891,0|10,0:0|0:0,0:0:0:0:
182,235,64397,1,0,0:0:0:0:
114,134,64569,5,2,0:0:0:0:
304,56,64740,1,0,0:0:0:0:
100,141,64912,1,10,0:0:0:0:
316,48,65083,1,0,0:0:0:0:
233,187,65254,2,0,P|264:249|323:264,1,119.999996337891,2|0,0:0|0:0,0:0:0:0:
385,126,65597,1,10,0:0:0:0:
203,48,65769,6,0,P|132:33|76:53,1,119.999996337891,2|2,0:0|0:0,0:0:0:0:
318,328,66112,2,0,P|389:343|445:323,1,119.999996337891,2|10,0:0|0:0,0:0:0:0:
349,139,66454,1,2,0:0:0:0:
264,254,66626,1,2,0:0:0:0:
454,209,66797,1,2,0:0:0:0:
331,36,66969,1,10,0:0:0:0:
331,36,67054,2,0,L|237:112,1,119.999996337891,2|0,0:0|0:0,0:0:0:0:
237,114,67312,6,0,L|187:231,1,119.999996337891,2|0,0:0|0:0,0:0:0:0:
130,353,67654,1,10,0:0:0:0:
108,94,67826,1,0,0:0:0:0:
264,278,67997,1,2,0:0:0:0:
122,188,68169,2,0,P|46:204|8:230,1,119.999996337891,0|10,0:0|0:0,0:0:0:0:
220,346,68512,53,0,0:0:0:0:
220,346,68597,1,0,0:0:0:0:
220,346,68683,2,0,P|291:358|343:320,1,119.999996337891,2|0,0:0|0:0,0:0:0:0:
394,191,69026,2,0,L|357:58,1,119.999996337891,10|0,0:0|0:0,0:0:0:0:
186,28,69369,1,2,0:0:0:0:
114,229,69540,1,0,0:0:0:0:
325,142,69712,1,10,0:0:0:0:
168,140,69883,1,0,0:0:0:0:
183,149,69969,1,0,0:0:0:0:
192,159,70054,54,0,P|224:224|192:289,1,150.000005722046,0|8,0:0|0:0,0:0:0:0:
125,366,70569,1,0,0:0:0:0:
287,309,70740,2,0,P|345:305|397:312,1,75.0000028610231
390,314,70997,1,0,0:0:0:0:
412,333,71083,2,0,L|441:240,1,75.0000028610231,8|0,0:0|0:0,0:0:0:0:
470,135,71426,37,0,0:0:0:0:
470,135,71769,1,0,0:0:0:0:
470,135,72112,1,0,0:0:0:0:
359,219,72283,1,0,0:0:0:0:
359,219,72369,1,0,0:0:0:0:
359,219,72454,1,2,0:0:0:0:
254,140,72626,86,0,L|185:173,1,75.0000028610231,0|0,0:0|2:0,0:0:0:0:
89,220,72797,21,2,0:0:0:0:
46,246,78283,6,0,P|100:281|161:271,1,100
161,268,78540,1,0,0:0:0:0:
190,260,78626,1,8,0:0:0:0:
220,258,78712,1,0,0:0:0:0:
248,266,78797,1,0,0:0:0:0:
275,277,78883,1,0,0:0:0:0:
298,296,78969,2,0,P|343:310|463:270,1,150
481,226,79312,1,8,0:0:0:0:
357,37,79569,5,0,0:0:0:0:
334,62,79654,2,0,P|257:83|167:60,1,150
165,55,79997,1,8,0:0:0:0:
135,60,80083,1,0,0:0:0:0:
109,76,80169,1,0,0:0:0:0:
95,102,80254,1,0,0:0:0:0:
92,131,80340,2,0,P|121:223|93:278,1,150
48,319,80683,2,0,L|-15:291,2,66.6666666666667,8|0|0,0:0|0:0|0:0,0:0:0:0:
125,342,81026,53,0,0:0:0:0:
152,353,81112,1,0,0:0:0:0:
181,356,81197,1,0,0:0:0:0:
210,352,81283,1,0,0:0:0:0:
238,342,81369,2,0,P|293:320|352:323,1,100,8|0,0:0|0:0,0:0:0:0:
365,331,81626,1,0,0:0:0:0:
394,338,81712,1,0,0:0:0:0:
421,326,81797,1,0,0:0:0:0:
440,302,81883,1,0,0:0:0:0:
451,274,81969,2,0,L|415:198,1,50,0|8,0:0|0:0,0:0:0:0:
387,168,82140,1,0,0:0:0:0:
375,140,82226,1,0,0:0:0:0:
376,109,82312,2,0,L|409:60,1,50
319,56,82483,5,0,0:0:0:0:
295,74,82569,1,0,0:0:0:0:
269,88,82654,1,0,0:0:0:0:
240,98,82740,1,8,0:0:0:0:
210,103,82826,1,0,0:0:0:0:
179,101,82912,1,0,0:0:0:0:
149,95,82997,1,0,0:0:0:0:
123,79,83083,2,0,L|60:135,1,50
11,168,83254,2,0,L|52:222,1,50
106,263,83426,1,8,0:0:0:0:
134,272,83512,1,0,0:0:0:0:
163,270,83597,6,0,P|220:256|280:269,1,100
287,273,83854,1,0,0:0:0:0:
315,283,83940,1,0,0:0:0:0:
345,284,84026,1,0,0:0:0:0:
374,280,84112,1,8,0:0:0:0:
401,268,84197,1,0,0:0:0:0:
426,251,84283,1,0,0:0:0:0:
396,70,84454,2,0,L|374:122,1,50
340,193,84626,1,0,0:0:0:0:
340,193,84712,2,0,P|259:173|225:173,1,100,8|0,0:0|0:0,0:0:0:0:
220,175,84969,1,8,0:0:0:0:
116,209,85140,5,0,0:0:0:0:
116,209,85226,2,0,P|97:275|119:325,1,100
176,351,85483,38,0,P|246:356|288:322,1,75.0000028610231,8|0,0:0|0:0,0:0:0:0:
295,280,85654,2,0,P|370:265|419:287,1,75.0000028610231
451,294,85826,5,0,0:0:0:0:
419,135,85997,1,0,0:0:0:0:
419,135,86083,2,0,L|365:158,1,50,0|8,0:0|0:0,0:0:0:0:
227,213,86340,1,0,0:0:0:0:
108,149,86512,5,0,0:0:0:0:
124,124,86597,1,0,0:0:0:0:
148,106,86683,1,0,0:0:0:0:
177,100,86769,70,0,P|248:122|339:84,1,150.000005722046,8|0,0:0|0:0,0:0:0:0:
368,47,87026,37,0,0:0:0:0:
442,161,87197,1,0,0:0:0:0:
461,195,87283,1,8,0:0:0:0:
366,280,87454,1,0,0:0:0:0:
352,311,87540,54,0,P|240:335|188:309,1,150.000005722046,8|0,0:0|0:0,0:0:0:0:
159,182,87883,53,0,0:0:0:0:
299,89,88054,1,0,0:0:0:0:
328,91,88140,1,0,0:0:0:0:
355,104,88226,1,8,0:0:0:0:
374,130,88312,1,0,0:0:0:0:
379,159,88397,1,0,0:0:0:0:
374,188,88483,1,0,0:0:0:0:
361,215,88569,1,8,0:0:0:0:
338,234,88654,1,0,0:0:0:0:
308,241,88740,1,8,0:0:0:0:
279,232,88826,1,0,0:0:0:0:
255,212,88912,38,0,P|180:161|40:241,1,225.000008583069,8|0,0:0|0:0,0:0:0:0:
46,316,89254,5,0,0:0:0:0:
46,316,89426,1,0,0:0:0:0:
153,309,89597,2,0,L|155:258,2,50,8|0|0,0:0|0:0|0:0,0:0:0:0:
243,342,89940,2,0,L|301:331,1,50
429,290,90112,2,0,L|390:223,1,50
280,134,90283,2,0,L|256:178,1,50,8|0,0:0|0:0,0:0:0:0:
319,246,90454,5,0,0:0:0:0:
319,246,90540,1,0,0:0:0:0:
319,246,90626,1,0,0:0:0:0:
319,246,90712,1,0,0:0:0:0:
319,246,90797,2,0,P|384:223|416:188,1,100,0|8,0:0|0:0,0:0:0:0:
419,175,91054,1,0,0:0:0:0:
430,146,91140,1,0,0:0:0:0:
424,116,91226,1,0,0:0:0:0:
408,89,91312,1,0,0:0:0:0:
266,43,91483,70,0,L|187:124,1,75.0000028610231
119,198,91654,37,8,0:0:0:0:
332,141,91826,1,0,0:0:0:0:
196,265,91997,5,0,0:0:0:0:
172,283,92083,1,0,0:0:0:0:
144,295,92169,1,0,0:0:0:0:
114,300,92254,1,0,0:0:0:0:
84,295,92340,1,8,0:0:0:0:
57,280,92426,1,0,0:0:0:0:
36,257,92512,2,0,P|30:220|35:188,1,50
38,106,92683,1,0,0:0:0:0:
197,177,92854,1,0,0:0:0:0:
325,115,93026,2,0,P|322:90|317:66,1,50,8|0,0:0|0:0,0:0:0:0:
212,40,93197,1,0,0:0:0:0:
274,173,93369,53,0,0:0:0:0:
286,199,93454,1,0,0:0:0:0:
298,226,93540,1,0,0:0:0:0:
311,253,93626,1,0,0:0:0:0:
322,280,93712,2,0,L|346:336,2,50,8|0|0,0:0|0:0|0:0,0:0:0:0:
392,192,94054,2,0,L|434:132,1,50
384,61,94226,1,0,0:0:0:0:
223,229,94397,1,8,0:0:0:0:
21,155,94740,5,0,0:0:0:0:
276,89,94912,1,0,0:0:0:0:
122,229,95083,1,8,0:0:0:0:
125,258,95169,1,0,0:0:0:0:
132,286,95254,1,0,0:0:0:0:
151,309,95340,1,0,0:0:0:0:
177,322,95426,1,0,0:0:0:0:
206,328,95512,1,0,0:0:0:0:
235,326,95597,1,0,0:0:0:0:
264,321,95683,1,0,0:0:0:0:
293,317,95769,2,0,P|335:315|359:318,1,50,8|0,0:0|0:0,0:0:0:0:
445,323,95940,2,0,P|450:290|446:261,1,50
418,180,96112,6,0,P|349:137|258:180,1,150
262,286,96454,2,0,P|305:217|262:126,1,150,8|0,0:0|0:0,0:0:0:0:
160,130,96797,2,0,P|229:173|320:130,1,150
320,31,97140,2,0,P|277:100|320:191,1,150,8|0,0:0|0:0,0:0:0:0:
360,238,97483,5,0,0:0:0:0:
362,112,97654,1,0,0:0:0:0:
247,173,97826,1,8,0:0:0:0:
369,251,97997,53,0,0:0:0:0:
371,99,98168,1,0,0:0:0:0:
233,173,98340,1,8,0:0:0:0:
382,267,98512,5,0,0:0:0:0:
382,81,98683,1,0,0:0:0:0:
219,172,98855,1,8,0:0:0:0:
391,281,99026,5,0,0:0:0:0:
391,281,99112,1,8,0:0:0:0:
243,286,99283,1,0,0:0:0:0:
227,259,99369,1,0,0:0:0:0:
212,233,99454,1,8,0:0:0:0:
196,206,99540,1,0,0:0:0:0:
100,136,99712,1,8,0:0:0:0:
256,82,99883,54,0,P|328:73|410:139,1,150.000005722046,8|0,0:0|0:0,0:0:0:0:
322,259,100226,70,0,P|306:211|317:155,1,100,0|2,0:0|0:2,0:0:0:0:
387,117,100740,1,0,0:0:0:0:
324,267,100912,2,0,P|299:222|301:165,1,100,0|2,0:0|0:2,0:0:0:0:
387,117,101426,1,0,0:0:0:0:
443,212,101597,2,0,L|465:275,1,50
395,301,101940,2,0,L|379:349,1,50,2|0,0:2|0:0,0:0:0:0:
283,324,102283,1,0,0:0:0:0:
209,342,102454,1,0,0:0:0:0:
145,253,102626,1,2,0:2:0:0:
220,265,102797,1,0,0:0:0:0:
259,169,102969,37,0,0:0:0:0:
261,173,103654,2,0,L|193:278,1,100
207,258,104340,5,0,0:0:0:0:
297,117,104512,1,2,0:0:0:0:
297,117,104597,1,0,0:0:0:0:
297,117,104683,1,2,0:0:0:0:
292,336,104854,1,0,0:0:0:0:
342,95,105026,1,2,0:0:0:0:
406,290,105197,1,0,0:0:0:0:
383,73,105369,1,2,0:0:0:0:
372,194,105540,1,0,0:0:0:0:
233,296,105712,5,2,0:0:0:0:
187,111,105883,1,0,0:0:0:0:
187,111,105969,1,0,0:0:0:0:
187,111,106054,1,10,0:0:0:0:
142,242,106226,1,0,0:0:0:0:
295,157,106397,1,2,0:0:0:0:
448,202,106569,2,0,L|504:322,1,119.999996337891,0|10,0:0|0:0,0:0:0:0:
348,280,106912,5,0,0:0:0:0:
348,280,106997,1,0,0:0:0:0:
348,280,107083,2,0,P|277:273|223:301,1,119.999996337891,2|0,0:0|0:0,0:0:0:0:
154,366,107426,1,10,0:0:0:0:
92,129,107597,1,0,0:0:0:0:
38,289,107769,1,2,0:0:0:0:
219,119,107940,1,0,0:0:0:0:
285,350,108112,1,10,0:0:0:0:
215,243,108283,6,0,P|141:206|74:215,1,150.000005722046
5,257,108797,1,8,0:0:0:0:
188,102,109140,1,0,0:0:0:0:
182,98,109483,1,8,0:0:0:0:
254,157,109654,2,0,P|312:174|398:132,1,150.000005722046
428,67,110169,2,0,L|489:143,1,75.0000028610231,8|0,0:0|0:0,0:0:0:0:
473,227,110512,38,0,P|440:287|404:307,1,100,8|0,0:0|0:0,0:0:0:0:
298,290,110854,2,0,P|331:230|367:210,1,100,8|0,0:0|0:0,0:0:0:0:
431,155,111197,5,2,0:0:0:0:
317,47,111369,1,0,0:0:0:0:
317,47,111454,1,0,0:0:0:0:
317,47,111540,1,10,0:0:0:0:
251,182,111712,1,0,0:0:0:0:
383,284,111883,1,2,0:0:0:0:
253,184,112054,2,0,L|132:78,1,119.999996337891,0|10,0:0|0:0,0:0:0:0:
105,208,112397,5,0,0:0:0:0:
105,208,112483,1,0,0:0:0:0:
105,208,112569,2,0,P|62:255|1:275,1,119.999996337891,2|0,0:0|0:0,0:0:0:0:
38,109,112912,1,10,0:0:0:0:
251,63,113083,1,0,0:0:0:0:
123,226,113254,1,2,0:0:0:0:
135,39,113426,1,0,0:0:0:0:
246,252,113597,1,10,0:0:0:0:
382,136,113769,1,0,0:0:0:0:
250,153,113940,22,0,L|91:159,1,150.000005722046,0|8,0:0|0:0,0:0:0:0:
101,156,114626,1,0,0:0:0:0:
43,295,114797,1,0,0:0:0:0:
201,218,114969,1,8,0:0:0:0:
235,358,115140,1,0,0:0:0:0:
310,239,115312,2,0,P|367:192|440:193,1,150.000005722046,0|8,0:0|0:0,0:0:0:0:
403,286,115826,1,0,0:0:0:0:
299,235,115997,86,0,P|273:195|250:135,1,100,8|0,0:0|0:0,0:0:0:0:
379,38,116340,2,0,P|367:111|349:151,1,100,8|0,0:0|0:0,0:0:0:0:
244,58,116683,53,2,0:0:0:0:
59,162,116854,1,0,0:0:0:0:
232,282,117026,1,10,0:0:0:0:
76,60,117197,1,0,0:0:0:0:
51,261,117369,1,2,0:0:0:0:
197,155,117540,2,0,P|268:133|341:143,1,119.999996337891,0|10,0:0|0:0,0:0:0:0:
454,238,117883,5,0,0:0:0:0:
454,238,117969,1,0,0:0:0:0:
454,238,118054,1,2,0:0:0:0:
310,327,118226,1,0,0:0:0:0:
317,138,118397,1,10,0:0:0:0:
302,339,118569,1,0,0:0:0:0:
442,247,118740,1,0,0:0:0:0:
308,139,118912,2,0,P|239:125|172:142,1,119.999996337891,0|10,0:0|0:0,0:0:0:0:
83,263,119254,1,0,0:0:0:0:
243,202,119426,5,2,0:0:0:0:
391,178,119597,1,0,0:0:0:0:
222,243,119769,1,10,0:0:0:0:
390,240,119940,1,0,0:0:0:0:
188,278,120112,1,2,0:0:0:0:
364,295,120283,1,0,0:0:0:0:
150,204,120454,1,10,0:0:0:0:
248,36,120626,6,0,P|317:36|389:71,1,119.999996337891,2|2,0:0|0:0,0:0:0:0:
50,349,120969,2,0,P|32:278|52:223,1,119.999996337891,2|10,0:0|0:0,0:0:0:0:
188,125,121312,1,2,0:0:0:0:
403,171,121483,1,2,0:0:0:0:
209,257,121654,1,2,0:0:0:0:
307,48,121826,1,10,0:0:0:0:
307,48,121912,2,0,L|328:168,1,119.999996337891,2|0,0:0|0:0,0:0:0:0:
325,172,122169,54,0,L|351:312,1,119.999996337891,2|0,0:0|0:0,0:0:0:0:
205,363,122512,2,0,P|114:349|92:331,1,119.999996337891,10|0,0:0|0:0,0:0:0:0:
70,122,122854,2,0,L|39:208,1,59.9999981689454,2|0,0:0|0:0,0:0:0:0:
15,269,123026,1,0,0:0:0:0:
50,46,123197,1,10,0:0:0:0:
144,169,123369,6,0,P|235:180|265:160,1,119.999996337891,0|2,0:0|0:0,0:0:0:0:
369,41,123712,1,0,0:0:0:0:
369,41,123797,1,0,0:0:0:0:
369,41,123883,2,0,P|435:65|470:142,1,119.999996337891,10|0,0:0|0:0,0:0:0:0:
405,283,124226,1,2,0:0:0:0:
224,231,124397,1,0,0:0:0:0:
329,335,124569,1,10,0:0:0:0:
321,133,124740,1,0,0:0:0:0:
295,109,124826,1,0,0:0:0:0:
266,97,124912,38,0,P|187:91|125:127,1,150.000005722046,0|8,0:0|0:0,0:0:0:0:
85,255,125426,1,0,0:0:0:0:
190,337,125597,2,0,P|207:286|205:257,1,75.0000028610231
192,242,125854,1,0,0:0:0:0:
214,228,125940,2,0,P|268:218|307:228,1,75.0000028610231,8|0,0:0|0:0,0:0:0:0:
390,315,126283,5,0,0:0:0:0:
390,315,126626,1,0,0:0:0:0:
390,315,126969,1,0,0:0:0:0:
370,198,127140,54,0,L|304:225,1,50,2|0,0:0|0:0,0:0:0:0:
268,331,127312,2,0,L|220:311,1,50,2|0,0:0|0:0,0:0:0:0:
165,164,127483,2,0,L|113:197,1,50,2|0,0:0|0:0,0:0:0:0:
0,282,127654,5,4,0:0:0:0:
113,210,138626,54,0,P|151:268|237:275,1,150.000005722046,0|8,1:0|1:2,0:0:0:0:
300,226,139140,1,0,0:0:0:0:
393,223,139312,2,0,L|474:349,2,150.000005722046,0|8|0,1:2|1:2|1:0,0:0:0:0:
393,224,140340,1,8,1:2:0:0:
290,301,140512,1,2,0:0:0:0:
290,301,140598,1,0,0:0:0:0:
290,301,140683,2,0,P|235:297|194:304,1,75.0000028610231,0|0,1:0|0:0,0:0:0:0:
108,337,141026,2,0,P|95:286|98:252,1,75.0000028610231,8|0,1:2|0:0,0:0:0:0:
162,187,141369,5,0,1:2:0:0:
162,187,141540,1,0,0:0:0:0:
269,219,141712,1,8,1:2:0:0:
269,219,141883,1,0,0:0:0:0:
306,113,142054,1,0,1:2:0:0:
306,113,142226,1,0,0:0:0:0:
199,78,142397,1,8,1:2:0:0:
199,78,142569,1,0,0:0:0:0:
162,187,142740,6,0,L|119:267,1,75.0000028610231,0|0,1:0|0:0,0:0:0:0:
269,219,143083,2,0,L|361:268,1,75.0000028610231,8|0,1:2|0:0,0:0:0:0:
306,113,143426,2,0,L|347:42,1,75.0000028610231,0|0,1:0|0:0,0:0:0:0:
199,78,143769,1,8,1:2:0:0:
87,39,143940,1,0,1:0:0:0:
28,148,144112,6,0,P|31:233|54:309,1,150.000005722046,0|8,1:0|1:2,0:0:0:0:
139,258,144626,1,0,0:0:0:0:
226,211,144797,2,0,P|306:207|384:222,2,150.000005722046,0|8|0,1:0|1:2|1:0,0:0:0:0:
224,214,145826,1,8,1:2:0:0:
134,153,145997,1,2,0:0:0:0:
134,153,146083,1,0,0:0:0:0:
134,153,146169,2,0,P|119:93|123:77,1,75.0000028610231,0|0,1:0|0:0,0:0:0:0:
227,22,146512,2,0,P|242:82|238:98,1,75.0000028610231,8|0,1:2|0:0,0:0:0:0:
188,171,146854,53,0,1:2:0:0:
301,155,147026,1,0,0:0:0:0:
183,185,147197,1,8,1:2:0:0:
303,179,147369,1,0,0:0:0:0:
179,194,147540,1,0,1:2:0:0:
299,193,147712,1,0,0:0:0:0:
170,202,147883,1,8,1:2:0:0:
292,211,148055,1,0,0:0:0:0:
159,209,148226,6,0,P|130:178|110:149,1,75.0000028610231,0|0,1:0|0:0,0:0:0:0:
278,226,148569,2,0,P|311:259|333:301,1,75.0000028610231,8|0,1:2|0:0,0:0:0:0:
146,212,148912,2,0,P|119:178|102:147,1,75.0000028610231,0|0,1:0|0:0,0:0:0:0:
262,239,149254,1,8,1:2:0:0:
330,313,149426,1,0,1:2:0:0:
405,249,149597,2,0,P|423:163|412:89,1,150.000005722046,0|8,1:0|1:2,0:0:0:0:
337,46,150112,2,0,P|286:65|238:70,1,75.0000028610231,0|0,0:0|1:0,0:0:0:0:
163,49,150454,1,0,0:0:0:0:
94,133,150626,2,0,P|93:197|99:235,1,75.0000028610231,8|0,1:2|0:0,0:0:0:0:
152,311,150969,6,0,P|225:249|292:267,1,150.000005722046,0|0,1:0|1:0,0:0:0:0:
396,333,151483,1,2,0:0:0:0:
396,333,151569,1,0,0:0:0:0:
396,333,151654,2,0,P|360:284|386:208,1,112.500004291535,0|0,1:0|0:0,0:0:0:0:
419,183,151997,2,0,L|328:102,1,112.500004291535,8|0,1:2|0:0,0:0:0:0:
289,46,152340,5,0,1:0:0:0:
242,128,152512,1,2,0:0:0:0:
149,112,152683,1,8,1:2:0:0:
196,194,152855,1,2,0:0:0:0:
289,55,153026,1,0,1:2:0:0:
242,137,153198,1,2,0:0:0:0:
145,118,153369,1,8,1:2:0:0:
192,200,153541,1,2,0:0:0:0:
286,64,153712,54,0,P|267:105|223:150,1,75.0000028610231,0|2,1:0|0:0,0:0:0:0:
139,124,154054,2,0,P|158:176|179:204,1,75.0000028610231,8|2,1:2|0:0,0:0:0:0:
282,73,154397,2,0,P|263:114|219:159,1,75.0000028610231,0|2,1:0|0:0,0:0:0:0:
135,128,154740,1,8,1:2:0:0:
199,212,154912,1,2,1:2:0:0:
199,212,154997,1,0,0:0:0:0:
199,212,155083,6,0,P|240:260|263:275,1,75.0000028610231,0|0,1:0|0:0,0:0:0:0:
352,232,155426,2,0,P|412:234|437:242,1,75.0000028610231,8|0,1:2|0:0,0:0:0:0:
381,337,155769,1,0,1:2:0:0:
381,337,155940,1,0,0:0:0:0:
270,288,156112,1,8,1:2:0:0:
270,288,156283,1,0,0:0:0:0:
174,332,156454,2,0,P|121:328|95:331,1,75.0000028610231,0|0,1:2|0:0,0:0:0:0:
30,239,156797,1,8,1:2:0:0:
108,136,156969,5,0,0:0:0:0:
108,136,157054,1,0,0:0:0:0:
108,136,157140,2,0,L|145:227,1,75.0000028610231,0|0,1:0|0:0,0:0:0:0:
230,131,157483,1,8,1:2:0:0:
183,40,157654,1,0,1:0:0:0:
295,55,157826,5,0,1:2:0:0:
432,114,157997,1,0,0:0:0:0:
368,250,158169,1,8,1:2:0:0:
232,187,158340,1,0,0:0:0:0:
163,79,158512,53,0,1:2:0:0:
26,138,158683,1,0,1:0:0:0:
90,274,158855,1,8,1:2:0:0:
226,211,159026,1,0,1:0:0:0:
377,180,159197,6,0,P|430:203|465:229,1,75.0000028610231,8|0,1:2|0:0,0:0:0:0:
150,200,159540,2,0,P|102:232|72:263,1,75.0000028610231,8|0,1:2|0:0,0:0:0:0:
374,229,159883,2,0,P|415:268|439:305,1,75.0000028610231,8|0,1:2|0:0,0:0:0:0:
159,248,160226,2,0,P|124:294|107:334,1,75.0000028610231,8|0,1:2|0:0,0:0:0:0:
348,271,160569,5,0,0:0:0:0:
256,192,172912,12,2,174283,0:0:0:0:
184,183,174454,5,2,0:0:0:0:
184,183,174540,1,0,0:0:0:0:
184,183,174626,1,2,0:0:0:0:
129,291,174797,1,0,0:0:0:0:
252,77,174969,1,2,0:0:0:0:
339,243,175140,1,0,0:0:0:0:
361,45,175312,1,2,0:0:0:0:
305,156,175483,1,0,0:0:0:0:
173,104,175654,54,0,L|42:56,1,119.999996337891,2|0,0:0|0:0,0:0:0:0:
209,269,175997,2,0,L|340:317,1,119.999996337891,10|0,0:0|0:0,0:0:0:0:
159,193,176340,1,2,0:0:0:0:
378,150,176512,2,0,L|501:119,1,119.999996337891,0|10,0:0|0:0,0:0:0:0:
263,36,176854,1,0,0:0:0:0:
263,36,176940,1,0,0:0:0:0:
263,36,177026,6,0,L|243:166,1,119.999996337891,2|0,0:0|0:0,0:0:0:0:
206,346,177369,1,10,0:0:0:0:
361,207,177540,1,0,0:0:0:0:
465,333,177712,1,2,0:0:0:0:
236,240,177883,2,0,P|153:237|92:253,1,119.999996337891,0|10,0:0|0:0,0:0:0:0:
25,329,178226,1,0,0:0:0:0:
244,249,178397,38,0,P|273:181|264:104,1,150.000005722046,0|8,0:0|0:0,0:0:0:0:
211,27,178912,1,0,0:0:0:0:
366,97,179083,2,0,L|448:83,2,75.0000028610231,0|0|8,0:0|0:0|0:0,0:0:0:0:
186,167,179597,2,0,L|106:178,1,75.0000028610231
21,258,179940,1,0,0:0:0:0:
118,334,180112,2,0,L|192:323,1,75.0000028610231,8|0,0:0|0:0,0:0:0:0:
265,264,180454,5,8,0:0:0:0:
265,264,180625,1,0,0:0:0:0:
394,228,180797,1,8,0:0:0:0:
394,228,180968,1,0,0:0:0:0:
232,138,181140,54,0,L|119:90,1,119.999996337891,2|0,0:0|0:0,0:0:0:0:
50,109,181397,1,0,0:0:0:0:
40,122,181483,2,0,P|37:200|64:239,1,119.999996337891,10|0,0:0|0:0,0:0:0:0:
181,296,181826,1,2,0:0:0:0:
339,146,181997,1,0,0:0:0:0:
385,325,182169,1,10,0:0:0:0:
330,159,182340,5,0,0:0:0:0:
330,159,182426,1,0,0:0:0:0:
330,159,182512,2,0,L|307:32,1,119.999996337891,2|0,0:0|0:0,0:0:0:0:
236,187,182854,1,10,0:0:0:0:
329,341,183026,1,0,0:0:0:0:
157,224,183197,1,2,0:0:0:0:
372,119,183369,2,0,L|492:58,2,119.999996337891,0|10|0,0:0|0:0|0:0,0:0:0:0:
236,187,183883,6,0,P|220:253|264:323,1,150.000005722046,0|8,0:0|0:0,0:0:0:0:
361,349,184397,1,0,0:0:0:0:
334,232,184569,1,0,0:0:0:0:
145,329,184740,1,0,0:0:0:0:
79,193,184912,2,0,L|48:113,1,75.0000028610231,8|0,0:0|0:0,0:0:0:0:
163,29,185254,2,0,L|190:98,1,75.0000028610231
235,210,185597,21,10,0:0:0:0:
457,118,185769,1,0,0:0:0:0:
322,315,185940,1,2,0:0:0:0:
315,74,186112,1,2,0:0:0:0:
459,264,186283,1,10,0:0:0:0:
352,193,186454,1,0,0:0:0:0:
352,193,186540,1,0,0:0:0:0:
352,193,186626,5,2,0:0:0:0:
91,248,186797,1,0,0:0:0:0:
193,85,186969,1,10,0:0:0:0:
255,346,187140,1,0,0:0:0:0:
352,193,187312,1,2,0:0:0:0:
193,85,187483,2,0,L|65:60,1,119.999996337891,0|10,0:0|0:0,0:0:0:0:
218,203,187826,5,0,0:0:0:0:
218,203,187912,1,0,0:0:0:0:
218,203,187997,1,2,0:0:0:0:
391,103,188169,1,0,0:0:0:0:
374,291,188340,1,10,0:0:0:0:
394,73,188512,1,0,0:0:0:0:
512,221,188683,1,2,0:0:0:0:
310,134,188854,2,0,L|183:87,1,119.999996337891,0|10,0:0|0:0,0:0:0:0:
58,174,189197,5,0,0:0:0:0:
58,174,189283,1,0,0:0:0:0:
58,174,189369,1,6,0:0:0:0:
221,278,189540,1,0,0:0:0:0:
0,227,189712,1,10,0:0:0:0:
277,220,189883,1,0,0:0:0:0:
130,30,190054,1,2,0:0:0:0:
162,206,190226,1,0,0:0:0:0:
319,110,190397,1,10,0:0:0:0:
137,241,190569,6,0,L|21:318,1,119.999996337891,2|2,0:0|0:0,0:0:0:0:
382,37,190912,2,0,L|498:114,1,119.999996337891,2|10,0:0|0:0,0:0:0:0:
354,239,191254,1,2,0:0:0:0:
212,80,191426,1,2,0:0:0:0:
86,173,191597,1,2,0:0:0:0:
265,214,191769,1,10,0:0:0:0:
270,215,191854,2,0,L|392:196,1,119.999996337891,2|0,0:0|0:0,0:0:0:0:
389,190,192112,53,2,0:0:0:0:
308,49,192283,1,0,0:0:0:0:
243,268,192454,1,10,0:0:0:0:
381,92,192626,1,0,0:0:0:0:
471,291,192797,1,2,0:0:0:0:
298,141,192969,2,0,L|184:50,1,119.999996337891,0|10,0:0|0:0,0:0:0:0:
121,209,193312,5,0,0:0:0:0:
121,209,193397,1,0,0:0:0:0:
121,209,193483,2,0,L|73:343,1,119.999996337891,2|0,0:0|0:0,0:0:0:0:
92,89,193826,1,10,0:0:0:0:
194,297,193997,1,0,0:0:0:0:
392,189,194169,1,2,0:0:0:0:
215,130,194340,1,0,0:0:0:0:
419,215,194512,1,10,0:0:0:0:
284,58,194683,1,0,0:0:0:0:
269,47,194769,1,0,0:0:0:0:
251,42,194854,38,0,P|173:34|104:76,1,150.000005722046,0|8,0:0|0:0,0:0:0:0:
70,204,195369,1,0,0:0:0:0:
177,298,195540,2,0,L|259:277,1,75.0000028610231
269,262,195797,1,0,0:0:0:0:
288,244,195883,2,0,L|370:223,1,75.0000028610231,8|0,0:0|0:0,0:0:0:0:
222,86,196397,69,0,0:0:0:0:
222,86,196740,1,0,0:0:0:0:
222,86,197083,1,0,0:0:0:0:
222,86,197426,1,0,0:0:0:0:
272,158,197597,5,0,0:0:0:0:
154,308,197769,1,0,0:0:0:0:
308,235,197940,1,0,0:0:0:0:
344,244,198026,1,0,0:0:0:0:
380,253,198112,1,0,0:0:0:0:
415,262,198197,1,0,0:0:0:0:
451,272,198283,1,0,0:0:0:0:
451,272,198626,6,0,L|436:162,1,89.9999972534181,0|0,0:0|0:0,0:0:0:0:
434,147,198969,37,2,0:0:0:0:
318,62,199140,1,0,0:0:0:0:
262,38,199226,1,0,0:0:0:0:
201,38,199312,1,10,1:0:0:0:
245,178,199483,1,0,0:0:0:0:
262,235,199569,1,0,0:0:0:0:
250,293,199654,2,0,L|220:376,1,59.9999981689454,2|0,0:0|2:0,0:0:0:0:
114,252,199826,1,2,0:0:0:0:
284,153,199997,6,0,L|363:184,1,59.9999981689454,10|0,1:0|0:0,0:0:0:0:
446,332,200169,2,0,L|390:310,1,59.9999981689454,2|0,0:0|0:0,0:0:0:0:
166,163,200340,1,2,0:0:0:0:
107,150,200426,1,0,0:0:0:0:
49,168,200512,1,2,0:0:0:0:
23,221,200597,1,0,0:0:0:0:
23,281,200683,2,0,P|64:332|121:344,1,119.999996337891,10|0,0:0|0:0,0:0:0:0:
219,240,201026,1,2,0:0:0:0:
382,171,201197,6,0,L|450:161,1,59.9999981689454,2|0,0:0|0:0,0:0:0:0:
343,74,201369,2,0,L|283:82,1,59.9999981689454,10|0,0:0|0:0,0:0:0:0:
187,227,201540,2,0,L|255:217,1,59.9999981689454,2|0,0:0|0:0,0:0:0:0:
166,58,201712,5,2,0:0:0:0:
97,78,201797,1,0,0:0:0:0:
51,134,201883,1,2,0:0:0:0:
33,204,201969,1,0,0:0:0:0:
59,270,202054,1,10,0:0:0:0:
102,319,202140,1,0,0:0:0:0:
163,342,202226,1,2,0:0:0:0:
229,337,202312,1,0,0:0:0:0:
285,318,202397,54,0,L|308:239,1,59.9999981689454,2|0,0:0|0:0,0:0:0:0:
475,153,202569,2,0,L|459:219,1,59.9999981689454,2|0,0:0|0:0,0:0:0:0:
461,316,202740,2,0,L|403:298,1,59.9999981689454,10|0,0:0|0:0,0:0:0:0:
365,179,202912,2,0,L|284:152,1,59.9999981689454,2|0,0:0|0:0,0:0:0:0:
225,102,203083,2,0,P|189:89|100:94,1,119.999996337891,2|0,0:0|0:0,0:0:0:0:
53,214,203426,1,10,0:0:0:0:
67,272,203512,1,0,0:0:0:0:
105,317,203597,1,0,0:0:0:0:
161,338,203683,1,0,0:0:0:0:
221,340,203769,1,2,0:0:0:0:
389,233,203940,6,0,L|363:159,1,59.9999981689454,2|2,0:0|0:0,0:0:0:0:
276,26,204112,2,0,L|224:85,1,59.9999981689454,10|0,0:0|0:0,0:0:0:0:
140,233,204283,2,0,L|217:247,1,59.9999981689454,2|0,0:0|0:0,0:0:0:0:
171,102,204454,6,0,P|125:82|32:119,1,150,2|0,0:0|0:0,0:0:0:0:
9,192,204797,1,10,0:0:0:0:
146,253,204969,2,0,L|110:357,1,100,2|0,0:0|0:0,0:0:0:0:
282,260,205312,2,0,L|314:165,1,100,2|8,0:0|0:0,0:0:0:0:
495,306,205654,2,0,P|436:326|364:316,1,100,2|0,0:0|0:0,0:0:0:0:
253,236,205997,5,0,0:0:0:0:
428,164,206169,1,10,0:0:0:0:
296,37,206340,1,0,0:0:0:0:
446,179,206512,1,2,0:0:0:0:
295,296,206683,2,0,L|272:356,1,50,2|0,0:0|0:0,0:0:0:0:
251,227,206854,1,10,0:0:0:0:
85,220,207026,1,0,0:0:0:0:
263,193,207197,54,0,L|370:183,1,100,2|0,0:0|0:0,0:0:0:0:
251,82,207540,1,10,0:0:0:0:
152,88,207712,2,0,L|52:97,1,100,2|0,0:0|0:0,0:0:0:0:
235,300,208054,2,0,L|334:290,1,100,2|8,0:0|0:0,0:0:0:0:
471,175,208397,5,2,0:0:0:0:
475,168,208740,1,2,0:0:0:0:
480,162,209083,1,2,0:0:0:0:
350,54,209254,2,0,L|384:212,1,150,2|0,0:0|0:0,0:0:0:0:
388,231,209597,69,4,1:2:0:0:
