osu file format v13

[General]
AudioFilename: Okochama Sensou.mp3
AudioLeadIn: 0
PreviewTime: 50854
Countdown: 1
SampleSet: Normal
StackLeniency: 0.7
Mode: 0
LetterboxInBreaks: 1
WidescreenStoryboard: 0

[Editor]
DistanceSpacing: 0.8
BeatDivisor: 4
GridSize: 8
TimelineZoom: 1

[Metadata]
Title:Okochama Sensou
TitleUnicode:おこちゃま戦争
Artist:Giga-P
ArtistUnicode:ギガP
Creator:NatsumeRin
Version:stress
Source:
Tags:vocaloid Kagamine Rin Len children war
BeatmapID:395530
BeatmapSetID:162079

[Difficulty]
HPDrainRate:7
CircleSize:4
OverallDifficulty:8
ApproachRate:9
SliderMultiplier:2
SliderTickRate:1

[Events]
//Background and Video events
0,0,"40036121_m.jpg",0,0
//Break Periods
//Storyboard Layer 0 (Background)
//Storyboard Layer 1 (Fail)
//Storyboard Layer 2 (Pass)
//Storyboard Layer 3 (Foreground)
//Storyboard Sound Samples
//Background Colour Transformations
3,100,163,162,255

[TimingPoints]
112,342.857142857143,4,1,2,15,1,0
2512,-100,4,2,2,20,0,0
2854,-100,4,1,2,15,0,0
4226,-100,4,1,2,20,0,0
4483,-100,4,1,2,10,0,0
4569,-100,4,1,2,20,0,0
4826,-100,4,1,2,10,0,0
4912,-100,4,1,2,20,0,0
5169,-100,4,1,2,10,0,0
5254,-100,4,1,2,20,0,0
5512,-100,4,1,2,10,0,0
5597,-100,4,1,0,15,0,0
5769,-100,4,2,1,50,0,0
6969,-100,4,1,1,50,0,0
8940,-100,4,1,1,20,0,0
9026,-100,4,1,1,50,0,0
11254,-83.3333333333333,4,1,1,50,0,0
12283,-83.3333333333333,4,1,1,20,0,0
12454,-133.333333333333,4,2,1,50,0,0
15426,-133.333333333333,4,2,1,20,0,0
15540,-133.333333333333,4,2,1,40,0,0
15769,-133.333333333333,4,2,1,20,0,0
15883,-133.333333333333,4,2,1,40,0,0
16112,-133.333333333333,4,2,1,20,0,0
16226,-133.333333333333,4,2,1,40,0,0
16454,-133.333333333333,4,2,1,20,0,0
16569,-133.333333333333,4,2,1,40,0,0
17940,-100,4,2,1,60,0,0
18283,-100,4,2,1,10,0,0
18626,-100,4,2,1,60,0,0
18969,-100,4,2,1,10,0,0
19312,-100,4,2,1,60,0,0
19654,-100,4,2,1,10,0,0
19997,-100,4,2,1,60,0,0
20340,-100,4,1,1,40,0,0
20683,-100,4,1,1,45,0,0
21369,-100,4,1,1,50,0,0
22740,-100,4,2,1,50,0,0
23426,-100,4,1,2,60,0,0
34397,-100,4,2,1,70,0,0
35769,-100,4,2,1,30,0,0
35940,-100,4,2,1,70,0,0
37140,-100,4,2,1,30,0,0
37312,-100,4,2,1,70,0,0
38512,-100,4,2,1,30,0,0
38683,-100,4,2,1,70,0,0
40054,-100,4,2,1,50,0,0
40226,-100,4,2,1,70,0,0
40397,-100,4,2,1,50,0,0
40569,-100,4,2,1,70,0,0
40740,-100,4,2,1,50,0,0
40912,-100,4,2,1,70,0,0
41083,-100,4,2,1,50,0,0
41254,-100,4,2,1,70,0,0
45369,-133.333333333333,4,2,1,40,0,0
49654,-133.333333333333,4,2,1,80,0,0
50854,-83.3333333333333,4,1,1,80,0,1
53597,-133.333333333333,4,1,1,80,0,1
53769,-133.333333333333,4,2,1,100,0,1
54112,-133.333333333333,4,1,1,80,0,1
54797,-133.333333333333,4,2,1,60,0,1
54969,-133.333333333333,4,1,1,80,0,1
55140,-133.333333333333,4,1,1,50,0,1
55483,-100,4,1,1,80,0,1
56169,-100,4,2,1,60,0,1
56340,-83.3333333333333,4,1,1,80,0,1
59083,-133.333333333333,4,1,1,80,0,1
59254,-133.333333333333,4,2,1,100,0,1
59597,-133.333333333333,4,1,1,80,0,1
60283,-133.333333333333,4,1,1,50,0,1
60454,-133.333333333333,4,1,1,80,0,1
60626,-133.333333333333,4,1,1,80,0,1
60969,-100,4,1,1,80,0,1
61826,-83.3333333333333,4,1,1,80,0,1
63112,-83.3333333333333,4,1,1,60,0,1
63369,-83.3333333333333,4,1,1,80,0,1
70054,-100,4,1,1,80,0,1
70226,-100,4,2,1,80,0,1
70740,-100,4,1,1,80,0,1
70912,-100,4,2,1,80,0,1
71426,-100,4,1,1,80,0,1
71597,-100,4,2,1,80,0,1
71769,-100,4,1,1,80,0,1
71940,-100,4,2,1,80,0,1
72112,-100,4,1,1,80,0,1
72454,-66.6666666666667,4,1,1,60,0,1
72797,-100,4,1,1,60,0,0

[HitObjects]
96,304,1483,5,0,0:0:0:0:
160,128,1826,1,0,0:0:0:0:
128,216,1997,1,0,0:0:0:0:
360,96,2512,5,0,0:0:0:0:
184,288,2854,5,0,0:0:0:0:
232,200,3026,1,0,0:0:0:0:
160,128,3197,1,0,0:0:0:0:
72,168,3369,1,0,0:0:0:0:
360,96,3712,5,2,0:0:0:0:
360,96,3797,1,2,0:0:0:0:
360,96,3883,1,2,0:0:0:0:
424,176,4054,1,0,0:0:0:0:
280,280,4226,6,0,B|312:280|336:256|336:256|344:304|304:360,1,150
280,200,4569,6,0,B|320:176|304:152|304:152|272:112|288:64,1,150
208,320,4912,6,0,B|192:288|200:264|200:264|160:304|104:272,1,150
200,176,5254,6,0,B|152:176|104:184|104:184|120:208|160:208,1,150
152,208,5597,5,4,0:0:0:0:
96,80,5769,1,2,0:0:0:0:
88,88,5854,1,2,0:0:0:0:
80,96,5940,1,2,0:0:0:0:
208,40,6112,1,0,0:0:0:0:
320,72,6283,1,2,0:0:0:0:
184,152,6454,1,0,0:0:0:0:
376,168,6626,1,2,0:0:0:0:
104,248,6797,1,0,0:0:0:0:
392,368,6969,6,0,B|336:376|336:376|288:352,1,100
184,360,7312,1,8,0:0:0:0:
88,304,7483,2,0,B|40:320|40:320|72:272|48:224,1,150
104,176,7826,2,0,P|56:152|8:168,1,100,0|8,0:0|0:0,0:0:0:0:
112,64,8169,1,0,0:0:0:0:
216,104,8340,6,0,P|224:56|272:32,1,100
376,128,8683,2,0,B|280:152|280:152|296:120|288:80,1,150,8|0,0:0|0:0,0:0:0:0:
440,64,9026,1,0,0:0:0:0:
384,216,9197,1,0,0:0:0:0:
288,104,9369,1,8,0:0:0:0:
232,248,9540,1,0,0:0:0:0:
240,264,9626,1,0,0:0:0:0:
248,280,9712,6,0,B|272:328|272:328|320:344,1,100
144,328,10054,1,8,0:0:0:0:
208,168,10226,2,0,B|168:176|152:216|152:216|48:192,1,150,0|8,0:0|0:0,0:0:0:0:
112,128,10569,2,0,B|70:115|70:115|128:56,1,100,0|8,0:0|0:0,0:0:0:0:
288,104,10912,2,0,P|336:96|352:48,1,100
472,152,11254,5,0,0:0:0:0:
416,264,11426,2,0,B|408:304|424:352|424:352|416:384,1,119.999996337891,8|0,0:0|0:0,0:0:0:0:
312,200,11769,1,0,0:0:0:0:
432,296,11940,1,0,0:0:0:0:
288,352,12112,2,0,B|240:368|192:352|192:352|152:368,1,119.999996337891
56,256,12454,6,0,P|40:288|48:328,2,50.0000019073487
104,200,12797,2,0,P|128:136|112:56,1,150.000005722046,2|2,0:0|0:0,0:0:0:0:
104,200,13483,1,2,0:0:0:0:
112,57,13712,1,0,0:0:0:0:
184,88,13826,6,0,P|208:88|256:64,2,50.0000019073487
304,112,14169,2,0,P|368:104|464:152,1,150.000005722046,2|2,0:0|0:0,0:0:0:0:
304,112,14854,1,2,0:0:0:0:
445,135,15083,1,0,0:0:0:0:
472,208,15197,6,0,P|480:256|448:312,1,100.000003814697
360,352,15540,2,0,P|352:304|384:248,1,100.000003814697,2|0,0:0|0:0,0:0:0:0:
304,112,15883,2,0,P|312:160|280:216,1,100.000003814697,2|0,0:0|0:0,0:0:0:0:
192,256,16226,2,0,P|184:208|216:152,1,100.000003814697,2|0,0:0|0:0,0:0:0:0:
256,48,16569,6,0,P|288:32|320:40,2,50.0000019073487
192,88,16912,2,0,L|80:104,1,100.000003814697,2|0,0:0|0:0,0:0:0:0:
40,152,17254,1,2,0:0:0:0:
144,320,17597,1,2,0:0:0:0:
336,312,17940,6,0,B|376:328|408:304|416:264|464:248|512:280|520:320|504:344,1,200,2|0,0:0|0:0,0:0:0:0:
376,112,18626,6,0,B|408:96|416:64|416:64|424:144|392:168|336:176,1,200,2|0,0:0|0:0,0:0:0:0:
224,136,19312,6,0,B|176:144|144:120|128:64|128:64|88:80|88:120,1,200,2|0,0:0|0:0,0:0:0:0:
200,304,19997,6,0,P|304:296|328:208,1,200,2|0,0:0|0:0,0:0:0:0:
316,164,20454,1,0,0:0:0:0:
272,132,20569,1,0,0:0:0:0:
216,128,20683,6,0,P|216:208|328:264,1,200
356,239,21140,1,0,0:0:0:0:
375,189,21254,1,0,0:0:0:0:
368,136,21369,6,0,P|315:72|203:62,1,200
154,83,21826,1,0,0:0:0:0:
121,124,21940,1,0,0:0:0:0:
116,177,22054,5,0,0:0:0:0:
456,128,22397,1,0,0:0:0:0:
116,177,22740,1,2,0:0:0:0:
240,200,22912,1,0,0:0:0:0:
328,112,23083,1,2,0:0:0:0:
456,128,23254,1,0,0:0:0:0:
328,112,23426,5,0,0:0:0:0:
400,296,23769,1,10,0:0:0:0:
320,360,23940,1,8,0:0:0:0:
400,296,24283,5,10,0:0:0:0:
360,328,24369,1,8,0:0:0:0:
320,360,24454,1,8,0:0:0:0:
192,328,24626,1,0,0:0:0:0:
64,352,24797,6,0,P|64:296|88:256,1,100,0|8,0:0|0:0,0:0:0:0:
72,136,25140,1,8,0:0:0:0:
200,160,25312,6,0,B|224:128|208:80|208:80|232:144|296:144,1,200,2|2,0:0|0:0,0:0:0:0:
408,136,25826,2,0,P|448:112|464:56,1,100,10|0,0:0|0:0,0:0:0:0:
384,232,26169,5,0,0:0:0:0:
416,320,26340,1,0,0:0:0:0:
336,376,26512,1,10,0:0:0:0:
280,208,26683,1,8,0:0:0:0:
288,216,26769,1,0,0:0:0:0:
296,224,26854,5,0,0:0:0:0:
208,272,27026,1,2,0:0:0:0:
136,200,27197,1,0,0:0:0:0:
184,112,27369,2,0,P|200:56|184:16,1,100
104,64,27712,5,10,0:0:0:0:
280,112,27883,1,0,0:0:0:0:
104,64,28226,5,0,0:0:0:0:
96,80,28312,1,8,0:0:0:0:
88,96,28397,1,8,0:0:0:0:
152,192,28569,1,10,0:0:0:0:
280,112,28740,1,8,0:0:0:0:
272,128,28826,1,8,0:0:0:0:
264,144,28912,5,0,0:0:0:0:
424,168,29083,2,0,P|448:128|440:72,1,100,0|10,0:0|0:0,0:0:0:0:
328,240,29426,2,0,B|304:272|296:320|320:368|320:368|288:344|232:360,1,200,0|10,0:0|0:0,0:0:0:0:
240,360,29854,1,8,0:0:0:0:
224,368,29940,1,8,0:0:0:0:
88,320,30112,1,0,0:0:0:0:
120,200,30283,5,0,0:0:0:0:
208,288,30454,1,10,0:0:0:0:
0,240,30626,2,0,B|48:192|32:144|32:144|24:176|-8:192,1,150,8|0,0:0|0:0,0:0:0:0:
80,128,30969,6,0,P|96:88|152:64,1,100,0|8,0:0|0:0,0:0:0:0:
256,88,31312,1,10,0:0:0:0:
344,176,31483,1,0,0:0:0:0:
336,192,31569,1,0,0:0:0:0:
328,208,31654,6,0,P|336:256|384:248,1,100
472,80,31997,2,0,P|426:62|409:108,1,100,10|8,0:0|0:0,0:0:0:0:
488,232,32340,1,0,0:0:0:0:
304,328,32512,2,0,P|280:368|224:328,1,100,10|8,0:0|0:0,0:0:0:0:
112,312,32854,1,0,0:0:0:0:
96,320,32940,1,0,0:0:0:0:
80,328,33026,5,0,0:0:0:0:
184,240,33197,1,10,0:0:0:0:
96,136,33369,2,0,P|40:200|48:272,1,150
80,328,33712,5,0,0:0:0:0:
40,232,33883,1,10,0:0:0:0:
96,136,34054,1,8,0:0:0:0:
56,40,34226,2,0,P|112:32|152:48,1,100
320,144,34569,5,2,0:0:0:0:
280,48,34741,1,10,0:0:0:0:
384,64,34912,1,8,0:0:0:0:
304,160,35084,1,2,0:0:0:0:
304,32,35255,1,2,0:0:0:0:
416,112,35426,1,10,0:0:0:0:
272,168,35598,2,0,B|261:143|232:144|232:144|256:112|240:80,1,100,0|0,0:0|0:0,0:0:0:0:
328,288,35941,5,2,0:0:0:0:
432,240,36112,1,10,0:0:0:0:
416,352,36284,1,8,0:0:0:0:
312,288,36455,1,2,0:0:0:0:
424,264,36626,1,2,0:0:0:0:
384,376,36798,1,10,0:0:0:0:
296,280,36969,2,0,B|272:272|272:240|272:240|256:264|224:264,1,100,0|0,0:0|0:0,0:0:0:0:
104,168,37312,5,2,0:0:0:0:
48,256,37484,1,10,0:0:0:0:
24,112,37655,1,8,0:0:0:0:
144,168,37826,1,2,0:0:0:0:
24,224,37998,1,2,0:0:0:0:
64,80,38169,1,8,0:0:0:0:
200,56,38340,2,0,B|224:56|224:24|224:24|256:56|232:112,1,100,2|0,0:0|0:0,0:0:0:0:
256,192,38683,6,0,P|240:256|272:304,1,100,2|8,0:0|0:0,0:0:0:0:
400,336,39026,1,2,0:0:0:0:
400,336,39112,1,0,0:0:0:0:
400,336,39197,2,0,P|416:272|384:224,1,100,2|0,0:0|0:0,0:0:0:0:
448,104,39540,1,10,0:0:0:0:
160,160,39883,6,0,P|112:176|96:128,1,100,2|0,0:0|0:0,0:0:0:0:
280,280,40226,2,0,P|328:264|344:312,1,100,10|0,0:0|0:0,0:0:0:0:
112,216,40569,2,0,P|112:264|56:264,1,100,2|8,0:0|0:0,0:0:0:0:
328,224,40912,2,0,P|328:176|384:176,1,100,10|0,0:0|0:0,0:0:0:0:
384,176,41169,1,0,0:0:0:0:
392,184,41254,5,0,0:0:0:0:
424,304,41426,2,0,L|408:352,2,50,0|0|8,0:0|0:0|0:0,0:0:0:0:
312,360,41769,1,0,0:0:0:0:
224,288,41940,1,0,0:0:0:0:
392,184,42112,2,0,P|408:136|392:80,1,100,8|8,0:0|0:0,0:0:0:0:
304,32,42454,1,0,0:0:0:0:
240,128,42626,5,0,0:0:0:0:
112,112,42797,1,2,0:0:0:0:
256,160,42969,1,10,0:0:0:0:
384,128,43140,1,8,0:0:0:0:
184,248,43312,1,2,0:0:0:0:
96,136,43483,1,2,0:0:0:0:
272,192,43654,1,10,0:0:0:0:
72,256,43826,2,0,L|88:304,2,50
224,240,44169,5,2,0:0:0:0:
232,264,44254,1,2,0:0:0:0:
240,288,44340,1,8,0:0:0:0:
360,344,44512,1,10,0:0:0:0:
448,248,44683,1,0,0:0:0:0:
392,136,44855,1,2,0:0:0:0:
408,112,44940,1,2,0:0:0:0:
424,88,45026,1,10,0:0:0:0:
232,128,45369,6,0,B|202:148|202:148|168:120|128:128|128:128|112:88,1,150.000005722046
144,216,45883,1,0,0:0:0:0:
232,312,46054,2,0,B|202:292|202:292|168:320|128:312|128:312|112:352,1,150.000005722046
288,216,46569,1,0,0:0:0:0:
144,216,46740,6,0,P|96:224|64:208,1,75.0000028610231
288,216,47083,2,0,P|336:208|368:224,1,75.0000028610231
160,192,47426,5,0,0:0:0:0:
272,240,47597,1,0,0:0:0:0:
184,176,47769,1,0,0:0:0:0:
248,256,47940,1,0,0:0:0:0:
216,176,48112,5,0,0:0:0:0:
216,256,48454,1,0,0:0:0:0:
216,176,48797,5,0,0:0:0:0:
200,280,48969,1,0,0:0:0:0:
304,336,49140,1,0,0:0:0:0:
384,256,49312,1,0,0:0:0:0:
216,176,49483,1,0,0:0:0:0:
336,152,49654,5,2,0:0:0:0:
328,168,49740,1,2,0:0:0:0:
320,184,49826,1,2,0:0:0:0:
448,144,49997,1,0,0:0:0:0:
352,64,50169,1,2,0:0:0:0:
400,248,50340,1,0,0:0:0:0:
480,72,50512,1,2,0:0:0:0:
232,192,50683,1,0,0:0:0:0:
376,344,50854,6,0,B|352:336|352:296|352:296|384:272|424:288,1,119.999996337891
376,152,51197,2,0,B|349:169|317:145|317:145|317:105|344:88,1,119.999996337891,8|0,0:0|0:0,0:0:0:0:
408,88,51454,1,0,0:0:0:0:
448,152,51540,2,0,B|440:224|368:232,1,119.999996337891
232,216,51883,1,8,0:0:0:0:
160,88,52054,6,0,B|176:48|160:24|160:24|120:48|112:88|112:88|136:112|136:160|104:192,1,239.999992675781
32,352,52569,2,0,B|72:368|72:368|48:312|72:272,1,119.999996337891,8|0,0:0|0:0,0:0:0:0:
120,248,52826,1,0,0:0:0:0:
192,272,52912,2,0,P|248:280|312:248,1,119.999996337891
368,120,53254,1,8,0:0:0:0:
240,40,53426,1,0,0:0:0:0:
256,280,53597,5,4,0:0:0:0:
368,248,53769,2,2,L|376:272,4,18.7500007152558
432,152,54112,1,8,0:0:0:0:
304,120,54283,5,0,0:0:0:0:
392,232,54454,1,8,0:0:0:0:
440,88,54626,2,0,P|408:72|368:80,1,75.0000028610231
256,280,54969,5,4,0:0:0:0:
144,248,55140,2,0,L|136:272,4,18.7500007152558,8|8|0|0|0,0:0|0:0|0:0|0:0|0:0,0:0:0:0:
80,152,55483,1,0,0:0:0:0:
208,120,55654,5,8,0:0:0:0:
64,232,55826,1,8,0:0:0:0:
256,192,55997,2,0,P|304:176|352:192,1,100
432,320,56340,6,0,B|472:312|496:336|496:336|512:312|488:280,1,119.999996337891
488,72,56683,2,0,B|472:88|440:72|440:72|464:112|440:152,1,119.999996337891,8|0,0:0|0:0,0:0:0:0:
400,192,56940,1,0,0:0:0:0:
328,216,57026,2,0,B|320:184|336:152|336:152|312:176|280:160,1,119.999996337891,0|0,0:0|0:0,0:0:0:0:
184,64,57369,1,8,0:0:0:0:
96,168,57540,6,0,B|64:176|40:160|40:160|64:192|48:240|16:256|16:256|8:296|40:320,1,239.999992675781
56,328,57969,1,0,0:0:0:0:
72,336,58054,1,8,0:0:0:0:
208,264,58226,1,0,0:0:0:0:
216,280,58312,1,0,0:0:0:0:
224,296,58397,2,0,B|240:328|216:376|216:376|256:368|272:336,1,119.999996337891
336,272,58740,1,8,0:0:0:0:
152,328,58912,1,0,0:0:0:0:
360,376,59083,5,4,0:0:0:0:
368,248,59254,2,2,L|376:272,4,18.7500007152558
360,128,59597,1,8,0:0:0:0:
480,224,59769,5,0,0:0:0:0:
368,248,59940,1,8,0:0:0:0:
256,216,60112,1,0,0:0:0:0:
200,112,60283,1,8,0:0:0:0:
184,120,60369,1,8,0:0:0:0:
168,128,60454,5,4,0:0:0:0:
312,64,60626,2,0,L|335:54,4,18.7500007152558,8|8|0|0|0,0:0|0:0|0:0|0:0|0:0,0:0:0:0:
280,176,60969,1,0,0:0:0:0:
192,96,61140,5,8,0:0:0:0:
384,96,61312,1,8,0:0:0:0:
160,208,61483,1,0,0:0:0:0:
416,272,61654,1,8,0:0:0:0:
128,328,61826,6,0,B|184:344|216:312|216:312|208:336|240:344,1,119.999996337891,2|2,0:0|0:0,0:0:0:0:
360,216,62169,2,0,B|349:206|325:222|325:222|349:262|341:302,1,119.999996337891,10|0,0:0|0:0,0:0:0:0:
248,184,62512,1,2,0:0:0:0:
424,152,62683,2,0,B|446:168|448:192|448:192|488:176|496:128,1,119.999996337891,2|8,0:0|0:0,0:0:0:0:
352,40,63026,2,0,B|328:64|336:104,2,59.9999981689454,2|0|0,0:0|0:0|0:0,0:0:0:0:
208,64,63369,5,2,0:0:0:0:
200,104,63454,1,0,0:0:0:0:
176,136,63540,2,0,B|144:168|96:152|96:152|80:168|104:200,1,119.999996337891,10|0,0:0|0:0,0:0:0:0:
160,256,63883,1,0,0:0:0:0:
144,368,64054,2,0,B|173:338|221:354|221:354|240:336|232:320,1,119.999996337891,2|8,0:0|0:0,0:0:0:0:
384,280,64397,6,0,B|368:304|376:336|376:336|408:360|408:360|440:336|440:336|432:304|448:248|480:224,1,239.999992675781,2|2,0:0|0:0,0:0:0:0:
432,112,64912,2,0,B|416:88|424:64|424:64|400:32|400:32|368:48,1,119.999996337891,8|0,0:0|0:0,0:0:0:0:
312,96,65169,1,0,0:0:0:0:
368,160,65254,1,2,0:0:0:0:
496,80,65426,1,0,0:0:0:0:
344,16,65597,1,10,0:0:0:0:
112,136,65769,6,0,B|144:144|168:128|168:128|200:136|232:112,1,119.999996337891,2|0,0:0|0:0,0:0:0:0:
416,232,66112,2,0,B|384:224|360:240|360:240|328:232|296:256,1,119.999996337891,2|8,0:0|0:0,0:0:0:0:
160,360,66454,1,2,0:0:0:0:
352,328,66626,1,0,0:0:0:0:
104,288,66797,1,0,0:0:0:0:
304,256,66969,1,10,0:0:0:0:
224,264,67054,2,0,B|208:256|184:272|184:272|192:232|232:216|232:216|200:192|216:160,1,179.999994506836,2|2,0:0|0:0,0:0:0:0:
440,320,67483,5,0,0:0:0:0:
480,152,67654,1,10,0:0:0:0:
320,80,67826,1,0,0:0:0:0:
328,96,67912,1,0,0:0:0:0:
336,112,67997,2,0,P|288:112|224:64,1,119.999996337891,2|2,0:0|0:0,0:0:0:0:
88,56,68340,1,8,0:0:0:0:
32,176,68512,6,0,B|80:200|120:184|120:184|96:224|112:272|112:272|80:344,1,239.999992675781,2|0,0:0|0:0,0:0:0:0:
80,344,68940,1,0,0:0:0:0:
72,360,69026,1,10,0:0:0:0:
224,288,69197,1,0,0:0:0:0:
376,304,69369,2,0,B|360:352|360:352|384:376|424:352,1,119.999996337891,2|0,0:0|0:0,0:0:0:0:
480,152,69712,2,0,B|464:104|464:104|416:112|408:168,1,119.999996337891,10|0,0:0|0:0,0:0:0:0:
448,240,70054,6,0,L|328:208,1,100,4|0,0:0|0:0,0:0:0:0:
248,216,70397,1,2,0:0:0:0:
160,160,70569,1,0,0:0:0:0:
432,136,70740,6,0,L|312:104,1,100,8|2,0:0|0:0,0:0:0:0:
320,120,70997,1,0,0:0:0:0:
304,128,71083,1,0,0:0:0:0:
216,64,71254,1,2,0:0:0:0:
160,160,71426,5,0,0:0:0:0:
312,208,71597,1,0,0:0:0:0:
144,248,71769,1,0,0:0:0:0:
352,272,71940,1,0,0:0:0:0:
160,336,72112,1,0,0:0:0:0:
424,312,72454,6,0,B|392:320|368:352|368:352|344:328|304:336|304:336|288:280|240:264|240:264|240:240|256:224|256:224|272:240,1,300.000011444092,0|4,0:0|0:0,0:0:0:0:
