osu file format v13

[General]
AudioFilename: LUVORATORRRRRY.mp3
AudioLeadIn: 0
PreviewTime: 121839
Countdown: 0
SampleSet: Soft
StackLeniency: 0.7
Mode: 0
LetterboxInBreaks: 0
EpilepsyWarning: 1
WidescreenStoryboard: 0

[Editor]
DistanceSpacing: 1.2
BeatDivisor: 4
GridSize: 4
TimelineZoom: 1

[Metadata]
Title:LUVORATORRRRRY!
TitleUnicode:LUVORATORRRRRY!
Artist:Giga-P
ArtistUnicode:Giga-P
Creator:Selisi
Version:Normal
Source:
Tags:Megpoid Gumi Kagamine Rin Reol VOCALOID LABORATORY Dance Hollow Wings Sweet Vanilla
BeatmapID:386766
BeatmapSetID:153206

[Difficulty]
HPDrainRate:3
CircleSize:3
OverallDifficulty:3
ApproachRate:4
SliderMultiplier:1.5
SliderTickRate:1

[Events]
//Background and Video events
0,0,"background.jpg",0,0
//Break Periods
2,107039,113019
2,137039,150519
//Storyboard Layer 0 (Background)
//Storyboard Layer 1 (Fail)
//Storyboard Layer 2 (Pass)
//Storyboard Layer 3 (Foreground)
//Storyboard Sound Samples
//Background Colour Transformations
3,100,163,162,255

[TimingPoints]
1839,468.75,4,2,0,40,1,0
8870,-100,4,2,2,40,0,0
9339,-100,4,2,2,100,0,0
16253,-100,4,2,2,80,0,0
16839,-100,4,2,1,80,0,0
46370,-100,4,2,1,80,0,0
61839,-100,4,2,4,80,0,0
75198,-100,4,2,4,80,0,0
75667,-100,4,2,4,80,0,0
76839,-100,4,2,1,70,0,0
106605,-100,4,2,2,70,0,0
121839,-100,4,2,2,100,0,1
136839,-100,4,2,2,40,0,0
153714,-100,4,2,4,40,0,0
169651,-100,4,2,2,100,0,0
169885,-100,4,2,2,100,0,1
183596,-100,4,2,2,100,0,0
183714,-100,4,2,2,100,0,1
191214,-100,4,2,2,90,0,0
198245,-100,4,2,2,40,0,0

[Colours]
Combo1 : 128,128,192
Combo2 : 203,236,19
Combo3 : 0,166,83
Combo4 : 248,198,67
SliderBorder : 50,50,50

[HitObjects]
116,296,1839,6,0,P|68:240|72:164,1,150,2|0,0:0|0:0,0:0:0:0:
112,40,2659,1,2,0:0:0:0:
348,240,3479,1,2,0:0:0:0:
376,152,3714,2,0,P|377:100|347:55,1,75,2|0,0:0|0:0,0:0:0:0:
296,24,4182,1,0,0:0:0:0:
212,56,4417,2,0,P|160:72|84:36,2,112.5,2|0|2,0:0|0:0|0:0,0:0:0:0:
132,216,5589,6,0,P|244:228|280:260,1,150,2|0,0:0|0:0,0:0:0:0:
356,352,6409,1,2,0:0:0:0:
476,60,7229,1,2,0:0:0:0:
392,24,7464,2,0,P|344:32|312:64,1,75,2|0,0:0|0:0,0:0:0:0:
260,108,7932,1,0,0:0:0:0:
180,68,8167,2,0,P|123:50|73:62,2,112.5,2|0|10,0:0|0:0|0:0,0:0:0:0:
312,192,9339,6,0,P|314:237|280:285,1,75,10|0,0:0|0:0,0:0:0:0:
212,248,9807,2,0,P|198:213|202:176,1,75,14|0,0:0|0:0,0:0:0:0:
260,108,10276,2,0,P|351:91|404:132,1,150,2|14,0:0|0:0,2:0:0:0:
412,300,11214,6,0,P|352:332|260:296,1,150,10|14,0:0|0:0,0:0:0:0:
224,240,11917,1,0,0:0:0:0:
136,216,12151,2,0,P|96:204|56:216,2,75,2|0|14,0:0|0:0|0:0,0:0:0:0:
36,364,13089,6,0,P|68:324|64:272,1,75,10|0,0:0|0:0,0:0:0:0:
64,212,13557,2,0,P|60:160|88:124,1,75,14|0,0:0|0:0,0:0:0:0:
132,76,14026,2,0,P|196:52|280:92,1,150,2|14,0:0|0:0,0:0:0:0:
400,204,14964,6,0,P|440:156|428:68,1,150,10|10,0:0|0:0,0:0:0:0:
348,32,15667,2,0,P|296:48|256:136,1,150,0|2,0:0|0:0,0:0:0:0:
276,216,16370,1,14,0:0:0:0:
420,320,16839,6,0,P|384:304|324:312,1,75,6|0,0:0|0:0,0:0:0:0:
260,320,17307,2,0,P|220:348|168:336,1,75,10|0,0:0|0:0,0:0:0:0:
108,328,17776,2,0,P|48:264|64:176,1,150,2|10,0:0|0:0,0:0:0:0:
184,88,18714,6,0,P|230:87|274:111,1,75,6|0,0:0|0:0,0:0:0:0:
328,152,19182,1,10,0:0:0:0:
484,60,19651,2,0,P|428:92|344:64,1,150,2|10,0:0|0:0,0:0:0:0:
260,52,20354,1,0,0:0:0:0:
184,88,20589,6,0,L|116:128,1,75,6|0,0:0|0:0,0:0:0:0:
44,176,21057,2,0,L|112:216,1,75,10|0,0:0|0:0,0:0:0:0:
184,264,21526,2,0,L|116:304,2,75,2|0|10,0:0|0:0|0:0,0:0:0:0:
332,160,22464,6,0,P|360:120|360:76,1,75,6|0,0:0|0:0,0:0:0:0:
452,94,22932,2,0,P|459:130|483:159,1,75,10|0,0:0|0:0,0:0:0:0:
444,240,23401,2,0,P|407:231|371:242,1,75,2|0,0:0|0:0,0:0:0:0:
304,300,23870,1,10,0:0:0:0:
124,324,24339,6,0,P|55:238|71:192,1,150,6|10,0:0|0:0,0:0:0:0:
168,64,25276,2,0,P|212:40|320:84,1,150,2|10,0:0|0:0,0:0:0:0:
372,124,25979,1,0,0:0:0:0:
384,212,26214,2,0,P|402:294|462:323,1,150,6|10,0:0|0:0,0:0:0:0:
280,340,27151,2,0,P|200:352|144:316,1,150,2|10,0:0|0:0,0:0:0:0:
108,236,27854,1,0,0:0:0:0:
24,200,28089,6,0,P|56:160|112:156,1,75,6|0,0:0|0:0,0:0:0:0:
168,164,28557,2,0,P|220:160|248:120,1,75,10|0,0:0|0:0,0:0:0:0:
292,76,29026,1,2,0:0:0:0:
472,72,29495,2,0,P|481:107|474:144,1,75,8|0,0:0|0:0,0:0:0:0:
452,232,29963,1,2,0:0:0:0:
304,324,30432,1,10,0:0:0:0:
228,276,30667,2,0,P|208:228|216:184,2,75,0|2|0,0:0|0:0|0:0,0:0:0:0:
132,272,31370,2,0,P|108:312|68:328,1,75,10|0,0:0|0:0,0:0:0:0:
48,240,31839,5,6,0:0:0:0:
96,68,32307,2,0,P|136:60|176:78,1,75,10|0,0:0|0:0,0:0:0:0:
248,112,32776,2,0,P|328:128|380:96,2,112.5,2|0|0,0:0|0:0|0:0,0:0:0:0:
304,40,33714,5,6,0:0:0:0:
464,116,34182,2,0,P|458:145|428:180,1,75,10|0,0:0|0:0,0:0:0:0:
372,248,34651,2,0,P|371:303|402:349,2,112.5,2|0|0,0:0|0:0|0:0,0:0:0:0:
288,284,35589,5,6,0:0:0:0:
112,256,36057,2,0,P|90:207|93:175,1,75,10|0,0:0|0:0,2:0:0:0:
84,96,36526,2,0,P|44:44|-8:28,2,112.5,2|0|0,0:0|0:0|0:0,0:0:0:0:
168,132,37464,6,0,P|216:128|244:100,1,75,6|0,0:0|0:0,0:0:0:0:
320,84,37932,2,0,P|325:120|311:155,1,75,10|0,0:0|0:0,0:0:0:0:
308,240,38401,2,0,P|344:237|375:216,1,75,2|0,0:0|0:0,0:0:0:0:
444,160,38870,2,0,P|464:220|448:260,1,75,10|0,0:0|0:0,0:0:0:0:
428,312,39339,5,6,0:0:0:0:
248,312,39807,2,0,P|196:296|156:312,1,75,10|0,0:0|0:0,0:0:0:0:
92,276,40276,2,0,P|56:316|-8:328,2,112.5,2|0|0,0:0|0:0|0:0,0:0:0:0:
124,192,41214,5,6,0:0:0:0:
272,88,41682,2,0,P|220:76|188:88,1,75,10|0,0:0|0:0,0:0:0:0:
112,104,42151,2,0,P|56:120|0:96,2,112.5,2|0|0,0:0|0:0|0:0,0:0:0:0:
180,164,43089,2,0,P|188:240|268:280,1,150,6|10,0:0|0:0,0:0:0:0:
420,312,44026,1,2,0:0:0:0:
480,144,44495,1,10,0:0:0:0:
324,52,44964,6,0,P|252:24|176:56,1,150,6|10,0:0|0:0,0:0:0:0:
256,212,45901,1,2,0:0:0:0:
256,212,46370,1,10,0:0:0:0:
256,192,46839,12,0,52464,0:0:0:0:
176,128,54339,5,8,0:0:0:0:
348,72,54807,2,0,P|405:79|436:126,1,112.5,8|8,0:0|0:0,0:0:0:0:
436,256,55510,2,0,P|412:291|367:308,1,75,8|8,0:0|0:0,0:0:0:0:
295,317,55979,1,8,0:0:0:0:
204,305,56214,5,8,0:0:0:0:
88,168,56682,2,0,P|98:88|136:53,2,112.5,8|8|8,0:0|0:0|0:0,0:0:0:0:
148,232,57620,2,0,P|208:216|252:232,1,75,8|8,0:0|0:0,0:0:0:0:
308,232,58089,5,8,0:0:0:0:
408,84,58557,2,0,P|384:136|400:192,1,112.5,8|8,0:0|0:0,0:0:0:0:
376,320,59260,1,8,0:0:0:0:
288,336,59495,1,8,0:0:0:0:
216,284,59729,1,8,0:0:0:0:
208,196,59964,6,0,P|216:132|196:100,1,75,0|0,0:0|0:0,0:0:0:0:
164,48,60432,1,8,0:0:0:0:
76,36,60667,1,8,0:0:0:0:
20,104,60901,2,0,L|8:156,4,37.5
84,272,61839,6,0,L|163:272,1,75,2|0,0:0|0:0,0:0:0:0:
248,272,62307,1,2,0:0:0:0:
400,180,62776,6,0,L|325:180,1,75,2|0,0:0|0:0,0:0:0:0:
235,180,63244,1,2,0:0:0:0:
80,88,63714,6,0,L|155:88,1,75,2|0,0:0|0:0,0:0:0:0:
244,88,64182,1,2,0:0:0:0:
424,88,64651,6,0,L|424:163,1,75,2|0,0:0|0:0,0:0:0:0:
424,252,65119,1,2,0:0:0:0:
254,313,65589,5,2,0:0:0:0:
92,236,66057,1,2,0:0:0:0:
132,60,66526,1,2,0:0:0:0:
273,147,66995,2,0,L|348:146,1,75,0|0,0:0|0:0,0:0:0:0:
437,146,67463,5,2,0:0:0:0:
432,328,67932,1,2,0:0:0:0:
272,236,68401,2,0,L|272:344,2,75,2|0|2,0:0|0:0|0:0,0:0:0:0:
273,147,69104,1,0,0:0:0:0:
208,84,69339,5,8,0:0:0:0:
37,143,69807,1,8,0:0:0:0:
37,323,70276,1,8,0:0:0:0:
126,323,70510,1,8,0:0:0:0:
216,323,70745,1,8,0:0:0:0:
396,323,71214,5,8,0:0:0:0:
396,143,71682,1,8,0:0:0:0:
215,143,72151,1,8,0:0:0:0:
278,206,72385,1,8,0:0:0:0:
341,269,72620,1,8,0:0:0:0:
468,141,73089,5,8,0:0:0:0:
340,13,73557,1,8,0:0:0:0:
159,13,74026,1,8,0:0:0:0:
95,76,74260,1,8,0:0:0:0:
31,139,74495,1,8,0:0:0:0:
158,266,74964,5,8,0:0:0:0:
285,138,75432,1,8,0:0:0:0:
412,265,75901,1,8,0:0:0:0:
285,138,76370,5,8,0:0:0:0:
328,60,76604,1,8,0:0:0:0:
416,68,76839,2,0,P|428:104|416:140,1,75,6|0,0:0|0:0,0:0:0:0:
352,200,77307,2,0,P|320:244|328:284,1,75,10|0,0:0|0:0,0:0:0:0:
360,344,77776,1,2,0:0:0:0:
180,348,78245,6,0,L|92:300,1,75,10|0,0:0|0:0,0:0:0:0:
36,268,78714,2,0,L|124:220,1,75,6|0,0:0|0:0,0:0:0:0:
180,188,79182,2,0,L|92:140,1,75,10|0,0:0|0:0,0:0:0:0:
36,108,79651,2,0,L|124:60,1,75,2|0,0:0|0:0,0:0:0:0:
184,32,80120,1,10,0:0:0:0:
364,48,80589,6,0,P|420:68|448:112,2,112.5,6|0|0,0:0|0:0|0:0,0:0:0:0:
272,64,81526,2,0,P|232:120|164:120,2,112.5,2|0|0,0:0|0:0|0:0,0:0:0:0:
184,32,82464,1,6,0:0:0:0:
52,156,82932,1,10,0:0:0:0:
156,304,83401,2,0,P|200:336|288:316,1,150,2|10,0:0|0:0,0:0:0:0:
364,152,84339,6,0,L|408:80,1,75,6|0,0:0|0:0,0:0:0:0:
460,156,84807,2,0,L|416:228,1,75,10|0,0:0|0:0,0:0:0:0:
368,292,85276,1,2,0:0:0:0:
268,144,85745,2,0,P|236:116|204:108,1,75,10|0,0:0|0:0,0:0:0:0:
164,28,86214,2,0,P|128:60|116:92,1,75,6|0,0:0|0:0,0:0:0:0:
28,100,86682,2,0,P|48:144|72:160,1,75,10|0,0:0|0:0,0:0:0:0:
148,204,87151,2,0,P|180:264|128:336,1,150,2|10,0:0|0:0,0:0:0:0:
292,228,88089,6,0,P|340:200|376:204,1,75,6|0,0:0|0:0,0:0:0:0:
440,164,88557,2,0,P|476:104|476:84,1,75,10|0,0:0|0:0,0:0:0:0:
404,48,89026,2,0,P|352:24|328:32,1,75,2|0,0:0|0:0,0:0:0:0:
252,52,89495,2,0,P|216:68|168:60,1,75,10|0,0:0|0:0,0:0:0:0:
92,44,89964,5,6,0:0:0:0:
208,184,90432,2,0,P|264:204|308:200,1,75,10|0,0:0|0:0,0:0:0:0:
368,212,90901,1,2,0:0:0:0:
220,312,91370,2,0,P|156:328|136:324,1,75,10|0,0:0|0:0,0:0:0:0:
60,332,91839,5,6,0:0:0:0:
68,152,92307,2,0,P|104:104|132:92,1,75,10|0,0:0|0:0,0:0:0:0:
200,64,92776,2,0,P|252:76|288:104,1,75,2|0,0:0|0:0,0:0:0:0:
344,140,93245,1,10,0:0:0:0:
372,316,93714,6,0,P|424:248|424:180,1,150,6|10,0:0|0:0,0:0:0:0:
424,96,94417,1,0,0:0:0:0:
344,140,94651,2,0,P|296:164|260:160,1,75,2|0,0:0|0:0,0:0:0:0:
184,160,95120,1,10,0:0:0:0:
56,32,95589,6,0,L|104:100,1,75,6|0,0:0|0:0,0:0:0:0:
44,164,96057,2,0,L|112:211,1,75,10|0,0:0|0:0,0:0:0:0:
76,292,96526,2,0,L|156:313,1,75,2|0,0:0|0:0,0:0:0:0:
236,324,96995,1,10,0:0:0:0:
416,332,97464,6,0,L|368:264,1,75,6|0,0:0|0:0,0:0:0:0:
428,200,97932,2,0,L|359:152,1,75,10|0,0:0|0:0,0:0:0:0:
396,72,98401,2,0,L|315:50,1,75,2|0,0:0|0:0,0:0:0:0:
236,40,98870,1,10,0:0:0:0:
68,104,99339,6,0,P|32:168|36:188,1,75,6|0,0:0|0:0,0:0:0:0:
56,252,99807,1,10,0:0:0:0:
224,316,100276,2,0,P|272:304|328:324,1,75,2|0,0:0|0:0,0:0:0:0:
384,332,100745,1,10,0:0:0:0:
376,152,101214,6,0,P|396:104|432:84,1,75,6|0,0:0|0:0,0:0:0:0:
472,156,101682,2,0,P|452:204|416:224,1,75,10|0,0:0|0:0,0:0:0:0:
348,236,102151,2,0,P|312:216|264:216,1,75,2|0,0:0|0:0,0:0:0:0:
188,200,102620,1,10,0:0:0:0:
64,328,103089,6,0,P|128:296|148:264,1,75,6|0,0:0|0:0,0:0:0:0:
220,300,103557,2,0,P|259:240|260:202,1,75,10|0,0:0|0:0,0:0:0:0:
336,192,104026,2,0,P|340:120|322:87,1,75,2|0,0:0|0:0,0:0:0:0:
312,32,104495,1,10,0:0:0:0:
132,20,104964,6,0,P|142:55|165:85,1,75,6|0,0:0|0:0,0:0:0:0:
160,175,105432,2,0,P|187:200|221:214,1,75,10|0,0:0|0:0,0:0:0:0:
268,291,105901,2,0,P|304:299|341:294,1,75,2|0,0:0|0:0,0:0:0:0:
428,280,106370,1,10,0:0:0:0:
428,280,106839,5,6,0:0:0:0:
360,104,114339,5,8,0:0:0:0:
288,260,114807,2,0,P|220:288|164:276,2,112.5,8|8|8,0:0|0:0|0:0,0:0:0:0:
344,188,115745,2,0,P|392:192|416:216,1,75,8|8,0:0|0:0,0:0:0:0:
468,276,116214,5,8,0:0:0:0:
288,260,116682,2,0,P|236:216|236:148,2,112.5,8|0|8,0:0|0:0|0:0,0:0:0:0:
344,188,117620,2,0,P|396:146|416:145,1,75,8|0,0:0|0:0,0:0:0:0:
488,120,118089,1,8,0:0:0:0:
324,52,118557,2,0,P|276:28|208:40,2,112.5,8|0|8,0:0|0:0|0:0,0:0:0:0:
408,80,119495,1,8,0:0:0:0:
256,192,119729,12,8,121370,0:0:0:0:
336,288,121839,5,6,0:0:0:0:
172,360,122307,2,0,P|132:352|108:328,1,75,14|0,0:0|0:0,0:0:0:0:
76,244,122776,2,0,L|120:176,1,75,2|0,0:0|0:0,0:0:0:0:
44,128,123245,2,0,L|88:60,1,75,14|0,0:0|0:0,0:0:0:0:
148,4,123714,5,2,0:0:0:0:
340,23,124182,2,0,P|376:30|403:55,1,75,14|0,0:0|0:0,0:0:0:0:
436,140,124651,2,0,L|395:202,1,75,2|0,0:0|0:0,0:0:0:0:
468,256,125120,2,0,L|427:318,1,75,14|0,0:0|0:0,0:0:0:0:
364,380,125589,5,2,0:0:0:0:
200,312,126057,2,0,P|168:288|132:284,1,75,14|0,0:0|0:0,0:0:0:0:
43,283,126526,2,0,L|43:173,1,75,2|0,0:0|0:0,0:0:0:0:
43,117,126995,1,14,0:0:0:0:
212,52,127464,6,0,P|260:64|288:92,1,75,2|0,0:0|0:0,0:0:0:0:
332,152,127932,2,0,P|348:200|368:216,1,75,14|0,0:0|0:0,0:0:0:0:
436,268,128401,2,0,P|380:302|344:292,1,75,2|0,0:0|0:0,0:0:0:0:
284,292,128870,1,14,0:0:0:0:
108,320,129339,6,0,P|96:272|108:240,1,75,2|0,0:0|0:0,0:0:0:0:
160,180,129807,2,0,P|188:132|184:100,1,75,14|0,0:0|0:0,0:0:0:0:
206,28,130276,2,0,P|169:23|136:40,1,75,2|0,0:0|0:0,0:0:0:0:
48,64,130745,2,0,P|67:103|101:124,1,75,14|0,0:0|0:0,0:0:0:0:
160,180,131214,5,2,0:0:0:0:
328,116,131682,2,0,P|376:124|408:168,1,75,14|0,0:0|0:0,0:0:0:0:
424,224,132151,2,0,L|360:292,1,75,2|0,0:0|0:0,0:0:0:0:
292,240,132620,2,0,L|228:308,1,75,14|0,0:0|0:0,0:0:0:0:
180,360,133089,5,2,0:0:0:0:
48,240,133557,1,14,0:0:0:0:
156,96,134026,2,0,P|184:56|184:16,2,75,2|0|14,0:0|0:0|0:0,0:0:0:0:
76,136,134729,2,0,P|124:180|156:184,1,75,0|2,0:0|0:0,0:0:0:0:
220,172,135198,5,0,0:0:0:0:
300,132,135432,2,0,P|360:116|376:120,1,75,14|0,0:0|0:0,0:0:0:0:
440,60,135901,2,0,P|464:112|448:152,1,75,2|0,0:0|0:0,0:0:0:0:
428,212,136370,1,14,0:0:0:0:
256,264,136839,5,0,0:0:0:0:
360,264,151839,6,0,P|312:280|284:276,1,75,2|0,0:0|0:0,0:0:0:0:
200,268,152307,2,0,P|168:224|168:196,1,75,2|0,0:0|0:0,0:0:0:0:
176,116,152776,2,0,P|216:92|252:88,1,75,2|0,0:0|0:0,0:0:0:0:
332,96,153245,1,2,0:0:0:0:
276,268,153714,6,0,L|201:268,1,75,2|0,0:0|0:0,0:0:0:0:
111,268,154182,1,2,0:0:0:0:
264,172,154651,6,0,L|339:172,1,75,2|0,0:0|0:0,0:0:0:0:
428,172,155119,1,2,0:0:0:0:
292,64,155589,5,2,0:0:0:0:
202,64,155823,2,0,L|127:64,1,75,0|2,0:0|0:0,0:0:0:0:
36,64,156292,1,0,0:0:0:0:
36,153,156526,2,0,L|36:240,1,75,2|0,0:0|0:0,0:0:0:0:
36,318,156995,1,2,0:0:0:0:
163,190,157464,6,0,L|216:128,1,75,2|0,0:0|0:0,0:0:0:0:
301,132,157932,2,0,L|400:132,1,75,2|0,0:0|0:0,0:0:0:0:
440,196,158401,2,0,L|391:253,2,75,2|0|2,0:0|0:0|0:0,0:0:0:0:
492,124,159104,1,0,0:0:0:0:
428,60,159339,6,0,L|352:60,1,75,2|0,0:0|0:0,0:0:0:0:
263,60,159807,2,0,L|180:60,1,75,2|0,0:0|0:0,0:0:0:0:
97,60,160276,1,2,0:0:0:0:
33,123,160510,1,0,0:0:0:0:
96,186,160745,1,2,0:0:0:0:
32,249,160979,1,0,0:0:0:0:
95,312,161214,5,8,0:0:0:0:
274,312,161682,1,8,0:0:0:0:
401,184,162151,1,8,0:0:0:0:
464,120,162385,1,8,0:0:0:0:
400,56,162620,1,8,0:0:0:0:
219,56,163089,5,8,0:0:0:0:
91,183,163557,1,8,0:0:0:0:
218,310,164026,1,8,0:0:0:0:
281,373,164260,1,8,0:0:0:0:
344,309,164495,1,8,0:0:0:0:
471,181,164964,6,0,L|364:180,1,75,8|0,0:0|0:0,0:0:0:0:
332,116,165432,2,0,L|256:56,1,75,8|0,0:0|0:0,0:0:0:0:
182,69,165901,1,8,0:0:0:0:
118,132,166135,1,8,0:0:0:0:
54,195,166370,1,8,0:0:0:0:
256,192,166839,12,8,168714,0:0:0:0:
256,192,169182,5,2,0:0:0:0:
100,280,169651,2,0,P|128:308|164:316,1,75,2|4,0:0|0:0,0:0:0:0:
252,316,170120,2,0,P|285:293|353:293,1,75,14|0,0:0|0:0,0:0:0:0:
408,280,170589,5,2,0:0:0:0:
448,104,171057,2,0,P|420:68|368:56,1,75,14|0,0:0|0:0,0:0:0:0:
304,76,171526,2,0,L|240:32,1,75,2|0,0:0|0:0,0:0:0:0:
200,112,171995,2,0,L|136:68,1,75,14|0,0:0|0:0,0:0:0:0:
60,24,172464,5,2,0:0:0:0:
116,196,172932,2,0,P|104:240|72:264,1,75,14|0,0:0|0:0,0:0:0:0:
8,312,173401,2,0,P|68:348|92:340,1,75,2|0,0:0|0:0,0:0:0:0:
156,336,173870,1,14,0:0:0:0:
316,256,174339,6,0,P|351:191|323:120,1,150,2|14,0:0|0:0,0:0:0:0:
232,276,175276,2,0,P|262:322|295:337,1,75,2|0,0:0|0:0,0:0:0:0:
368,340,175745,1,14,0:0:0:0:
464,192,176214,6,0,P|480:152|476:116,1,75,2|0,0:0|0:0,0:0:0:0:
432,44,176682,2,0,P|392:28|348:36,1,75,14|0,0:0|0:0,0:0:0:0:
276,56,177151,2,0,P|216:72|192:64,1,75,2|0,0:0|0:0,0:0:0:0:
116,52,177620,2,0,P|80:80|68:116,1,75,14|0,0:0|0:0,0:0:0:0:
60,196,178089,5,2,0:0:0:0:
192,320,178557,2,0,P|240:344|284:336,1,75,14|0,0:0|0:0,0:0:0:0:
328,284,179026,2,0,P|380:256|408:256,1,75,2|0,0:0|0:0,0:0:0:0:
460,192,179495,2,0,P|484:236|472:284,1,75,14|0,0:0|0:0,0:0:0:0:
436,336,179964,5,2,0:0:0:0:
348,180,180432,2,0,P|352:116|380:84,1,75,14|0,0:0|0:0,0:0:0:0:
428,52,180901,2,0,P|472:64|504:88,2,75,2|0|14,0:0|0:0|0:0,0:0:0:0:
340,24,181604,2,0,P|288:20|248:32,1,75,0|2,0:0|0:0,0:0:0:0:
176,36,182073,5,0,0:0:0:0:
96,80,182307,2,0,P|68:120|68:160,1,75,14|0,0:0|0:0,0:0:0:0:
92,232,182776,2,0,P|123:275|156:282,1,75,2|0,0:0|0:0,0:0:0:0:
232,292,183245,1,14,0:0:0:0:
412,272,183714,5,6,0:0:0:0:
412,272,184182,2,0,P|420:212|400:188,1,75,14|0,0:0|0:0,0:0:0:0:
348,140,184651,2,0,L|416:72,1,75,2|0,0:0|0:0,0:0:0:0:
316,56,185120,2,0,L|262:109,1,75,14|0,0:0|0:0,0:0:0:0:
200,176,185589,5,2,0:0:0:0:
68,296,186057,2,0,P|38:275|20:239,1,75,14|0,0:0|0:0,0:0:0:0:
56,160,186526,2,0,P|86:181|103:214,1,75,2|0,0:0|0:0,0:0:0:0:
164,280,186995,2,0,P|210:293|246:282,1,75,14|0,0:0|0:0,0:0:0:0:
320,256,187464,5,2,0:0:0:0:
364,80,187932,2,0,P|412:44|456:48,1,75,14|0,0:0|0:0,0:0:0:0:
440,132,188401,2,0,P|414:158|378:169,1,75,2|0,0:0|0:0,0:0:0:0:
292,140,188870,2,0,P|236:124|200:132,1,75,14|0,0:0|0:0,0:0:0:0:
132,132,189339,6,0,P|72:164|60:192,2,75,2|0|14,0:0|0:0|0:0,0:0:0:0:
184,304,190276,2,0,P|84:280|64:228,1,150,2|14,0:0|0:0,0:0:0:0:
52,64,191214,5,4,0:0:0:0:
216,136,191682,2,0,P|197:188|153:221,2,112.5,6|0|0,0:0|0:0|0:0,0:0:0:0:
288,84,192620,2,0,P|332:76|370:86,1,75,2|0,0:0|0:0,0:0:0:0:
448,100,193089,5,2,0:0:0:0:
424,280,193557,1,2,0:0:0:0:
252,228,194026,2,0,P|216:200|208:168,1,75,2|0,0:0|0:0,0:0:0:0:
120,156,194495,2,0,P|156:104|180:96,1,75,2|0,0:0|0:0,0:0:0:0:
248,68,194964,5,2,0:0:0:0:
336,88,195198,2,0,P|380:112|408:200,1,112.5,2|0,0:0|0:0,0:0:0:0:
424,300,195901,1,2,0:0:0:0:
336,308,196135,1,0,0:0:0:0:
248,320,196370,1,2,0:0:0:0:
160,328,196604,1,2,0:0:0:0:
112,152,197073,5,2,0:0:0:0:
144,68,197307,2,0,P|180:88|200:132,1,75,2|0,0:0|0:0,0:0:0:0:
236,196,197776,2,0,P|288:168|308:128,1,75,2|0,0:0|0:0,0:0:0:0:
344,80,198245,1,6,0:0:0:0:
