osu file format v13

[General]
AudioFilename: LUVORATORRRRRY.mp3
AudioLeadIn: 0
PreviewTime: 121839
Countdown: 0
SampleSet: Soft
StackLeniency: 0.7
Mode: 0
LetterboxInBreaks: 0
EpilepsyWarning: 1
WidescreenStoryboard: 0

[Editor]
Bookmarks: 136839
DistanceSpacing: 1.2
BeatDivisor: 4
GridSize: 4
TimelineZoom: 1

[Metadata]
Title:LUVORATORRRRRY!
TitleUnicode:LUVORATORRRRRY!
Artist:Giga-P
ArtistUnicode:Giga-P
Creator:Selisi
Version:Insane
Source:
Tags:Megpoid Gumi Kagamine Rin Reol VOCALOID LABORATORY Dance Hollow Wings Sweet Vanilla
BeatmapID:376736
BeatmapSetID:153206

[Difficulty]
HPDrainRate:7
CircleSize:4
OverallDifficulty:8
ApproachRate:9
SliderMultiplier:2.4
SliderTickRate:1

[Events]
//Background and Video events
0,0,"background.jpg",0,0
//Break Periods
2,107039,113739
2,137039,151239
//Storyboard Layer 0 (Background)
//Storyboard Layer 1 (Fail)
//Storyboard Layer 2 (Pass)
//Storyboard Layer 3 (Foreground)
//Storyboard Sound Samples
//Background Colour Transformations
3,100,64,0,64

[TimingPoints]
1839,468.75,4,2,0,40,1,0
8870,-100,4,2,2,100,0,0
9339,-100,4,2,2,100,0,0
15198,-100,4,3,3,80,0,0
15667,-100,4,2,3,80,0,0
16253,-100,4,2,1,80,0,0
16487,-100,4,2,2,80,0,0
16839,-100,4,2,1,80,0,0
45198,-100,4,3,3,80,0,0
45549,-100,4,2,3,80,0,0
46370,-100,4,2,1,80,0,0
46839,-100,4,2,2,80,0,0
54339,-100,4,2,1,80,0,0
61839,-133.333333333333,4,2,4,80,0,0
75198,-117.647058823529,4,2,4,80,0,0
75667,-100,4,2,4,80,0,0
76839,-100,4,2,1,70,0,0
105198,-100,4,3,3,70,0,0
105549,-100,4,2,3,70,0,0
106605,-100,4,2,2,70,0,0
114339,-100,4,2,1,70,0,0
121839,-86.9565217391304,4,2,2,95,0,1
135198,-86.9565217391304,4,3,3,100,0,1
135549,-86.9565217391304,4,2,3,100,0,1
136370,-86.9565217391304,4,2,2,100,0,1
136839,-86.9565217391304,4,2,2,40,0,0
153714,-117.647058823529,4,2,4,40,0,0
169651,-86.9565217391304,4,2,2,95,0,0
169885,-86.9565217391304,4,2,2,95,0,1
183596,-86.9565217391304,4,2,2,95,0,0
183714,-86.9565217391304,4,2,2,95,0,1
191214,-100,4,2,0,40,0,0
198245,-50,4,2,0,40,0,0

[Colours]
Combo1 : 128,128,192
Combo2 : 203,236,19
Combo3 : 0,166,83
Combo4 : 248,198,67
SliderBorder : 50,50,50

[HitObjects]
68,112,1839,6,0,L|204:56,1,120,2|0,0:0|0:0,0:0:0:0:
344,100,2307,1,2,0:0:0:0:
344,100,2424,2,0,L|233:145,1,120,0|2,0:0|0:0,0:0:0:0:
76,232,2893,1,0,0:0:0:0:
76,232,3010,2,0,L|212:288,1,120,0|0,0:0|0:0,0:0:0:0:
344,100,3479,1,2,0:0:0:0:
108,52,3714,6,0,L|128:172,1,120,2|0,0:0|0:0,0:0:0:0:
272,256,4182,1,0,0:0:0:0:
324,244,4299,1,0,0:0:0:0:
368,216,4417,1,0,0:0:0:0:
396,168,4534,1,2,0:0:0:0:
108,52,4768,1,0,0:0:0:0:
108,52,4885,2,0,L|128:172,1,120,2|0,0:0|0:0,0:0:0:0:
168,344,5354,1,2,0:0:0:0:
264,192,5589,6,0,L|319:86,1,120,2|0,0:0|0:0,0:0:0:0:
372,303,6057,1,2,0:0:0:0:
372,303,6174,2,0,L|252:298,1,120
240,92,6643,1,2,0:0:0:0:
240,92,6760,2,0,L|359:96,1,120
268,320,7229,1,2,0:0:0:0:
24,312,7464,6,0,L|122:176,1,120,2|0,0:0|0:0,0:0:0:0:
240,92,7932,1,0,0:0:0:0:
283,120,8049,1,0,0:0:0:0:
315,169,8167,1,0,0:0:0:0:
317,222,8284,1,2,0:0:0:0:
24,312,8518,1,0,0:0:0:0:
24,312,8635,2,0,L|122:176,1,120,2|8,0:0|0:0,0:0:0:0:
240,92,9104,1,6,0:0:0:0:
396,76,9339,6,0,P|336:120|232:80,1,180,10|0,0:0|0:0,0:0:0:0:
172,36,9807,2,0,P|112:108|112:208,1,180,14|0,0:0|0:0,0:0:0:0:
156,272,10276,2,0,P|100:292|40:264,1,120,2|0,0:0|0:0,0:0:0:0:
200,196,10745,2,0,P|256:176|316:204,1,120,14|0,0:0|0:0,0:0:0:0:
324,236,11096,1,0,0:0:0:0:
356,264,11214,6,0,P|412:284|472:256,1,120,10|0,0:0|0:0,0:0:0:0:
500,84,11682,1,14,0:0:0:0:
320,84,11917,1,0,0:0:0:0:
320,84,12034,2,0,L|272:136,1,60,0|2,0:0|0:0,0:0:0:0:
324,236,12268,2,0,L|364:192,1,60
320,84,12620,2,0,P|264:128|256:208,1,120,14|0,0:0|0:0,0:0:0:0:
236,280,13089,6,0,P|100:296|44:252,1,180,2|0,0:0|0:0,0:0:0:0:
8,200,13557,2,0,P|22:117|105:62,1,180,14|0,0:0|0:0,0:0:0:0:
188,100,14026,2,0,P|260:136|324:112,1,120,2|0,0:0|0:0,0:0:0:0:
472,52,14495,2,0,P|416:81|392:137,1,120,14|0,0:0|0:0,0:0:0:0:
396,172,14846,1,0,0:0:0:0:
392,212,14964,6,0,P|368:268|296:288,1,120,10|8,0:0|0:0,0:0:0:0:
272,288,15315,1,8,0:0:0:0:
232,280,15432,1,4,0:0:0:0:
200,256,15549,1,4,0:0:0:0:
180,220,15667,1,8,0:0:0:0:
156,184,15784,1,8,0:0:0:0:
120,164,15901,1,8,0:0:0:0:
80,160,16018,1,8,0:0:0:0:
44,180,16135,1,8,0:0:0:0:
148,336,16370,1,10,0:0:0:0:
276,192,16604,1,14,0:0:0:0:
148,56,16839,5,6,0:0:0:0:
108,56,16956,1,0,0:0:0:0:
72,76,17073,2,0,P|36:120|44:184,1,120,0|8,0:0|0:0,0:0:0:0:
148,336,17542,2,0,L|113:286,1,60
129,166,17776,2,0,L|163:215,2,60
232,268,18245,2,0,P|300:280|344:248,1,120,8|0,0:0|0:0,0:0:0:0:
492,132,18714,6,0,P|424:120|380:152,1,120,6|0,0:0|0:0,0:0:0:0:
396,188,19065,1,0,0:0:0:0:
396,188,19182,2,0,L|424:260,1,60,8|0,0:0|0:0,0:0:0:0:
276,264,19417,2,0,L|284:192,1,60
296,108,19651,2,0,L|302:48,2,60,2|0|0,0:0|0:0|0:0,0:0:0:0:
152,236,20120,1,8,0:0:0:0:
116,214,20237,1,0,0:0:0:0:
96,176,20354,1,0,0:0:0:0:
93,134,20471,1,0,0:0:0:0:
109,95,20589,6,0,P|176:56|219:62,1,120,6|0,0:0|0:0,0:0:0:0:
403,142,21057,2,0,P|336:103|293:109,1,120,8|0,0:0|0:0,0:0:0:0:
116,214,21526,2,0,P|183:175|226:181,1,120,2|0,0:0|0:0,0:0:0:0:
395,264,21995,2,0,P|328:303|252:272,1,120,8|0,0:0|0:0,0:0:0:0:
116,212,22464,5,6,0:0:0:0:
107,170,22581,1,0,0:0:0:0:
116,129,22698,1,0,0:0:0:0:
145,99,22815,1,0,0:0:0:0:
186,92,22932,2,0,P|249:111|277:155,1,120,8|0,0:0|0:0,0:0:0:0:
332,316,23401,1,6,0:0:0:0:
371,327,23518,1,0,0:0:0:0:
414,319,23636,1,0,0:0:0:0:
446,290,23753,1,0,0:0:0:0:
463,252,23870,1,10,0:0:0:0:
384,92,24104,2,0,L|328:44,1,60,0|0,0:0|0:0,0:0:0:0:
368,196,24339,6,0,L|432:168,1,60,6|0,0:0|0:0,0:0:0:0:
296,140,24573,2,0,L|268:196,1,60
228,276,24807,1,8,0:0:0:0:
48,268,25042,6,0,L|124:268,1,60,0|0,0:0|0:0,0:0:0:0:
228,276,25276,2,0,L|185:318,1,60,6|0,0:0|0:0,0:0:0:0:
253,182,25510,2,0,L|296:140,1,60
360,76,25745,1,8,0:0:0:0:
136,76,25979,2,0,L|160:152,1,60,0|0,0:0|0:0,0:0:0:0:
120,168,26214,5,6,0:0:0:0:
92,196,26331,1,0,0:0:0:0:
76,236,26448,1,0,0:0:0:0:
72,276,26565,1,0,0:0:0:0:
76,316,26682,2,0,P|140:310|198:336,1,120,8|0,0:0|0:0,0:0:0:0:
368,328,27151,5,2,0:0:0:0:
404,304,27268,1,0,0:0:0:0:
428,268,27385,1,0,0:0:0:0:
436,228,27503,1,0,0:0:0:0:
436,188,27620,2,0,P|404:132|340:108,1,120,8|0,0:0|0:0,0:0:0:0:
172,72,28089,6,0,L|104:112,1,60,6|0,0:0|0:0,0:0:0:0:
112,206,28323,2,0,L|164:176,1,60
247,135,28557,1,8,0:0:0:0:
248,136,28792,2,0,L|256:196,1,60
320,264,29026,2,0,L|388:292,2,60,2|0|0,0:0|0:0|0:0,0:0:0:0:
232,280,29378,2,0,L|188:332,1,60,0|8,0:0|0:0,0:0:0:0:
160,136,29729,6,0,P|188:72|272:52,1,120,0|6,0:0|0:0,0:0:0:0:
392,180,30198,2,0,P|364:244|280:260,1,120,0|8,0:0|0:0,0:0:0:0:
160,136,30667,2,0,L|232:136,1,60
232,280,30901,2,0,L|136:280,1,60,2|0,0:0|0:0,0:0:0:0:
304,208,31135,2,0,L|360:260,1,60
140,232,31370,2,0,L|88:280,1,60,8|0,0:0|0:0,0:0:0:0:
264,112,31604,1,0,0:0:0:0:
264,112,31721,2,0,L|316:64,1,60,0|6,0:0|0:0,0:0:0:0:
332,296,32073,5,0,0:0:0:0:
452,148,32307,1,8,0:0:0:0:
452,148,32424,2,0,L|364:172,1,60
140,232,32776,1,2,0:0:0:0:
140,232,32893,1,0,0:0:0:0:
392,312,33128,1,0,0:0:0:0:
392,312,33245,2,0,L|304:288,1,60,8|0,0:0|0:0,0:0:0:0:
240,272,33479,2,0,P|192:324|104:324,1,120,0|6,0:0|0:0,0:0:0:0:
56,164,33948,5,0,0:0:0:0:
208,48,34182,1,8,0:0:0:0:
208,48,34299,2,0,L|184:140,1,60
152,292,34651,1,2,0:0:0:0:
152,292,34768,1,0,0:0:0:0:
332,224,35003,1,0,0:0:0:0:
332,224,35120,2,0,L|412:192,1,60,8|0,0:0|0:0,0:0:0:0:
476,168,35354,2,0,P|432:112|360:112,1,120,0|6,0:0|0:0,0:0:0:0:
236,224,35823,6,0,P|260:290|329:313,1,120,0|8,0:0|0:0,0:0:0:0:
392,348,36174,2,0,P|428:284|480:264,1,120
396,200,36526,2,0,P|396:128|444:84,1,120,2|0,0:0|0:0,0:0:0:0:
328,96,36878,2,0,L|256:112,1,60,0|8,0:0|0:0,0:0:0:0:
80,144,37229,1,0,0:0:0:0:
260,208,37464,6,0,L|176:180,1,60,6|0,0:0|0:0,0:0:0:0:
168,280,37698,2,0,L|140:364,1,60
244,356,37932,2,0,L|328:384,1,60,8|0,0:0|0:0,0:0:0:0:
336,284,38167,2,0,L|364:200,1,60
392,136,38401,1,2,0:0:0:0:
208,84,38635,1,0,0:0:0:0:
260,208,38870,1,8,0:0:0:0:
336,32,39104,2,0,L|288:144,1,120,0|6,0:0|0:0,0:0:0:0:
128,280,39573,6,0,L|176:168,1,120,0|8,0:0|0:0,0:0:0:0:
208,84,39924,2,0,P|116:100|88:152,1,120
68,204,40276,2,0,P|128:204|180:160,1,120,2|0,0:0|0:0,0:0:0:0:
268,156,40628,2,0,L|328:152,1,60,0|8,0:0|0:0,0:0:0:0:
484,260,40979,2,0,L|316:268,1,120,0|6,0:0|0:0,0:0:0:0:
328,88,41448,6,0,P|360:144|348:200,1,120,0|8,0:0|0:0,0:0:0:0:
212,224,41799,2,0,P|180:168|192:112,1,120
252,44,42151,2,0,P|176:28|120:48,1,120,2|0,0:0|0:0,0:0:0:0:
52,88,42503,2,0,L|76:168,1,60,0|8,0:0|0:0,0:0:0:0:
228,280,42854,2,0,L|204:200,1,60
144,292,43089,2,0,P|180:352|264:352,1,120,6|0,0:0|0:0,0:0:0:0:
388,264,43557,5,8,0:0:0:0:
212,192,43792,1,0,0:0:0:0:
368,80,44026,2,0,L|308:188,1,120,2|0,0:0|0:0,0:0:0:0:
212,192,44378,2,0,L|244:136,1,60,0|8,0:0|0:0,0:0:0:0:
388,264,44729,2,0,P|308:308|256:288,1,120,0|6,0:0|0:0,0:0:0:0:
100,248,45198,5,8,0:0:0:0:
81,196,45315,1,8,0:0:0:0:
91,143,45432,1,4,0:0:0:0:
130,106,45549,1,8,0:0:0:0:
180,86,45667,1,8,0:0:0:0:
233,91,45784,1,8,0:0:0:0:
278,119,45901,1,8,0:0:0:0:
304,165,46018,1,8,0:0:0:0:
349,194,46135,1,8,0:0:0:0:
402,202,46253,1,8,0:0:0:0:
453,184,46370,1,8,0:0:0:0:
496,64,46839,5,4,0:0:0:0:
256,192,46956,12,8,54339,0:0:0:0:
180,140,54807,6,0,P|256:108|304:128,1,120,8|0,0:0|0:0,0:0:0:0:
256,228,55159,2,0,P|172:264|136:248,1,120,8|0,0:0|0:0,0:0:0:0:
180,140,55510,5,8,0:0:0:0:
316,228,55745,6,0,L|256:228,1,60,8|0,0:0|0:0,0:0:0:0:
316,124,55979,2,0,L|408:124,1,60,8|0,0:0|0:0,0:0:0:0:
428,232,56214,6,0,P|408:296|328:316,1,120,8|0,0:0|0:0,0:0:0:0:
124,304,56682,1,8,0:0:0:0:
316,124,56917,5,8,0:0:0:0:
316,124,57034,1,0,0:0:0:0:
188,224,57268,1,8,0:0:0:0:
188,224,57385,1,0,0:0:0:0:
336,220,57620,6,0,L|356:288,1,60,8|0,0:0|0:0,0:0:0:0:
192,128,57854,2,0,L|172:60,1,60,8|0,0:0|0:0,0:0:0:0:
392,44,58089,6,0,P|332:120|284:124,1,120,8|0,0:0|0:0,0:0:0:0:
112,304,58557,2,0,P|172:228|220:224,1,120,8|0,0:0|0:0,0:0:0:0:
320,316,58909,2,0,P|252:328|184:288,1,120,8|0,0:0|0:0,0:0:0:0:
192,128,59260,6,0,L|268:128,1,60,8|0,0:0|0:0,0:0:0:0:
336,220,59495,2,0,L|248:220,1,60,8|0,0:0|0:0,0:0:0:0:
108,176,59729,5,8,0:0:0:0:
412,172,59964,1,2,0:0:0:0:
176,228,60198,1,2,0:0:0:0:
300,172,60432,6,0,L|336:219,1,60,2|0,0:0|0:0,0:0:0:0:
336,356,60667,2,0,L|303:305,1,60,2|0,0:0|0:0,0:0:0:0:
261,292,60901,1,0,0:0:0:0:
206,294,61018,1,0,0:0:0:0:
156,272,61135,1,0,0:0:0:0:
124,228,61253,1,0,0:0:0:0:
124,176,61370,2,0,P|162:118|228:104,1,120
440,71,61839,5,2,0:0:0:0:
440,71,62073,2,0,B|440:136|440:136|404:180,1,90.0000034332277,0|2,0:0|0:0,0:0:0:0:
304,292,62542,2,0,B|304:227|304:227|304:212,2,45.0000017166138,0|0|2,0:0|0:0|0:0,0:0:0:0:
492,260,63010,2,0,L|400:260,1,90.0000034332277,0|2,0:0|0:0,0:0:0:0:
221,260,63479,5,0,0:0:0:0:
171,260,63596,1,0,0:0:0:0:
121,260,63714,1,2,0:0:0:0:
221,80,63948,2,0,B|220:144|220:144|204:172,1,90.0000034332277,0|2,0:0|0:0,0:0:0:0:
75,108,64417,2,0,B|120:108,2,45.0000017166138,0|0|2,0:0|0:0|0:0,0:0:0:0:
400,100,64885,2,0,B|328:100|328:100|300:116,1,90.0000034332277,0|2,0:0|0:0,0:0:0:0:
156,200,65354,6,0,B|228:200|228:200|256:184,1,90.0000034332277,0|2,0:0|0:0,0:0:0:0:
424,200,65823,2,0,B|408:216|408:216|408:288,1,90.0000034332277,0|2,0:0|0:0,0:0:0:0:
228,300,66292,2,0,B|244:316|244:316|316:316,1,90.0000034332277,0|2,0:0|0:0,0:0:0:0:
276,95,66760,1,0,0:0:0:0:
276,144,66878,1,0,0:0:0:0:
276,193,66995,1,2,0:0:0:0:
128,296,67229,6,0,L|128:196,1,90.0000034332277,0|2,0:0|0:0,0:0:0:0:
48,44,67698,2,0,B|48:108|48:108|64:128,1,90.0000034332277,0|2,0:0|0:0,0:0:0:0:
276,144,68167,1,0,0:0:0:0:
455,144,68401,1,2,0:0:0:0:
455,193,68518,1,0,0:0:0:0:
455,242,68635,1,0,0:0:0:0:
455,291,68753,1,0,0:0:0:0:
455,340,68870,1,2,0:0:0:0:
455,340,69104,1,0,0:0:0:0:
292,264,69339,5,8,0:0:0:0:
292,264,69573,1,0,0:0:0:0:
220,120,69807,1,8,0:0:0:0:
220,120,70042,1,0,0:0:0:0:
364,140,70276,1,8,0:0:0:0:
364,140,70510,1,0,0:0:0:0:
364,140,70745,1,8,0:0:0:0:
144,248,70979,1,0,0:0:0:0:
94,248,71096,1,0,0:0:0:0:
44,248,71214,1,8,0:0:0:0:
44,248,71448,1,0,0:0:0:0:
192,144,71682,5,8,0:0:0:0:
192,144,71917,1,0,0:0:0:0:
44,44,72151,1,8,0:0:0:0:
44,44,72385,1,0,0:0:0:0:
44,44,72620,1,8,0:0:0:0:
224,44,72854,6,0,L|300:44,1,45.0000017166138
340,44,73089,1,8,0:0:0:0:
340,44,73323,1,0,0:0:0:0:
220,160,73557,1,8,0:0:0:0:
220,160,73792,1,0,0:0:0:0:
360,276,74026,1,8,0:0:0:0:
360,276,74260,1,0,0:0:0:0:
360,226,74378,1,0,0:0:0:0:
360,176,74495,1,8,0:0:0:0:
358,44,74729,6,0,L|288:44,1,45.0000017166138
241,44,74964,1,8,0:0:0:0:
88,160,75198,6,0,L|160:160,1,51.0000009727478
220,160,75432,1,8,0:0:0:0:
420,276,75667,6,0,L|344:276,1,60
264,276,75901,1,8,0:0:0:0:
82,308,76135,1,0,0:0:0:0:
111,278,76253,1,0,0:0:0:0:
140,248,76370,2,0,L|236:144,1,120,8|0,0:0|0:0,0:0:0:0:
352,20,76839,5,6,0:0:0:0:
452,184,77073,1,0,0:0:0:0:
432,220,77190,1,0,0:0:0:0:
396,244,77307,2,0,P|336:256|284:224,1,120,8|0,0:0|0:0,0:0:0:0:
116,140,77776,2,0,P|176:128|228:160,1,120,2|0,0:0|0:0,0:0:0:0:
72,325,78245,2,0,L|40:255,1,60,8|0,0:0|0:0,0:0:0:0:
160,209,78479,2,0,L|125:266,1,60
20,148,78714,6,0,L|55:91,1,60,6|0,0:0|0:0,0:0:0:0:
240,76,78948,2,0,L|205:133,1,60
116,140,79182,2,0,L|151:83,1,60,8|0,0:0|0:0,0:0:0:0:
331,68,79417,2,0,L|300:120,1,60
260,220,79651,1,2,0:0:0:0:
276,260,79768,1,0,0:0:0:0:
308,284,79885,1,0,0:0:0:0:
348,292,80003,1,0,0:0:0:0:
388,288,80120,2,0,P|444:244|448:188,1,120,8|0,0:0|0:0,0:0:0:0:
303,163,80589,6,0,L|348:204,1,60,6|0,0:0|0:0,0:0:0:0:
374,110,80823,1,0,0:0:0:0:
288,64,80940,2,0,P|204:48|156:80,1,120,0|0,0:0|0:0,0:0:0:0:
204,192,81292,2,0,L|228:137,1,60,2|0,0:0|0:0,0:0:0:0:
80,128,81526,2,0,L|55:182,1,60
132,240,81760,1,0,0:0:0:0:
32,276,81878,2,0,P|68:327|149:331,1,120,0|0,0:0|0:0,0:0:0:0:
218,339,82229,2,0,L|284:284,1,60,0|2,0:0|0:0,0:0:0:0:
420,192,82464,5,0,0:0:0:0:
420,192,82698,2,0,P|461:267|437:323,1,120,0|8,0:0|0:0,0:0:0:0:
279,215,83167,2,0,L|279:154,1,60
364,111,83401,2,0,L|364:51,2,60,2|0|0,0:0|0:0|0:0,0:0:0:0:
420,192,83753,2,0,L|420:264,1,60,0|8,0:0|0:0,0:0:0:0:
352,292,83987,1,0,0:0:0:0:
310,292,84104,1,0,0:0:0:0:
268,292,84221,1,0,0:0:0:0:
235,292,84339,6,0,L|147:292,1,60,6|0,0:0|0:0,0:0:0:0:
72,148,84573,2,0,L|164:148,1,60
184,220,84807,2,0,L|72:220,1,60,8|0,0:0|0:0,0:0:0:0:
32,76,85042,2,0,L|124:76,1,60
184,84,85276,2,0,P|256:136|300:120,1,120,2|0,0:0|0:0,0:0:0:0:
372,104,85628,1,0,0:0:0:0:
372,104,85745,2,0,L|434:81,1,60,8|0,0:0|0:0,0:0:0:0:
412,244,85979,2,0,L|349:266,1,60
364,184,86214,6,0,L|426:161,1,60,6|0,0:0|0:0,0:0:0:0:
408,320,86448,2,0,L|351:340,1,60
256,352,86682,2,0,P|188:348|140:288,1,120,8|0,0:0|0:0,0:0:0:0:
112,152,87151,1,2,0:0:0:0:
112,152,87268,2,0,L|76:260,1,60,0|0,0:0|0:0,0:0:0:0:
168,240,87503,2,0,L|188:180,1,60,0|8,0:0|0:0,0:0:0:0:
344,76,87854,1,0,0:0:0:0:
384,60,87971,1,0,0:0:0:0:
424,60,88089,6,0,P|472:80|476:164,1,120,6|0,0:0|0:0,0:0:0:0:
444,228,88440,2,0,L|392:296,1,60,0|8,0:0|0:0,0:0:0:0:
228,344,88792,2,0,L|280:276,1,60
320,220,89026,2,0,L|356:172,2,60,2|0|0,0:0|0:0|0:0,0:0:0:0:
256,292,89378,2,0,L|220:340,1,60,0|8,0:0|0:0,0:0:0:0:
36,328,89729,5,0,0:0:0:0:
68,300,89846,1,0,0:0:0:0:
84,264,89964,2,0,P|76:196|32:160,1,120,6|0,0:0|0:0,0:0:0:0:
12,132,90315,1,0,0:0:0:0:
12,132,90432,2,0,P|82:89|82:17,1,120,8|0,0:0|0:0,0:0:0:0:
224,196,90901,2,0,P|288:208|352:152,1,120,2|0,0:0|0:0,0:0:0:0:
364,136,91253,1,8,0:0:0:0:
364,136,91370,2,0,L|316:76,1,60,6|6,0:0|0:0,0:0:0:0:
224,196,91604,2,0,L|272:256,1,60,12|2,0:0|0:0,0:0:0:0:
388,320,91839,6,0,P|408:264|394:206,1,120,6|2,0:0|0:0,0:0:0:0:
200,160,92307,1,8,0:0:0:0:
224,196,92424,1,0,0:0:0:0:
224,240,92542,1,0,0:0:0:0:
200,276,92659,1,0,0:0:0:0:
160,292,92776,2,0,P|99:291|61:234,1,120,2|0,0:0|0:0,0:0:0:0:
56,152,93128,1,0,0:0:0:0:
56,152,93245,2,0,P|94:109|152:109,1,120,8|0,0:0|0:0,0:0:0:0:
332,180,93714,5,6,0:0:0:0:
332,180,93831,1,0,0:0:0:0:
444,336,94065,1,0,0:0:0:0:
444,336,94182,1,8,0:0:0:0:
456,152,94417,1,0,0:0:0:0:
444,192,94534,1,0,0:0:0:0:
424,228,94651,2,0,P|376:272|300:276,1,120,2|0,0:0|0:0,0:0:0:0:
136,332,95120,2,0,P|184:288|260:284,1,120,8|0,0:0|0:0,0:0:0:0:
280,72,95589,6,0,P|306:128|280:208,1,120,6|0,0:0|0:0,0:0:0:0:
124,236,96057,2,0,P|97:179|124:100,1,120,10|0,0:0|0:0,0:0:0:0:
188,300,96526,2,0,L|132:332,2,60,2|0|0,0:0|0:0|0:0,0:0:0:0:
124,236,96878,2,0,L|176:206,1,60,0|8,0:0|0:0,0:0:0:0:
304,84,97229,1,0,0:0:0:0:
304,84,97346,1,0,0:0:0:0:
304,84,97464,6,0,P|272:145|292:220,1,120,6|0,0:0|0:0,0:0:0:0:
460,328,97932,2,0,P|491:266|472:192,1,120,10|0,0:0|0:0,0:0:0:0:
404,156,98401,2,0,L|358:257,2,60,2|0|0,0:0|0:0|0:0,0:0:0:0:
440,68,98753,2,0,L|464:13,1,60,0|8,0:0|0:0,0:0:0:0:
340,276,99339,6,0,P|292:324|232:320,1,120,6|0,0:0|0:0,0:0:0:0:
52,316,99807,1,8,0:0:0:0:
44,274,99924,1,0,0:0:0:0:
60,235,100042,1,0,0:0:0:0:
92,208,100159,1,0,0:0:0:0:
132,198,100276,2,0,P|199:203|241:249,1,120,2|0,0:0|0:0,0:0:0:0:
296,316,100628,2,0,L|352:264,1,60,0|8,0:0|0:0,0:0:0:0:
480,144,100979,1,0,0:0:0:0:
316,44,101214,5,6,0:0:0:0:
316,44,101331,1,0,0:0:0:0:
128,84,101565,1,0,0:0:0:0:
128,84,101682,1,8,0:0:0:0:
92,272,101917,1,0,0:0:0:0:
92,272,102034,1,0,0:0:0:0:
92,272,102151,2,0,P|156:320|208:316,1,120,2|0,0:0|0:0,0:0:0:0:
384,312,102620,2,0,P|320:264|268:268,1,120,8|0,0:0|0:0,0:0:0:0:
456,96,103089,6,0,L|400:236,1,120,6|0,0:0|0:0,0:0:0:0:
220,188,103557,2,0,L|164:328,1,120,8|0,0:0|0:0,0:0:0:0:
320,176,104026,2,0,L|352:88,2,60,2|0|0,0:0|0:0|0:0,0:0:0:0:
288,268,104378,2,0,L|267:324,1,60,0|8,0:0|0:0,0:0:0:0:
80,326,104729,2,0,P|60:270|92:210,1,120,0|6,0:0|0:0,0:0:0:0:
240,99,105198,5,8,0:0:0:0:
291,81,105315,1,8,0:0:0:0:
344,81,105432,1,4,0:0:0:0:
390,108,105549,1,8,0:0:0:0:
418,153,105667,1,8,0:0:0:0:
404,204,105784,1,8,0:0:0:0:
364,240,105901,1,8,0:0:0:0:
312,244,106018,1,8,0:0:0:0:
264,220,106135,1,8,0:0:0:0:
212,212,106253,1,8,0:0:0:0:
160,228,106370,1,8,0:0:0:0:
48,296,106604,1,0,0:0:0:0:
216,328,106839,5,14,0:0:0:0:
388,76,114339,6,0,P|324:124|208:96,1,180,8|0,0:0|0:0,0:0:0:0:
160,88,114807,2,0,L|120:160,1,60,10|0,0:0|0:0,0:0:0:0:
116,284,115159,2,0,P|172:256|244:264,1,120,8|0,0:0|0:0,0:0:0:0:
296,276,115510,2,0,L|336:348,1,60,8|0,0:0|0:0,0:0:0:0:
352,216,115745,2,0,L|392:288,1,60,8|0,0:0|0:0,0:0:0:0:
408,156,115979,2,0,L|448:228,1,60,8|0,0:0|0:0,0:0:0:0:
464,96,116214,5,10,0:0:0:0:
332,52,116448,1,2,0:0:0:0:
192,72,116682,2,0,P|128:72|68:36,1,120,8|0,0:0|0:0,0:0:0:0:
92,152,117034,2,0,L|16:252,1,120,8|0,0:0|0:0,0:0:0:0:
72,320,117385,2,0,L|108:272,1,60,8|0,0:0|0:0,0:0:0:0:
212,264,117620,2,0,L|156:344,1,60,8|0,0:0|0:0,0:0:0:0:
268,332,117854,1,10,0:0:0:0:
412,300,118089,5,2,0:0:0:0:
460,164,118323,2,0,P|464:105|430:57,1,120,8|0,0:0|0:0,0:0:0:0:
360,76,118674,2,0,P|300:100|240:80,1,120,2|8,0:0|0:0,0:0:0:0:
180,60,119026,1,2,0:0:0:0:
124,220,119260,2,0,L|106:277,1,60,8|0,0:0|0:0,0:0:0:0:
64,152,119495,2,0,L|117:124,1,60,8|0,0:0|0:0,0:0:0:0:
192,168,119729,2,0,P|220:208|295:220,1,120,10|0,0:0|0:0,0:0:0:0:
256,192,120081,12,10,121370,0:0:0:0:
81,89,121839,6,0,P|172:61|256:136,1,207.000003948212,6|0,0:0|0:0,0:0:0:0:
298,214,122307,2,0,P|344:273|484:267,1,207.000003948212,14|0,0:0|0:0,0:0:0:0:
487,175,122776,2,0,P|422:127|346:132,1,138.000002632141,2|0,0:0|0:0,0:0:0:0:
182,157,123245,2,0,P|243:209|319:209,1,138.000002632141,14|0,0:0|0:0,0:0:0:0:
192,35,123714,6,0,P|76:72|44:152,1,207.000003948212,2|0,0:0|0:0,0:0:0:0:
52,244,124182,2,0,B|84:240|105:221|105:221|149:270|221:266|279:205,1,207.000003948212,14|0,0:0|0:0,0:0:0:0:
310,161,124651,2,0,P|350:84|410:71,1,138.000002632141,2|4,0:0|0:0,0:0:0:0:
457,267,125120,2,0,P|417:344|357:357,1,138.000002632141,14|0,0:0|0:0,0:0:0:0:
165,344,125589,6,0,P|98:274|170:147,1,207.000003948212,2|0,0:0|0:0,0:0:0:0:
206,113,126057,2,0,P|118:67|36:112,1,184.000003509522,14|0,0:0|0:0,0:0:0:0:
122,175,126526,2,0,P|183:224|256:204,1,138.000002632141,2|0,0:0|0:0,0:0:0:0:
428,128,126995,2,0,P|367:79|294:99,1,138.000002632141,14|0,0:0|0:0,0:0:0:0:
240,216,127464,6,0,L|252:284,1,69.0000013160706,2|0,0:0|0:0,0:0:0:0:
360,240,127698,2,0,L|348:171,1,69.0000013160706
316,72,127932,2,0,P|244:28|152:40,1,138.000002632141,14|0,0:0|0:0,0:0:0:0:
88,24,128284,1,0,0:0:0:0:
88,24,128401,2,0,L|56:96,1,69.0000013160706,2|0,0:0|0:0,0:0:0:0:
144,148,128635,2,0,P|160:212|96:284,2,138.000002632141,0|14|0,0:0|0:0|0:0,0:0:0:0:
48,344,129339,6,0,P|168:368|228:308,1,207.000003948212,2|0,0:0|0:0,0:0:0:0:
252,220,129807,2,0,P|284:132|392:108,1,207.000003948212,14|0,0:0|0:0,0:0:0:0:
468,164,130276,2,0,P|488:240|456:296,1,138.000002632141,2|0,0:0|0:0,0:0:0:0:
252,220,130745,2,0,P|232:144|264:88,1,138.000002632141,14|0,0:0|0:0,0:0:0:0:
352,280,131214,5,2,0:0:0:0:
148,300,131448,2,0,P|112:284|83:249,1,69.0000013160706,0|0,0:0|0:0,0:0:0:0:
31,176,131682,2,0,P|48:108|164:68,1,184.000003509522,14|0,0:0|0:0,0:0:0:0:
140,172,132151,2,0,P|112:244|32:276,1,138.000002632141,2|4,0:0|0:0,0:0:0:0:
228,148,132620,2,0,P|297:138|376:206,1,138.000002632141,14|0,0:0|0:0,0:0:0:0:
484,340,133089,6,0,P|384:336|352:228,1,184.000003509522,2|0,0:0|0:0,0:0:0:0:
356,168,133557,2,0,P|352:84|248:28,1,207.000003948212,14|0,0:0|0:0,0:0:0:0:
148,40,134026,2,0,P|84:84|78:162,1,138.000002632141,2|0,0:0|0:0,0:0:0:0:
204,312,134495,1,14,0:0:0:0:
356,168,134729,2,0,P|281:147|217:193,1,138.000002632141,0|2,0:0|0:0,0:0:0:0:
396,316,135198,5,8,0:0:0:0:
444,276,135315,1,8,0:0:0:0:
468,220,135432,1,4,0:0:0:0:
476,160,135549,1,8,0:0:0:0:
452,104,135667,1,8,0:0:0:0:
400,72,135784,1,8,0:0:0:0:
340,68,135901,1,8,0:0:0:0:
280,84,136018,1,8,0:0:0:0:
224,112,136135,1,8,0:0:0:0:
160,116,136253,1,8,0:0:0:0:
108,84,136370,1,14,0:0:0:0:
96,244,136604,1,0,0:0:0:0:
256,292,136839,5,0,0:0:0:0:
256,192,151839,12,0,153245,0:0:0:0:
436,88,153714,6,0,L|328:88,1,102.000001945496,2|0,0:0|0:0,0:0:0:0:
129,88,154182,1,2,0:0:0:0:
129,88,154417,1,0,0:0:0:0:
129,133,154534,1,0,0:0:0:0:
129,178,154651,1,2,0:0:0:0:
284,312,154885,2,0,B|299:326|299:326|387:326,1,102.000001945496,0|2,0:0|0:0,0:0:0:0:
280,148,155354,5,0,0:0:0:0:
280,193,155471,1,0,0:0:0:0:
280,238,155589,1,2,0:0:0:0:
408,80,155823,2,0,B|388:64|388:64|296:64,1,102.000001945496,0|2,0:0|0:0,0:0:0:0:
107,64,156292,2,0,L|44:64,2,51.0000009727478,0|0|2,0:0|0:0|0:0,0:0:0:0:
104,268,156760,2,0,B|104:192|104:192|80:160,1,102.000001945496,0|2,0:0|0:0,0:0:0:0:
288,216,157229,6,0,L|412:216,1,102.000001945496,0|2,0:0|0:0,0:0:0:0:
220,324,157698,2,0,B|188:344|188:344|84:344,1,102.000001945496,0|2,0:0|0:0,0:0:0:0:
192,152,158167,2,0,B|192:80|192:80|232:40,1,102.000001945496,0|2,0:0|0:0,0:0:0:0:
412,104,158635,1,0,0:0:0:0:
366,104,158753,1,0,0:0:0:0:
320,104,158870,1,2,0:0:0:0:
172,248,159104,6,0,B|192:224|192:224|192:152,1,102.000001945496
64,312,159573,2,0,B|84:340|84:340|188:340,1,102.000001945496,0|2,0:0|0:0,0:0:0:0:
356,340,160042,2,0,B|384:312|384:312|384:228,1,102.000001945496,0|2,0:0|0:0,0:0:0:0:
384,203,160393,1,0,0:0:0:0:
384,157,160510,1,0,0:0:0:0:
384,111,160628,1,0,0:0:0:0:
384,65,160745,1,2,0:0:0:0:
384,65,160979,1,0,0:0:0:0:
180,65,161214,5,8,0:0:0:0:
23,160,161448,2,0,L|107:160,1,51.0000009727478
177,160,161682,1,8,0:0:0:0:
320,220,161917,1,8,0:0:0:0:
320,220,162034,1,8,0:0:0:0:
320,220,162151,1,2,0:0:0:0:
180,268,162385,1,8,0:0:0:0:
180,268,162620,1,8,0:0:0:0:
180,268,162854,1,8,0:0:0:0:
180,268,163089,5,8,0:0:0:0:
328,160,163323,2,0,L|252:160,1,51.0000009727478
176,160,163557,1,8,0:0:0:0:
72,48,163792,1,8,0:0:0:0:
72,48,163909,1,8,0:0:0:0:
72,48,164026,1,8,0:0:0:0:
228,44,164260,1,8,0:0:0:0:
228,44,164495,1,8,0:0:0:0:
228,44,164729,1,8,0:0:0:0:
228,44,164964,5,8,0:0:0:0:
411,44,165198,2,0,B|436:72|436:72|436:160,1,102.000001945496,0|8,0:0|0:0,0:0:0:0:
328,284,165667,1,8,0:0:0:0:
328,238,165784,1,8,0:0:0:0:
328,192,165901,1,8,0:0:0:0:
123,192,166135,1,8,0:0:0:0:
123,192,166370,1,8,0:0:0:0:
208,64,166604,2,0,P|252:44|300:68,1,102.000001945496,0|8,0:0|0:0,0:0:0:0:
256,192,167073,12,2,168714,0:0:0:0:
372,68,169182,6,0,P|340:144|396:224,1,153.000002918243,0|2,0:0|0:0,0:0:0:0:
456,260,169651,6,0,P|392:308|328:296,1,138.000002632141,2|12,0:0|0:0,0:0:0:0:
132,268,170120,2,0,P|196:220|260:232,1,138.000002632141,14|0,0:0|0:0,0:0:0:0:
88,356,170589,2,0,P|36:304|80:188,1,184.000003509522,2|0,0:0|0:0,0:0:0:0:
156,156,171057,2,0,B|216:163|255:145|280:95|280:95|352:154,1,207.000003948212,14|0,0:0|0:0,0:0:0:0:
404,212,171526,2,0,P|436:144|404:64,1,138.000002632141,2|4,0:0|0:0,0:0:0:0:
288,244,171995,2,0,P|256:312|288:392,1,138.000002632141,14|0,0:0|0:0,0:0:0:0:
260,156,172464,6,0,P|224:68|112:56,1,207.000003948212,2|0,0:0|0:0,0:0:0:0:
36,112,172932,2,0,B|76:152|76:208|40:252|40:252|96:300,1,207.000003948212,14|0,0:0|0:0,0:0:0:0:
168,344,173401,2,0,P|245:364|313:317,1,138.000002632141,2|0,0:0|0:0,0:0:0:0:
360,148,173870,2,0,P|336:228|352:280,1,138.000002632141,14|0,0:0|0:0,0:0:0:0:
448,96,174339,6,0,P|408:56|308:56,1,138.000002632141,2|0,0:0|0:0,0:0:0:0:
124,76,174807,2,0,P|64:136|84:248,1,184.000003509522,14|0,0:0|0:0,0:0:0:0:
164,312,175276,2,0,L|208:252,1,69.0000013160706,2|0,0:0|0:0,0:0:0:0:
320,244,175510,2,0,L|276:304,1,69.0000013160706
256,188,175745,2,0,P|339:164|390:202,1,138.000002632141,14|0,0:0|0:0,0:0:0:0:
320,332,176214,5,2,0:0:0:0:
444,276,176448,2,0,P|480:208|448:120,1,138.000002632141,0|14,0:0|0:0,0:0:0:0:
412,68,176799,2,0,P|352:40|256:64,1,138.000002632141,0|0,0:0|0:0,0:0:0:0:
184,84,177151,2,0,P|104:116|36:92,1,138.000002632141,2|4,0:0|0:0,0:0:0:0:
244,192,177620,2,0,P|300:232|316:320,1,138.000002632141,14|0,0:0|0:0,0:0:0:0:
116,344,178089,5,2,0:0:0:0:
40,152,178323,2,0,P|52:120|82:99,1,69.0000013160706
184,84,178557,2,0,P|312:116|384:76,1,207.000003948212,14|0,0:0|0:0,0:0:0:0:
460,28,179026,2,0,P|472:108|416:176,1,138.000002632141,2|0,0:0|0:0,0:0:0:0:
336,332,179495,2,0,P|324:252|380:184,1,138.000002632141,14|0,0:0|0:0,0:0:0:0:
460,28,179964,5,2,0:0:0:0:
248,60,180198,2,0,P|200:72|164:104,1,69.0000013160706
100,144,180432,2,0,P|68:208|148:320,1,207.000003948212,14|0,0:0|0:0,0:0:0:0:
236,324,180901,2,0,P|291:280|295:213,1,138.000002632141,2|0,0:0|0:0,0:0:0:0:
100,144,181370,1,14,0:0:0:0:
316,120,181604,2,0,B|319:135|319:135|367:111|367:111|419:155,1,138.000002632141,0|2,0:0|0:0,0:0:0:0:
200,216,182073,5,0,0:0:0:0:
400,260,182307,1,14,0:0:0:0:
100,144,182542,1,0,0:0:0:0:
396,48,182776,1,2,0:0:0:0:
116,336,183010,1,2,0:0:0:0:
464,144,183245,2,0,P|396:168|320:136,1,138.000002632141,14|0,0:0|0:0,0:0:0:0:
60,252,183714,6,0,P|140:320|244:296,1,207.000003948212,6|0,0:0|0:0,0:0:0:0:
344,264,184182,2,0,B|364:208|404:184|472:188|472:188|460:128,1,207.000003948212,14|10,0:0|0:0,0:0:0:0:
396,48,184651,2,0,P|320:20|268:48,1,138.000002632141,2|0,0:0|0:0,0:0:0:0:
44,144,185120,2,0,P|120:172|172:144,1,138.000002632141,14|0,0:0|0:0,0:0:0:0:
396,48,185589,5,2,0:0:0:0:
448,272,185823,2,0,P|428:240|380:216,1,69.0000013160706
288,176,186057,2,0,P|216:192|148:324,1,207.000003948212,14|8,0:0|0:0,0:0:0:0:
256,356,186526,2,0,P|272:320|272:272,2,69.0000013160706,14|0|0,0:0|0:0|0:0,0:0:0:0:
256,28,186995,2,0,P|240:64|240:112,2,69.0000013160706,14|0|0,0:0|0:0|0:0,0:0:0:0:
464,176,187464,6,0,P|368:223|288:176,1,207.000003948212,2|0,0:0|0:0,0:0:0:0:
208,116,187932,2,0,P|120:69|32:117,1,207.000003948212,14|8,0:0|0:0,0:0:0:0:
52,220,188401,2,0,P|112:248|196:196,1,138.000002632141,8|0,0:0|0:0,0:0:0:0:
464,176,188870,2,0,P|384:140|316:188,1,138.000002632141,14|8,0:0|0:0,0:0:0:0:
124,324,189339,6,0,L|160:196,1,69.0000013160706,2|0,0:0|0:0,0:0:0:0:
72,152,189573,2,0,L|36:280,1,69.0000013160706
124,324,189807,2,0,P|193:348|260:322,1,138.000002632141,14|0,0:0|0:0,0:0:0:0:
463,174,190276,6,0,L|428:116,1,69.0000013160706,2|0,0:0|0:0,0:0:0:0:
384,248,190510,2,0,L|422:305,2,69.0000013160706,0|0|14,0:0|0:0|0:0,0:0:0:0:
252,60,190979,1,0,0:0:0:0:
92,68,191214,5,4,0:0:0:0:
128,152,191448,2,0,P|192:208|252:196,1,120,2|0,0:0|0:0,0:0:0:0:
288,192,191799,2,0,P|352:140|412:152,1,120,2|0,0:0|0:0,0:0:0:0:
448,156,192151,2,0,L|420:288,1,120,2|0,0:0|0:0,0:0:0:0:
264,308,192620,2,0,L|292:176,2,120,2|0|2,0:0|0:0|0:0,0:0:0:0:
132,300,193323,6,0,L|76:244,1,60,2|0,0:0|0:0,0:0:0:0:
44,208,193557,2,0,P|39:126|127:70,1,180,2|0,0:0|0:0,0:0:0:0:
176,88,194026,2,0,P|240:120|312:100,1,120,2|0,0:0|0:0,0:0:0:0:
400,52,194495,2,0,P|420:104|388:188,1,120,2|0,0:0|0:0,0:0:0:0:
276,184,194964,5,2,0:0:0:0:
176,88,195198,2,0,L|120:140,1,60,2|0,0:0|0:0,0:0:0:0:
92,180,195432,2,0,P|93:265|188:329,1,180,2|0,0:0|0:0,0:0:0:0:
228,328,195901,2,0,P|324:300|368:320,2,120,0|2|0,0:0|0:0|0:0,0:0:0:0:
412,352,196604,2,0,P|420:276|380:228,1,120,0|0,0:0|0:0,0:0:0:0:
243,101,197073,5,2,0:0:0:0:
268,282,197307,1,2,0:0:0:0:
356,84,197542,1,2,0:0:0:0:
156,300,197776,1,2,0:0:0:0:
420,192,198010,1,2,0:0:0:0:
100,192,198245,6,0,B|152:191|152:191|176:163|176:163|196:227|196:227|212:191|212:191|272:191,1,240,2|0,0:0|0:0,0:0:0:0:
