osu file format v13

[General]
AudioFilename: LUVORATORRRRRY.mp3
AudioLeadIn: 0
PreviewTime: 121839
Countdown: 0
SampleSet: Soft
StackLeniency: 0.7
Mode: 0
LetterboxInBreaks: 0
EpilepsyWarning: 1
WidescreenStoryboard: 0

[Editor]
Bookmarks: 104026,136839
DistanceSpacing: 1.3
BeatDivisor: 4
GridSize: 4
TimelineZoom: 1

[Metadata]
Title:LUVORATORRRRRY!
TitleUnicode:LUVORATORRRRRY!
Artist:Giga-P
ArtistUnicode:Giga-P
Creator:Selisi
Version:Hard
Source:
Tags:Megpoid Gumi Kagamine Rin Reol VOCALOID LABORATORY Dance Hollow Wings Sweet Vanilla
BeatmapID:384395
BeatmapSetID:153206

[Difficulty]
HPDrainRate:6
CircleSize:4
OverallDifficulty:6
ApproachRate:7
SliderMultiplier:1.8
SliderTickRate:1

[Events]
//Background and Video events
0,0,"background.jpg",0,0
//Break Periods
2,107039,113439
2,137039,150939
//Storyboard Layer 0 (Background)
//Storyboard Layer 1 (Fail)
//Storyboard Layer 2 (Pass)
//Storyboard Layer 3 (Foreground)
//Storyboard Sound Samples
//Background Colour Transformations
3,100,163,162,255

[TimingPoints]
1839,468.75,4,2,0,40,1,0
8870,-100,4,2,2,40,0,0
9339,-100,4,2,2,100,0,0
15198,-100,4,2,3,80,0,0
15667,-100,4,2,2,80,0,0
16253,-100,4,2,2,80,0,0
16604,-100,4,2,1,80,0,0
46370,-100,4,2,1,80,0,0
60901,-100,4,2,1,40,0,0
61839,-100,4,2,4,80,0,0
75198,-100,4,2,4,80,0,0
75667,-100,4,2,4,80,0,0
76839,-100,4,2,1,70,0,0
106605,-100,4,2,2,70,0,0
114339,-100,4,2,1,70,0,0
121839,-86.9565217391304,4,2,2,100,0,1
136839,-86.9565217391304,4,2,2,40,0,0
153714,-100,4,2,4,40,0,0
169651,-86.9565217391304,4,2,2,100,0,0
169885,-86.9565217391304,4,2,2,100,0,1
183596,-86.9565217391304,4,2,2,100,0,0
183714,-86.9565217391304,4,2,2,100,0,1
191214,-100,4,2,2,40,0,0
198245,-50,4,2,4,40,0,0

[Colours]
Combo1 : 128,128,192
Combo2 : 203,236,19
Combo3 : 0,166,83
Combo4 : 248,198,67
SliderBorder : 50,50,50

[HitObjects]
92,116,1839,6,0,P|128:68|192:60,1,90,2|0,0:0|0:0,0:0:0:0:
264,64,2307,1,0,0:0:0:0:
264,64,2424,2,0,P|308:86|368:80,1,90,0|2,0:0|0:0,0:0:0:0:
456,100,2893,1,0,0:0:0:0:
456,100,3010,2,0,L|436:192,1,90,0|0,0:0|0:0,0:0:0:0:
412,292,3479,1,2,0:0:0:0:
312,336,3714,6,0,P|268:348|220:336,1,90,0|0,0:0|0:0,0:0:0:0:
124,304,4182,1,2,0:0:0:0:
68,212,4417,1,0,0:0:0:0:
68,212,4534,2,0,P|76:144|120:112,1,90
132,96,4885,2,0,P|196:68|244:88,1,90,2|2,0:0|0:0,0:0:0:0:
320,76,5354,1,0,0:0:0:0:
416,128,5589,6,0,P|432:76|420:36,1,90,2|0,0:0|0:0,0:0:0:0:
320,76,6057,1,0,0:0:0:0:
320,76,6174,2,0,P|304:128|316:168,1,90,0|2,0:0|0:0,0:0:0:0:
384,240,6643,1,0,0:0:0:0:
384,240,6760,2,0,P|384:296|356:336,1,90
260,336,7229,1,2,0:0:0:0:
192,252,7464,6,0,P|260:228|286:234,1,90,0|0,0:0|0:0,0:0:0:0:
260,336,7932,1,2,0:0:0:0:
152,344,8167,1,0,0:0:0:0:
152,344,8284,2,0,P|100:296|100:260,1,90
96,228,8635,2,0,P|120:180|168:156,1,90,2|8,0:0|0:0,0:0:0:0:
260,104,9104,1,2,0:0:0:0:
376,128,9339,6,0,P|424:156|448:200,1,90,10|0,0:0|0:0,0:0:0:0:
368,296,9807,2,0,P|353:242|367:194,1,90,14|0,0:0|0:0,0:0:0:0:
452,284,10276,2,0,P|440:348|392:380,1,90,2|0,0:0|0:0,0:0:0:0:
308,356,10745,1,14,0:0:0:0:
200,312,10979,1,2,0:0:0:0:
200,312,11096,1,0,0:0:0:0:
200,312,11214,6,0,P|132:292|88:304,1,90,10|0,0:0|0:0,0:0:0:0:
4,336,11682,1,14,0:0:0:0:
52,220,11917,2,0,L|28:264,1,45,0|2,0:0|0:0,0:0:0:0:
24,132,12268,2,0,L|45:92,1,45,2|2,0:0|0:0,0:0:0:0:
168,64,12620,2,0,P|216:56|276:92,1,90,14|0,0:0|0:0,0:0:0:0:
336,164,13089,6,0,P|292:176|240:164,1,90,10|0,0:0|0:0,0:0:0:0:
420,136,13557,2,0,P|425:180|407:220,1,90,14|0,0:0|0:0,0:0:0:0:
336,332,14026,2,0,P|376:350|421:348,1,90,10|0,0:0|0:0,0:0:0:0:
404,220,14495,1,14,0:0:0:0:
288,224,14729,1,2,0:0:0:0:
288,224,14846,1,0,0:0:0:0:
288,224,14964,6,0,P|240:208|216:160,1,90,0|10,0:0|0:0,0:0:0:0:
196,64,15432,1,10,0:0:0:0:
312,56,15667,2,0,L|372:56,1,45,0|2,0:0|2:0,0:0:0:0:
444,132,16018,2,0,L|399:132,1,45,2|2,0:0|0:0,0:0:0:0:
280,140,16370,1,14,0:0:0:0:
163,140,16604,1,0,0:0:0:0:
80,222,16839,6,0,L|118:244,1,45,6|0,0:0|0:0,0:0:0:0:
168,273,17073,2,0,P|226:280|266:246,1,90,0|10,0:0|0:0,0:0:0:0:
352,208,17542,1,0,0:0:0:0:
444,276,17776,2,0,L|484:304,2,45,6|0|0,0:0|0:0|0:0,0:0:0:0:
352,208,18245,1,10,0:0:0:0:
252,152,18479,2,0,L|195:116,1,45
160,104,18714,6,0,P|73:108|8:196,1,180,6|10,0:0|0:0,0:0:0:0:
88,264,19417,1,0,0:0:0:0:
204,276,19651,2,0,P|290:271|360:188,1,180,6|10,0:0|0:0,0:0:0:0:
404,112,20354,1,0,0:0:0:0:
436,216,20589,6,0,L|456:308,1,90,6|0,0:0|0:0,0:0:0:0:
354,212,21057,2,0,L|375:301,1,90,10|0,0:0|0:0,0:0:0:0:
272,208,21526,2,0,L|294:300,1,90,6|0,0:0|0:0,0:0:0:0:
184,224,21995,2,0,P|188:176|240:132,1,90,10|0,0:0|0:0,0:0:0:0:
304,84,22464,6,0,L|360:116,1,45,6|0,0:0|0:0,0:0:0:0:
388,76,22698,2,0,L|444:108,1,45
472,132,22932,2,0,P|488:184|444:244,1,90,10|0,0:0|0:0,0:0:0:0:
352,272,23401,2,0,L|296:240,1,45,6|0,0:0|0:0,0:0:0:0:
268,280,23635,2,0,L|212:248,1,45
184,224,23869,2,0,P|168:172|212:112,1,90,10|0,0:0|0:0,0:0:0:0:
76,88,24339,6,0,L|108:40,2,45,6|0|0,0:0|0:0|0:0,0:0:0:0:
52,140,24690,1,0,0:0:0:0:
40,196,24807,2,0,P|48:268|92:300,1,90,10|0,0:0|0:0,0:0:0:0:
184,224,25276,2,0,L|132:248,2,45,6|0|0,0:0|0:0|0:0,0:0:0:0:
240,212,25628,1,0,0:0:0:0:
300,216,25745,2,0,P|341:222|384:261,1,90,10|0,0:0|0:0,0:0:0:0:
480,344,26214,6,0,L|432:288,1,45,6|0,0:0|0:0,0:0:0:0:
460,260,26448,2,0,L|485:208,1,45
480,172,26682,2,0,P|472:112|436:80,1,90,10|0,0:0|0:0,0:0:0:0:
324,60,27151,2,0,L|268:88,1,45,6|0,0:0|0:0,0:0:0:0:
228,80,27385,2,0,L|188:60,2,45,0|0|10,0:0|0:0|0:0,0:0:0:0:
124,28,27854,1,0,0:0:0:0:
80,129,28089,6,0,L|80:210,1,45,6|0,0:0|0:0,0:0:0:0:
123,213,28323,2,0,L|122:265,1,45
132,316,28557,2,0,P|176:332|220:316,1,90,10|0,0:0|0:0,0:0:0:0:
316,256,29026,2,0,P|344:224|348:172,1,90,6|0,0:0|0:0,0:0:0:0:
332,64,29495,1,8,0:0:0:0:
124,212,29729,2,0,L|68:268,2,45,0|0|6,0:0|0:0|0:0,0:0:0:0:
203,129,30198,6,0,P|192:52|160:32,1,90,0|10,0:0|0:0,0:0:0:0:
88,112,30667,2,0,L|48:168,1,45
24,196,30901,2,0,P|35:273|67:293,1,90,6|0,0:0|0:0,0:0:0:0:
152,320,31370,1,10,0:0:0:0:
264,292,31604,2,0,L|352:256,1,90,0|6,0:0|0:0,0:0:0:0:
420,164,32073,6,0,P|420:112|368:64,1,90,0|10,0:0|0:0,0:0:0:0:
348,56,32424,2,0,P|276:60|252:84,1,90
216,100,32776,2,0,P|140:120|108:104,1,90,6|0,0:0|0:0,0:0:0:0:
36,52,33245,1,10,0:0:0:0:
28,168,33479,2,0,P|12:236|24:260,1,90,0|6,0:0|0:0,0:0:0:0:
116,316,33948,6,0,P|182:318|214:291,1,90,0|10,0:0|0:0,0:0:0:0:
252,276,34299,2,0,P|272:225|262:186,1,90
236,144,34651,2,0,P|196:116|152:120,1,90,6|0,0:0|0:0,0:0:0:0:
28,168,35120,1,10,0:0:0:0:
140,200,35354,2,0,P|164:160|152:112,1,90,0|6,0:0|0:0,0:0:0:0:
80,32,35823,6,0,P|128:44|188:16,1,90,0|10,0:0|0:0,0:0:0:0:
224,36,36174,2,0,P|280:36|316:64,1,90
348,96,36526,2,0,P|368:156|352:188,1,90,6|0,0:0|0:0,0:0:0:0:
304,284,36995,1,10,0:0:0:0:
420,284,37229,1,0,0:0:0:0:
360,180,37464,5,6,0:0:0:0:
360,180,37698,1,0,0:0:0:0:
244,164,37932,1,10,0:0:0:0:
244,164,38167,1,0,0:0:0:0:
200,272,38401,1,6,0:0:0:0:
200,272,38635,1,0,0:0:0:0:
84,264,38870,2,0,P|56:200|64:160,1,90,10|0,0:0|0:0,0:0:0:0:
104,76,39339,5,6,0:0:0:0:
220,56,39573,2,0,L|312:56,1,90,0|10,0:0|0:0,0:0:0:0:
344,104,39924,2,0,L|456:104,1,90
456,156,40276,2,0,L|400:264,1,90,6|0,0:0|0:0,0:0:0:0:
384,288,40628,2,0,L|412:344,1,45,0|10,0:0|0:0,0:0:0:0:
288,332,40979,2,0,L|240:252,1,90,0|6,0:0|0:0,0:0:0:0:
172,160,41448,6,0,L|172:64,1,90,0|10,0:0|0:0,0:0:0:0:
172,11,41799,2,0,L|80:60,1,90
92,112,42151,2,0,L|92:228,1,90,6|0,0:0|0:0,0:0:0:0:
52,244,42503,2,0,L|52:312,1,45,0|10,0:0|0:0,0:0:0:0:
164,324,42854,1,0,0:0:0:0:
248,240,43089,6,0,P|304:208|336:208,1,90,6|0,0:0|0:0,0:0:0:0:
444,192,43557,1,10,0:0:0:0:
444,192,43792,1,0,0:0:0:0:
388,88,44026,2,0,P|308:60|212:88,1,180,6|10,0:0|0:0,0:0:0:0:
164,188,44729,6,0,P|208:204|256:188,2,90,0|6|0,0:0|0:0|0:0,0:0:0:0:
88,100,45432,1,10,0:0:0:0:
40,208,45667,1,0,0:0:0:0:
108,304,45901,2,0,P|176:280|232:312,1,135,2|0,0:0|0:0,0:0:0:0:
283,307,46370,2,0,P|343:279|404:304,1,135,10|0,0:0|0:0,0:0:0:0:
448,344,46839,1,0,0:0:0:0:
256,192,46956,12,8,54339,0:0:0:0:
356,256,54807,6,0,P|380:200|348:128,1,135,8|8,0:0|0:0,0:0:0:0:
200,212,55510,2,0,P|216:268|248:284,1,90,8|8,0:0|0:0,0:0:0:0:
296,200,55979,1,8,0:0:0:0:
224,120,56214,2,0,P|144:76|48:140,1,180,8|8,0:0|0:0,0:0:0:0:
64,216,56917,2,0,L|79:258,1,45,8|8,0:0|0:0,0:0:0:0:
184,256,57268,2,0,L|200:212,1,45,8|8,0:0|0:0,0:0:0:0:
224,120,57620,1,8,0:0:0:0:
224,120,57854,1,8,0:0:0:0:
324,80,58089,6,0,P|401:104|424:200,1,180,8|8,0:0|0:0,0:0:0:0:
296,292,58909,2,0,P|288:224|336:176,1,135,8|8,0:0|0:0,0:0:0:0:
400,260,59495,1,8,0:0:0:0:
400,260,59729,1,8,0:0:0:0:
296,292,59964,2,0,P|252:300|216:340,1,90,8|8,0:0|0:0,0:0:0:0:
112,330,60432,2,0,P|76:302|76:230,1,90,8|8,0:0|0:0,0:0:0:0:
56,144,60901,2,0,L|88:96,3,45,2|2|2|2,0:0|0:0|0:0|0:0,0:0:0:0:
116,68,61370,2,0,P|192:44|232:68,1,90,0|0,0:0|0:0,0:0:0:0:
312,52,61839,6,0,L|310:141,1,90,2|0,0:0|0:0,0:0:0:0:
310,258,62307,1,2,0:0:0:0:
428,240,62542,2,0,L|427:190,2,45,0|0|2,0:0|0:0|0:0,0:0:0:0:
356,332,63010,2,0,P|308:344|248:320,1,90,0|2,0:0|0:0,0:0:0:0:
152,316,63479,1,0,0:0:0:0:
152,316,63596,1,0,0:0:0:0:
152,316,63714,1,2,0:0:0:0:
152,199,63948,6,0,L|152:104,1,90,0|2,0:0|0:0,0:0:0:0:
48,164,64417,2,0,L|48:268,1,90,0|2,0:0|0:0,0:0:0:0:
152,200,64885,2,0,L|232:128,1,90,0|2,0:0|0:0,0:0:0:0:
304,56,65354,2,0,L|180:56,1,90,0|2,0:0|0:0,0:0:0:0:
296,140,65823,2,0,L|392:140,1,90,0|2,0:0|0:0,0:0:0:0:
476,64,66292,2,0,L|476:180,1,90,0|2,0:0|0:0,0:0:0:0:
460,268,66760,2,0,L|460:326,2,45,0|0|2,0:0|0:0|0:0,0:0:0:0:
368,192,67229,2,0,L|276:124,1,90,0|2,0:0|0:0,0:0:0:0:
188,88,67698,6,0,P|176:140|184:180,1,90,0|2,0:0|0:0,0:0:0:0:
260,264,68167,1,0,0:0:0:0:
160,328,68401,2,0,L|116:296,3,45,2|0|0|0,0:0|0:0|0:0|0:0,0:0:0:0:
84,260,68870,2,0,P|56:208|64:168,1,90,2|0,0:0|0:0,0:0:0:0:
96,72,69339,5,8,0:0:0:0:
212,72,69573,1,0,0:0:0:0:
329,72,69808,2,0,L|419:72,1,90,8|0,0:0|0:0,0:0:0:0:
336,154,70276,2,0,L|256:240,2,90,8|0|8,0:0|0:0|0:0,0:0:0:0:
416,236,70979,1,0,0:0:0:0:
416,236,71096,1,0,0:0:0:0:
416,236,71214,6,0,L|336:322,1,90,8|0,0:0|0:0,0:0:0:0:
237,301,71682,1,8,0:0:0:0:
119,301,71917,2,8,L|120:204,1,90,0|8,0:0|0:0,0:0:0:0:
36,128,72385,2,0,L|36:248,1,90,0|8,0:0|0:0,0:0:0:0:
116,132,72854,6,0,P|168:144|196:192,1,90,0|8,0:0|0:0,0:0:0:0:
316,164,73323,2,0,P|284:208|212:216,1,90,0|8,0:0|0:0,0:0:0:0:
232,104,73792,2,0,P|272:68|324:60,1,90,0|8,0:0|0:0,0:0:0:0:
422,59,74260,1,0,0:0:0:0:
422,59,74378,1,8,0:0:0:0:
422,59,74495,1,8,0:0:0:0:
422,175,74729,2,0,L|472:252,1,90,0|8,0:0|0:0,0:0:0:0:
396,340,75198,6,0,L|370:303,1,45
324,264,75432,2,0,P|268:236|208:252,1,90,8|0,0:0|0:0,0:0:0:0:
132,276,75901,1,8,0:0:0:0:
40,204,76135,1,8,0:0:0:0:
40,204,76253,1,8,0:0:0:0:
40,204,76370,2,0,P|44:128|76:100,1,90
148,56,76839,6,0,L|196:80,3,45,6|0|0|0,0:0|0:0|0:0|0:0,0:0:0:0:
244,96,77307,2,0,P|292:108|356:80,1,90,10|0,0:0|0:0,0:0:0:0:
444,68,77776,2,0,L|408:176,1,90,6|0,0:0|0:0,0:0:0:0:
376,264,78245,2,0,L|408:312,2,45,10|0|0,0:0|0:0|0:0,0:0:0:0:
260,292,78714,2,0,L|262:336,2,45,6|0|0,0:0|0:0|0:0,0:0:0:0:
144,284,79182,2,0,L|124:324,2,45,10|0|0,0:0|0:0|0:0,0:0:0:0:
72,192,79651,2,0,L|24:224,2,45,6|0|0,0:0|0:0|0:0,0:0:0:0:
148,104,80120,2,0,P|136:60|100:24,1,90,10|0,0:0|0:0,0:0:0:0:
32,116,80589,6,0,P|40:160|72:192,1,90,6|0,0:0|0:0,0:0:0:0:
131,190,80940,2,0,L|192:192,1,45,0|10,0:0|0:0,0:0:0:0:
293,191,81292,1,0,0:0:0:0:
409,191,81526,2,0,P|448:224|452:280,1,90,6|0,0:0|0:0,0:0:0:0:
440,316,81878,2,0,L|416:356,1,45,0|10,0:0|0:0,0:0:0:0:
300,354,82229,2,0,L|276:315,1,45
240,272,82464,6,0,P|184:244|132:260,1,90,6|0,0:0|0:0,0:0:0:0:
52,292,82932,1,10,0:0:0:0:
158,246,83167,1,0,0:0:0:0:
196,136,83401,2,0,P|180:92|132:64,1,90,6|0,0:0|0:0,0:0:0:0:
87,67,83753,2,0,L|7:67,1,45,0|10,0:0|0:0,0:0:0:0:
60,184,84104,1,0,0:0:0:0:
158,246,84339,6,0,P|232:244|264:208,1,90,6|0,0:0|0:0,0:0:0:0:
360,232,84807,2,0,P|355:276|327:310,1,90,10|0,0:0|0:0,0:0:0:0:
408,136,85276,2,0,P|443:162|459:203,1,90,6|0,0:0|0:0,0:0:0:0:
304,152,85745,2,0,P|263:169|219:162,1,90,10|0,0:0|0:0,0:0:0:0:
88,44,86214,2,0,P|116:116|144:128,1,90,6|0,0:0|0:0,0:0:0:0:
264,52,86682,2,0,P|187:40|163:58,1,90,10|0,0:0|0:0,0:0:0:0:
40,200,87151,2,0,P|116:211|140:193,1,90,6|0,0:0|0:0,0:0:0:0:
232,164,87620,1,10,0:0:0:0:
232,164,88089,6,0,P|248:228|292:256,1,90,6|0,0:0|0:0,0:0:0:0:
322,243,88440,2,0,L|384:244,1,45,0|10,0:0|0:0,0:0:0:0:
424,348,88792,2,0,L|456:284,1,45
468,256,89026,2,0,P|472:200|448:160,1,90,6|0,0:0|0:0,0:0:0:0:
384,80,89495,2,0,P|328:56|272:72,1,90,10|0,0:0|0:0,0:0:0:0:
184,76,89964,6,0,P|112:124|72:116,1,90,6|0,0:0|0:0,0:0:0:0:
48,220,90432,2,0,L|20:264,2,45,10|0|0,0:0|0:0|0:0,0:0:0:0:
164,220,90901,2,0,P|220:256|272:252,1,90,6|0,0:0|0:0,0:0:0:0:
348,208,91370,2,0,L|324:276,2,45,4|0|4,0:0|0:0|0:0,0:0:0:0:
396,88,91839,6,0,P|435:107|461:144,1,90,6|0,0:0|0:0,0:0:0:0:
464,260,92307,2,0,L|428:304,3,45,10|0|0|0,0:0|0:0|0:0|0:0,0:0:0:0:
388,332,92776,2,0,P|344:348|288:316,1,90,6|0,0:0|0:0,0:0:0:0:
192,304,93245,1,10,0:0:0:0:
192,304,93714,6,0,L|236:228,1,45,6|0,0:0|0:0,0:0:0:0:
320,212,94065,2,0,L|276:288,1,45,0|10,0:0|0:0,0:0:0:0:
196,184,94417,2,0,L|240:108,1,45
256,100,94651,2,0,P|300:84|344:96,1,90,6|0,0:0|0:0,0:0:0:0:
452,128,95120,1,10,0:0:0:0:
272,276,95589,6,0,P|201:247|181:207,1,90,6|0,0:0|0:0,0:0:0:0:
256,99,96057,2,0,P|274:147|258:183,1,90,10|0,0:0|0:0,0:0:0:0:
110,202,96526,2,0,P|147:149|183:143,1,90,6|0,0:0|0:0,0:0:0:0:
320,164,96995,1,10,0:0:0:0:
320,164,97464,6,0,P|356:192|432:180,1,90,6|0,0:0|0:0,0:0:0:0:
336,56,97932,2,0,L|252:100,1,90,10|0,0:0|0:0,0:0:0:0:
156,212,98401,2,0,L|252:172,1,90,6|0,0:0|0:0,0:0:0:0:
392,112,98870,1,10,0:0:0:0:
440,340,99339,6,0,P|400:276|376:268,1,90,6|0,0:0|0:0,0:0:0:0:
272,284,99807,2,0,L|224:296,3,45,10|0|0|0,0:0|0:0|0:0|0:0,0:0:0:0:
172,304,100276,2,0,P|112:296|76:248,1,90,6|0,0:0|0:0,0:0:0:0:
116,132,100745,2,0,L|156:212,1,90,10|0,0:0|0:0,0:0:0:0:
272,284,101214,6,0,L|248:232,1,45,6|0,0:0|0:0,0:0:0:0:
268,108,101565,2,0,L|292:160,1,45,0|10,0:0|0:0,0:0:0:0:
404,216,101917,1,0,0:0:0:0:
404,216,102034,1,0,0:0:0:0:
404,216,102151,2,0,P|468:180|472:132,1,90,6|0,0:0|0:0,0:0:0:0:
456,36,102620,2,0,P|400:64|388:120,1,90,10|0,0:0|0:0,0:0:0:0:
404,216,103089,6,0,L|472:308,1,90,6|0,0:0|0:0,0:0:0:0:
312,236,103557,2,0,L|380:328,1,90,10|0,0:0|0:0,0:0:0:0:
220,252,104026,2,0,L|264:320,2,45,6|0|0,0:0|0:0|0:0,0:0:0:0:
140,120,104495,2,0,P|96:164|40:164,1,90,10|0,0:0|0:0,0:0:0:0:
208,44,104964,6,0,L|304:44,1,90,6|0,0:0|0:0,0:0:0:0:
408,120,105432,2,0,L|318:120,1,90,10|0,0:0|0:0,0:0:0:0:
212,204,105901,2,0,L|296:204,2,45,2|0|0,0:0|0:0|0:0,0:0:0:0:
76,204,106370,1,10,0:0:0:0:
356,200,106839,5,14,0:0:0:0:
320,120,114339,5,8,0:0:0:0:
204,92,114573,1,0,0:0:0:0:
92,124,114807,2,0,P|40:172|44:244,1,135,8|8,0:0|0:0,0:0:0:0:
176,340,115510,1,8,0:0:0:0:
288,300,115745,1,8,0:0:0:0:
300,176,115979,1,8,0:0:0:0:
288,300,116214,5,8,0:0:0:0:
396,244,116448,1,0,0:0:0:0:
300,176,116682,2,0,P|276:128|312:64,1,90,8|8,0:0|0:0,0:0:0:0:
320,48,117034,1,8,0:0:0:0:
396,244,117385,1,8,0:0:0:0:
288,300,117620,2,0,P|236:312|192:300,1,90
100,256,118088,5,8,0:0:0:0:
68,96,118323,2,0,P|81:137|126:173,1,90,0|8,0:0|0:0,0:0:0:0:
169,189,118674,2,0,P|224:191|280:156,1,90,0|8,0:0|0:0,0:0:0:0:
308,152,119026,1,0,0:0:0:0:
368,52,119260,1,8,0:0:0:0:
436,148,119495,1,8,0:0:0:0:
256,192,119729,12,0,121370,0:0:0:0:
296,276,121839,6,0,P|256:328|216:340,1,103.500001974106,6|0,0:0|0:0,0:0:0:0:
100,280,122307,2,0,P|96:204|168:128,1,155.250002961159,14|0,0:0|0:0,0:0:0:0:
208,136,122776,2,0,L|308:176,1,103.500001974106,2|0,0:0|0:0,0:0:0:0:
332,44,123245,2,0,L|428:82,1,103.500001974106,14|0,0:0|0:0,0:0:0:0:
404,256,123714,6,0,P|420:200|464:172,1,103.500001974106,2|0,0:0|0:0,0:0:0:0:
484,308,124182,2,0,P|432:344|336:320,1,155.250002961159,14|0,0:0|0:0,0:0:0:0:
280,308,124651,2,0,B|224:300|224:300|172:320,1,103.500001974106,2|0,0:0|0:0,0:0:0:0:
48,292,125120,2,0,L|172:224,1,103.500001974106,14|0,0:0|0:0,0:0:0:0:
136,108,125589,6,0,P|157:154|199:183,1,103.500001974106,2|0,0:0|0:0,0:0:0:0:
332,152,126057,2,0,P|311:106|269:77,1,103.500001974106,14|0,0:0|0:0,0:0:0:0:
200,184,126526,2,0,P|132:216|76:196,1,103.500001974106,2|0,0:0|0:0,0:0:0:0:
40,88,126995,2,0,P|103:85|137:111,1,103.500001974106,14|0,0:0|0:0,0:0:0:0:
40,284,127464,6,0,P|68:232|112:212,1,103.500001974106,2|0,0:0|0:0,0:0:0:0:
252,268,127932,2,0,P|213:234|199:185,1,103.500001974106,14|0,0:0|0:0,0:0:0:0:
224,124,128284,2,0,L|243:76,1,51.7500009870529,0|2,0:0|0:0,0:0:0:0:
380,80,128635,1,0,0:0:0:0:
376,216,128870,2,0,P|324:240|260:228,1,103.500001974106,14|0,0:0|0:0,0:0:0:0:
160,184,129339,1,2,0:0:0:0:
68,112,129573,6,0,L|108:248,1,103.500001974106,0|14,0:0|0:0,0:0:0:0:
160,184,129924,2,0,L|188:288,1,103.500001974106
252,268,130276,2,0,P|308:236|376:248,1,103.500001974106,2|0,0:0|0:0,0:0:0:0:
460,308,130745,2,0,P|404:340|336:328,1,103.500001974106,14|0,0:0|0:0,0:0:0:0:
232,344,131214,5,2,0:0:0:0:
144,240,131448,1,0,0:0:0:0:
144,104,131682,2,0,P|192:48|244:48,1,103.500001974106,14|0,0:0|0:0,0:0:0:0:
100,172,132151,2,0,P|56:192|4:176,1,103.500001974106,2|0,0:0|0:0,0:0:0:0:
184,172,132620,2,0,P|240:216|248:256,1,103.500001974106,14|0,0:0|0:0,0:0:0:0:
244,380,133089,5,2,0:0:0:0:
356,304,133323,2,0,P|412:236|400:188,1,103.500001974106,0|14,0:0|0:0,0:0:0:0:
400,160,133674,2,0,P|384:108|408:52,1,103.500001974106
448,16,134026,1,2,0:0:0:0:
340,92,134260,1,0,0:0:0:0:
208,68,134495,1,14,0:0:0:0:
72,72,134729,2,0,P|32:112|28:160,1,103.500001974106,0|2,0:0|0:0,0:0:0:0:
76,284,135198,5,0,0:0:0:0:
204,328,135432,1,14,0:0:0:0:
336,292,135667,1,0,0:0:0:0:
368,156,135901,1,2,0:0:0:0:
256,80,136135,1,0,0:0:0:0:
144,156,136370,1,14,0:0:0:0:
336,292,136839,5,4,0:0:0:0:
256,192,151839,12,0,153245,0:0:0:0:
236,120,153714,6,0,L|328:120,1,90,0|0,0:0|0:0,0:0:0:0:
442,120,154182,1,2,0:0:0:0:
376,220,154417,2,0,L|448:220,2,45,0|0|2,0:0|0:0|0:0,0:0:0:0:
259,220,154885,2,0,L|128:220,1,90,0|2,0:0|0:0,0:0:0:0:
96,312,155354,1,0,0:0:0:0:
96,312,155471,1,0,0:0:0:0:
96,312,155589,1,2,0:0:0:0:
212,312,155823,6,0,L|312:312,1,90,0|2,0:0|0:0,0:0:0:0:
376,220,156292,2,0,L|440:136,1,90,0|2,0:0|0:0,0:0:0:0:
396,36,156760,2,0,L|332:120,1,90,0|2,0:0|0:0,0:0:0:0:
240,164,157229,6,0,P|204:184|124:160,1,90,0|2,0:0|0:0,0:0:0:0:
120,40,157698,2,0,P|168:72|180:100,1,90,0|2,0:0|0:0,0:0:0:0:
48,204,158167,2,0,P|88:140|116:136,1,90,0|2,0:0|0:0,0:0:0:0:
152,240,158635,2,0,L|152:296,2,45,0|0|2,0:0|0:0|0:0,0:0:0:0:
252,304,159104,6,0,P|212:368|184:372,1,90,0|2,0:0|0:0,0:0:0:0:
236,220,159573,2,0,P|284:196|324:200,1,90,0|2,0:0|0:0,0:0:0:0:
468,232,160042,1,0,0:0:0:0:
412,132,160276,2,0,L|352:80,3,45,2|0|0|0,0:0|0:0|0:0|0:0,0:0:0:0:
324,76,160745,2,0,P|264:52|212:64,1,90,2|0,0:0|0:0,0:0:0:0:
124,64,161214,5,8,0:0:0:0:
44,148,161448,2,0,P|28:208|48:252,1,90,0|8,0:0|0:0,0:0:0:0:
96,332,161917,1,0,0:0:0:0:
96,332,162034,1,8,0:0:0:0:
96,332,162151,1,8,0:0:0:0:
212,324,162385,1,8,0:0:0:0:
304,252,162620,1,8,0:0:0:0:
316,136,162854,1,8,0:0:0:0:
420,80,163089,5,8,0:0:0:0:
316,136,163323,2,0,P|248:132|208:96,1,90,0|8,0:0|0:0,0:0:0:0:
128,64,163792,1,0,0:0:0:0:
128,64,163909,1,8,0:0:0:0:
128,64,164026,1,8,0:0:0:0:
40,140,164260,1,8,0:0:0:0:
148,184,164495,1,8,0:0:0:0:
52,252,164729,1,8,0:0:0:0:
160,300,164964,6,0,P|216:320|268:304,1,90,8|0,0:0|0:0,0:0:0:0:
256,156,165432,2,0,L|216:236,1,90,8|0,0:0|0:0,0:0:0:0:
372,200,165901,2,0,L|412:120,1,90,8|0,0:0|0:0,0:0:0:0:
468,16,166370,1,8,0:0:0:0:
352,36,166604,1,8,0:0:0:0:
352,36,166721,1,0,0:0:0:0:
352,36,166839,1,8,0:0:0:0:
256,192,167073,12,14,168714,0:0:0:0:
164,272,169182,6,0,P|143:209|172:150,1,135,2|0,0:0|0:0,0:0:0:0:
232,104,169651,6,0,P|188:77|138:83,1,103.500001974106,2|4,0:0|0:0,0:0:0:0:
287,155,170120,2,0,P|338:155|378:122,1,103.500001974106,14|0,0:0|0:0,0:0:0:0:
476,28,170589,6,0,L|448:148,1,103.500001974106,2|0,0:0|0:0,0:0:0:0:
356,220,171057,2,0,L|384:100,1,103.500001974106,14|0,0:0|0:0,0:0:0:0:
488,200,171526,1,2,0:0:0:0:
356,220,171760,1,0,0:0:0:0:
488,200,171995,1,14,0:0:0:0:
428,320,172229,1,0,0:0:0:0:
292,316,172464,6,0,P|256:292|236:232,1,103.500001974106,2|0,0:0|0:0,0:0:0:0:
248,88,172932,2,0,P|220:136|132:164,1,103.500001974106,14|0,0:0|0:0,0:0:0:0:
48,136,173401,2,0,L|112:44,1,103.500001974106,2|0,0:0|0:0,0:0:0:0:
180,160,173870,2,0,L|116:252,1,103.500001974106,14|0,0:0|0:0,0:0:0:0:
36,352,174339,5,2,0:0:0:0:
168,328,174573,1,0,0:0:0:0:
304,324,174807,2,0,P|368:336|400:368,1,103.500001974106,14|0,0:0|0:0,0:0:0:0:
476,252,175276,2,0,L|448:304,2,51.7500009870529,2|0|0,0:0|0:0|0:0,0:0:0:0:
464,116,175745,1,14,0:0:0:0:
344,52,175979,2,0,P|284:32|244:40,1,103.500001974106,0|2,0:0|0:0,0:0:0:0:
224,172,176448,6,0,P|192:112|132:88,1,103.500001974106,0|14,0:0|0:0,0:0:0:0:
96,80,176799,2,0,P|52:100|20:160,1,103.500001974106
32,212,177151,2,0,P|64:252|128:264,1,103.500001974106,2|0,0:0|0:0,0:0:0:0:
304,224,177620,2,0,P|272:184|208:172,1,103.500001974106,14|0,0:0|0:0,0:0:0:0:
240,304,178089,5,2,0:0:0:0:
374,304,178323,1,0,0:0:0:0:
404,172,178557,2,0,P|392:104|420:52,1,103.500001974106,14|0,0:0|0:0,0:0:0:0:
272,108,179026,1,2,0:0:0:0:
403,73,179260,1,0,0:0:0:0:
272,108,179495,1,14,0:0:0:0:
140,124,179729,2,0,P|84:116|48:64,1,103.500001974106,0|2,0:0|0:0,0:0:0:0:
104,208,180198,6,0,P|84:268|36:296,1,103.500001974106,0|14,0:0|0:0,0:0:0:0:
108,328,180549,2,0,P|164:348|208:332,1,103.500001974106
264,304,180901,1,2,0:0:0:0:
396,292,181135,1,0,0:0:0:0:
356,164,181370,1,14,0:0:0:0:
500,132,181604,2,0,P|476:80|424:52,1,103.500001974106,0|2,0:0|0:0,0:0:0:0:
304,36,182073,5,0,0:0:0:0:
180,84,182307,1,14,0:0:0:0:
232,208,182542,1,0,0:0:0:0:
100,220,182776,1,2,0:0:0:0:
232,208,183010,1,0,0:0:0:0:
172,328,183245,1,14,0:0:0:0:
172,328,183714,6,0,P|244:308|300:344,1,103.500001974106,6|0,0:0|0:0,0:0:0:0:
404,328,184182,2,0,P|452:276|432:196,1,155.250002961159,14|8,0:0|0:0,0:0:0:0:
412,176,184651,2,0,P|400:124|432:80,1,103.500001974106,14|0,0:0|0:0,0:0:0:0:
308,148,185120,2,0,P|248:168|196:136,1,103.500001974106,14|0,0:0|0:0,0:0:0:0:
124,52,185589,5,2,0:0:0:0:
44,160,185823,1,0,0:0:0:0:
84,288,186057,2,0,P|148:336|204:320,1,103.500001974106,14|0,0:0|0:0,0:0:0:0:
288,276,186526,1,14,0:0:0:0:
168,336,186760,1,0,0:0:0:0:
288,276,186995,1,14,0:0:0:0:
416,316,187229,1,0,0:0:0:0:
400,180,187464,6,0,P|416:124|456:100,1,103.500001974106,2|0,0:0|0:0,0:0:0:0:
484,232,187932,2,0,P|424:272|320:240,1,155.250002961159,14|8,0:0|0:0,0:0:0:0:
292,220,188401,2,0,P|248:176|196:168,1,103.500001974106,14|0,0:0|0:0,0:0:0:0:
108,256,188870,2,0,P|132:200|108:144,1,103.500001974106,14|0,0:0|0:0,0:0:0:0:
56,44,189339,5,2,0:0:0:0:
180,92,189573,2,0,P|248:96|296:60,1,103.500001974106,0|14,0:0|0:0,0:0:0:0:
408,44,190042,2,0,L|464:72,2,51.7500009870529,0|0|2,0:0|0:0|0:0,0:0:0:0:
384,176,190510,2,0,P|428:228|496:232,2,103.500001974106,0|14|0,0:0|0:0|0:0,0:0:0:0:
324,276,191214,6,0,P|296:308|216:296,1,90,2|0,0:0|0:0,0:0:0:0:
136,288,191682,2,0,P|116:248|76:220,1,90,2|0,0:0|0:0,0:0:0:0:
40,180,192034,2,0,P|62:107|112:68,1,135,2|0,0:0|0:0,0:0:0:0:
240,52,192620,2,0,P|294:63|330:98,2,90,2|0|2,0:0|0:0|0:0,0:0:0:0:
188,156,193323,5,2,0:0:0:0:
192,272,193557,2,0,P|252:256|284:208,1,90,2|0,0:0|0:0,0:0:0:0:
328,224,193909,1,2,0:0:0:0:
328,224,194026,2,0,P|372:248|404:308,2,90,2|0|2,0:0|0:0|0:0,0:0:0:0:
136,88,194964,5,2,0:0:0:0:
296,72,195198,2,0,P|344:80|392:68,1,90,2|0,0:0|0:0,0:0:0:0:
436,96,195549,2,0,P|456:148|440:196,1,90,2|0,0:0|0:0,0:0:0:0:
428,236,195901,2,0,P|416:280|448:352,2,90,0|2|0,0:0|0:0|0:0,0:0:0:0:
316,268,196604,2,0,P|248:292|208:272,1,90,2|0,0:0|0:0,0:0:0:0:
124,252,197073,5,2,0:0:0:0:
23,247,197307,2,0,P|20:292|40:332,1,90,2|0,0:0|0:0,0:0:0:0:
124,252,197776,2,0,P|127:207|107:167,1,90,2|0,0:0|0:0,0:0:0:0:
304,188,198245,6,0,B|332:188|332:188|352:160|352:160|368:212|368:212|384:184|384:184|476:188,1,180,2|0,0:0|0:0,0:0:0:0:
