osu file format v14

[General]
AudioFilename: miku.mp3
AudioLeadIn: 1000
PreviewTime: 45979
Countdown: 0
SampleSet: Normal
StackLeniency: 0.7
Mode: 0
LetterboxInBreaks: 0
WidescreenStoryboard: 0

[Editor]
DistanceSpacing: 1
BeatDivisor: 4
GridSize: 4
TimelineZoom: 1.9

[Metadata]
Title:Hibikase
TitleUnicode:ヒビカセ
Artist:Giga-P
ArtistUnicode:ギガP
Creator:tutuhaha
Version:Normal
Source:
Tags:初音ミク れをる けい Key お菊 Okiku Nico Douga c86 vocaloid Hatsune Miku Reol No title+
BeatmapID:511864
BeatmapSetID:217134

[Difficulty]
HPDrainRate:4
CircleSize:4
OverallDifficulty:4
ApproachRate:5.5
SliderMultiplier:1.5
SliderTickRate:1

[Events]
//Background and Video events
Video,0,"video.avi"
0,0,"bg.png",0,0
//Break Periods
2,19072,31461
2,87643,97461
2,183643,189175
//Storyboard Layer 0 (Background)
//Storyboard Layer 1 (Fail)
//Storyboard Layer 2 (Pass)
//Storyboard Layer 3 (Foreground)
//Storyboard Sound Samples

[TimingPoints]
15,428.571428571429,4,2,1,50,1,0
17372,-100,4,1,1,50,0,0
17586,-100,4,2,1,50,0,0
17800,-100,4,1,1,50,0,0
18443,-100,4,2,1,60,0,0
32586,-100,4,1,1,65,0,0
60015,-100,4,1,1,65,0,1
87443,-100,4,1,1,65,0,0
128586,-100,4,1,1,65,0,1
156015,-100,4,1,1,65,0,0
169729,-100,4,2,1,70,0,0
176157,-100,4,1,1,50,0,0
193729,-100,4,2,1,60,0,0
198443,-100,4,1,1,65,0,0
198872,-100,4,1,1,65,0,1
226300,-100,4,1,1,65,0,0

[Colours]
Combo1 : 192,192,192
Combo2 : 39,70,216
Combo3 : 121,182,255

[HitObjects]
60,80,5157,5,0,0:0:0:0:
280,32,5800,2,0,P|280:69|256:108,1,75
72,220,6657,2,0,P|116:196|212:232,1,150
324,320,7515,2,0,L|397:360,1,75
456,64,8586,1,0,0:0:0:0:
272,192,9229,2,0,P|248:164|236:124,1,75
20,64,10086,2,0,P|12:132|64:216,1,150
124,332,10943,2,0,L|152:253,1,75
296,240,11586,1,8,0:0:0:0:
220,112,12015,6,0,P|176:72|80:84,1,150,0|2,0:0|0:0,0:0:0:0:
48,140,12657,1,0,0:0:0:0:
48,140,12872,2,0,P|92:180|188:168,1,150,0|2,0:0|0:0,0:0:0:0:
252,188,13515,6,0,L|252:356,1,150
176,336,14157,2,0,L|176:256,1,75,2|0,0:0|0:0,0:0:0:0:
104,232,14586,2,0,P|100:172|20:132,1,150,0|2,0:0|0:0,0:0:0:0:
172,164,15443,6,0,P|237:134|248:63,1,150,0|2,0:0|0:0,0:0:0:0:
177,85,16086,1,0,0:0:0:0:
177,85,16300,2,0,L|297:201,1,150,0|2,0:0|0:0,0:0:0:0:
350,233,16943,1,0,0:0:0:0:
350,233,17157,6,0,P|364:268|389:297,1,75
424,152,17800,1,0,0:0:0:0:
424,152,18015,2,0,P|476:100|492:28,2,150,0|8|4,0:0|0:0|0:0,0:0:0:0:
424,64,32586,6,0,P|392:128|316:132,1,150,4|8,0:0|0:0,0:0:0:0:
260,88,33229,1,0,0:0:0:0:
192,60,33443,2,0,L|36:60,1,150,0|8,0:0|0:0,0:0:0:0:
48,208,34300,6,0,L|204:208,1,150,0|8,0:0|0:0,0:0:0:0:
236,272,34943,1,0,0:0:0:0:
280,332,35157,2,0,P|356:328|408:268,1,150,0|8,0:0|0:0,0:0:0:0:
480,148,36015,5,0,0:0:0:0:
332,156,36443,1,8,0:0:0:0:
272,112,36657,1,0,0:0:0:0:
200,100,36872,2,0,P|120:108|60:60,1,150,0|8,0:0|0:0,0:0:0:0:
76,220,37729,6,0,L|120:296,1,75
188,284,38157,2,0,L|232:360,1,75,8|0,0:0|0:0,0:0:0:0:
296,328,38586,6,0,P|320:272|380:244,1,112.5,0|8,0:0|0:0,0:0:0:0:
476,236,39229,1,0,0:0:0:0:
476,236,39443,2,0,L|476:80,2,150,0|8|0,0:0|0:0|0:0,0:0:0:0:
364,336,40729,1,8,0:0:0:0:
244,248,41157,6,0,L|244:168,1,75
168,168,41586,2,0,L|168:84,1,75,8|0,0:0|0:0,0:0:0:0:
92,104,42015,2,0,L|92:244,1,112.5,0|8,0:0|0:0,0:0:0:0:
28,308,42657,1,0,0:0:0:0:
28,308,42872,5,0,0:0:0:0:
176,296,43300,1,8,0:0:0:0:
320,340,43729,1,0,0:0:0:0:
460,292,44157,2,0,P|464:252|452:212,1,75,8|0,0:0|0:0,0:0:0:0:
396,172,44586,6,0,P|336:180|256:124,1,150,0|8,0:0|0:0,0:0:0:0:
248,60,45229,1,0,0:0:0:0:
100,44,45657,2,0,L|20:44,1,75,0|8,0:0|0:0,0:0:0:0:
25,44,46300,6,0,P|44:104|24:196,1,150,4|8,0:0|0:0,0:0:0:0:
40,264,46943,1,0,0:0:0:0:
96,316,47157,2,0,P|140:348|252:352,1,150,0|8,0:0|0:0,0:0:0:0:
272,292,47800,5,0,0:0:0:0:
420,320,48229,1,8,0:0:0:0:
484,184,48657,1,0,0:0:0:0:
484,184,48872,1,0,0:0:0:0:
336,156,49300,1,8,0:0:0:0:
272,292,49729,6,0,P|200:284|136:220,1,150,0|8,0:0|0:0,0:0:0:0:
148,160,50372,2,0,P|116:112|32:76,1,150
24,152,51015,2,0,P|32:196|52:228,1,75,8|0,0:0|0:0,0:0:0:0:
92,284,51443,6,0,P|172:272|248:304,1,150,0|8,0:0|0:0,0:0:0:0:
280,236,52086,2,0,P|336:224|400:156,1,150
352,100,52729,2,0,P|300:120|268:152,1,75,8|0,0:0|0:0,0:0:0:0:
212,148,53157,6,0,P|160:128|104:52,1,150,0|8,0:0|0:0,0:0:0:0:
176,28,53800,1,0,0:0:0:0:
252,40,54015,2,0,P|304:92|324:168,1,150,0|8,0:0|0:0,0:0:0:0:
316,240,54657,5,0,0:0:0:0:
204,340,55086,1,8,0:0:0:0:
68,280,55515,1,0,0:0:0:0:
68,280,55729,1,0,0:0:0:0:
180,180,56157,1,8,0:0:0:0:
316,240,56586,6,0,P|372:252|472:232,1,150,0|8,0:0|0:0,0:0:0:0:
460,160,57229,2,0,P|387:144|313:156,1,150
244,132,57872,2,0,P|196:124|164:128,1,75,8|0,0:0|0:0,0:0:0:0:
256,192,58300,12,4,60015,0:0:0:0:
332,304,60872,6,0,P|280:324|216:320,2,112.5,0|8|0,0:0|0:0|0:0,0:0:0:0:
372,240,61729,5,0,0:0:0:0:
392,92,62157,1,8,0:0:0:0:
252,36,62586,2,0,P|188:48|140:84,2,112.5,0|8|0,0:0|0:0|0:0,0:0:0:0:
244,112,63443,6,0,P|188:152|88:176,1,150,0|8,0:0|0:0,0:0:0:0:
56,228,64086,1,0,0:0:0:0:
128,252,64300,2,0,P|196:264|244:292,1,112.5,0|8,0:0|0:0,0:0:0:0:
332,336,64943,5,0,0:0:0:0:
332,336,65157,2,0,P|412:344|480:324,1,150,0|8,0:0|0:0,0:0:0:0:
484,248,65800,1,0,0:0:0:0:
412,228,66015,2,0,P|364:200|308:188,2,112.5,0|8|0,0:0|0:0|0:0,0:0:0:0:
456,168,66872,6,0,P|424:144|388:128,1,75
340,76,67300,2,0,P|284:76|248:68,1,75,8|0,0:0|0:0,0:0:0:0:
204,116,67729,2,0,P|152:104|80:104,2,112.5,0|8|0,0:0|0:0|0:0,0:0:0:0:
256,172,68586,5,0,0:0:0:0:
288,240,68800,1,0,0:0:0:0:
316,312,69015,2,0,P|352:328|392:336,1,75,8|0,0:0|0:0,0:0:0:0:
444,288,69443,2,0,P|420:236|372:184,1,112.5,0|8,0:0|0:0,0:0:0:0:
332,92,70086,5,0,0:0:0:0:
332,92,70300,2,0,P|280:56|220:36,1,112.5,0|8,0:0|0:0,0:0:0:0:
132,88,70943,1,0,0:0:0:0:
132,88,71157,2,0,P|184:124|244:144,1,112.5,0|8,0:0|0:0,0:0:0:0:
300,228,71800,5,0,0:0:0:0:
300,228,72015,2,0,L|384:244,1,75
352,316,72443,2,0,L|240:292,2,112.5,8|0|0,0:0|0:0|0:0,0:0:0:0:
424,332,73300,1,8,0:0:0:0:
468,188,73729,6,0,P|436:132|464:36,1,150,4|8,0:0|0:0,0:0:0:0:
300,72,74586,2,0,P|268:48|196:32,2,112.5,0|8|0,0:0|0:0|0:0,0:0:0:0:
372,96,75443,5,0,0:0:0:0:
472,208,75872,1,8,0:0:0:0:
376,324,76300,2,0,P|320:348|260:352,2,112.5,0|8|0,0:0|0:0|0:0,0:0:0:0:
388,248,77157,6,0,P|324:248|220:284,1,150,0|8,0:0|0:0,0:0:0:0:
180,312,77800,1,0,0:0:0:0:
112,340,78015,2,0,P|40:344|-8:336,1,112.5,0|8,0:0|0:0,0:0:0:0:
48,236,78657,5,0,0:0:0:0:
48,236,78872,2,0,L|124:224,1,75
140,152,79300,2,0,L|216:164,1,75,8|0,0:0|0:0,0:0:0:0:
272,112,79729,2,0,P|296:68|380:56,2,112.5,0|8|0,0:0|0:0|0:0,0:0:0:0:
348,124,80586,5,0,0:0:0:0:
448,236,81015,1,8,0:0:0:0:
336,336,81443,2,0,P|276:316|228:268,1,112.5,0|8,0:0|0:0,0:0:0:0:
172,196,82086,5,0,0:0:0:0:
172,196,82300,2,0,P|140:152|124:140,1,75,0|0,0:0|0:0,0:0:0:0:
140,68,82729,2,0,P|208:100|236:128,2,112.5,8|0|0,0:0|0:0|0:0,0:0:0:0:
72,32,83586,1,8,0:0:0:0:
48,104,83800,1,0,0:0:0:0:
40,180,84015,6,0,P|32:232|48:292,1,112.5,0|8,0:0|0:0,0:0:0:0:
152,328,84657,1,0,0:0:0:0:
152,328,84872,2,0,P|160:276|144:216,1,112.5,0|8,0:0|0:0,0:0:0:0:
128,108,85515,5,0,0:0:0:0:
128,108,85729,2,0,L|240:108,1,112.5
308,200,86372,1,0,0:0:0:0:
308,200,86586,2,0,L|388:200,2,75,0|0|0,0:0|0:0|0:0,0:0:0:0:
256,340,87443,5,4,0:0:0:0:
256,192,98586,12,0,100300,0:0:0:0:
60,292,101157,6,0,P|88:240|176:212,1,150,4|8,0:0|0:0,0:0:0:0:
240,236,101800,1,0,0:0:0:0:
308,268,102015,2,0,L|460:268,1,150,0|8,0:0|0:0,0:0:0:0:
468,120,102872,6,0,L|376:120,1,75,0|0,0:0|0:0,0:0:0:0:
352,56,103300,2,0,L|264:56|260:56,1,75,8|0,0:0|0:0,0:0:0:0:
204,64,103729,2,0,P|140:104|48:72,1,150,0|8,0:0|0:0,0:0:0:0:
40,236,104586,5,0,0:0:0:0:
188,268,105015,1,8,0:0:0:0:
260,288,105229,1,0,0:0:0:0:
328,320,105443,2,0,P|404:336|476:300,1,150,0|8,0:0|0:0,0:0:0:0:
468,156,106300,6,0,P|432:152|388:164,1,75
340,108,106729,2,0,P|304:112|260:100,1,75,8|0,0:0|0:0,0:0:0:0:
196,128,107157,2,0,P|152:88|80:68,1,112.5,0|8,0:0|0:0,0:0:0:0:
44,168,107800,5,0,0:0:0:0:
44,168,108015,2,0,L|44:336,1,150,0|8,0:0|0:0,0:0:0:0:
116,344,108657,1,0,0:0:0:0:
188,316,108872,2,0,P|264:288|316:296,1,112.5,0|8,0:0|0:0,0:0:0:0:
408,292,109515,5,0,0:0:0:0:
408,292,109729,1,0,0:0:0:0:
344,156,110157,2,0,L|252:156,1,75,8|0,0:0|0:0,0:0:0:0:
236,88,110586,2,0,P|184:68|120:80,1,112.5,0|8,0:0|0:0,0:0:0:0:
48,156,111229,1,0,0:0:0:0:
48,156,111443,5,0,0:0:0:0:
168,248,111872,1,8,0:0:0:0:
60,348,112300,1,0,0:0:0:0:
108,204,112729,2,0,P|140:180|192:176,1,75,8|0,0:0|0:0,0:0:0:0:
208,108,113157,6,0,L|344:108,1,112.5,0|0,0:0|0:0,0:0:0:0:
432,108,113800,1,0,0:0:0:0:
432,260,114229,2,0,L|344:260,1,75
216,308,114872,6,0,P|171:256|75:256,1,150,4|8,0:0|0:0,0:0:0:0:
68,176,115515,1,0,0:0:0:0:
128,124,115729,2,0,P|173:72|269:72,1,150,0|8,0:0|0:0,0:0:0:0:
304,120,116372,5,0,0:0:0:0:
252,260,116800,1,8,0:0:0:0:
400,268,117229,1,0,0:0:0:0:
400,268,117443,1,0,0:0:0:0:
448,124,117872,1,8,0:0:0:0:
304,120,118300,6,0,P|268:80|172:44,1,150,0|8,0:0|0:0,0:0:0:0:
104,44,118943,2,0,B|104:104|144:144|144:144|176:136|208:160,1,150
160,220,119586,2,0,P|200:244|224:276,1,75,8|0,0:0|0:0,0:0:0:0:
204,340,120015,6,0,P|140:308|88:244,1,150,0|8,0:0|0:0,0:0:0:0:
104,176,120657,2,0,P|108:100|68:12,1,150
20,76,121300,2,0,P|8:128|12:172,1,75,8|0,0:0|0:0,0:0:0:0:
32,220,121729,5,4,0:0:0:0:
172,292,122157,2,0,P|216:308|240:336,1,75,8|0,0:0|0:0,0:0:0:0:
308,304,122586,2,0,P|276:260|184:216,1,150,0|8,0:0|0:0,0:0:0:0:
124,188,123229,5,0,0:0:0:0:
204,60,123657,1,8,0:0:0:0:
348,104,124086,1,0,0:0:0:0:
348,104,124300,1,0,0:0:0:0:
268,228,124729,1,8,0:0:0:0:
124,188,125157,6,0,P|84:144|64:52,1,150,4|8,0:0|0:0,0:0:0:0:
132,32,125800,2,0,P|164:64|196:172,1,150
184,236,126443,1,8,0:0:0:0:
140,296,126657,1,0,0:0:0:0:
256,192,126872,12,4,128586,0:0:0:0:
180,80,129443,6,0,P|232:60|296:64,2,112.5,0|8|0,0:0|0:0|0:0,0:0:0:0:
140,144,130300,5,0,0:0:0:0:
120,292,130729,1,8,0:0:0:0:
260,348,131157,2,0,P|324:336|372:300,2,112.5,0|8|0,0:0|0:0|0:0,0:0:0:0:
268,272,132015,6,0,P|324:232|424:208,1,150,0|8,0:0|0:0,0:0:0:0:
456,156,132657,1,0,0:0:0:0:
384,132,132872,2,0,P|316:120|268:92,1,112.5,0|8,0:0|0:0,0:0:0:0:
180,48,133515,5,0,0:0:0:0:
180,48,133729,2,0,P|100:40|32:60,1,150,0|8,0:0|0:0,0:0:0:0:
28,136,134372,1,0,0:0:0:0:
100,156,134586,2,0,P|148:184|204:196,2,112.5,0|8|0,0:0|0:0|0:0,0:0:0:0:
56,216,135443,6,0,P|88:240|124:256,1,75
172,308,135872,2,0,P|228:308|264:316,1,75,8|0,0:0|0:0,0:0:0:0:
308,268,136300,2,0,P|360:280|432:280,2,112.5,0|8|0,0:0|0:0|0:0,0:0:0:0:
256,212,137157,5,0,0:0:0:0:
224,144,137372,1,0,0:0:0:0:
196,72,137586,2,0,P|160:56|120:48,1,75,8|0,0:0|0:0,0:0:0:0:
68,96,138015,2,0,P|92:148|140:200,1,112.5,0|8,0:0|0:0,0:0:0:0:
180,292,138657,5,0,0:0:0:0:
180,292,138872,2,0,P|232:328|292:348,1,112.5,0|8,0:0|0:0,0:0:0:0:
380,296,139515,1,0,0:0:0:0:
380,296,139729,2,0,P|328:260|268:240,1,112.5,0|8,0:0|0:0,0:0:0:0:
212,156,140372,5,0,0:0:0:0:
212,156,140586,2,0,L|128:140,1,75
160,68,141015,2,0,L|272:92,2,112.5,8|0|0,0:0|0:0|0:0,0:0:0:0:
88,52,141872,2,0,P|36:60|12:152,1,150,8|4,0:0|0:0,0:0:0:0:
64,284,142729,5,8,0:0:0:0:
212,312,143157,2,0,P|244:336|316:352,2,112.5,0|8|0,0:0|0:0|0:0,0:0:0:0:
140,288,144015,5,0,0:0:0:0:
40,176,144443,1,8,0:0:0:0:
136,60,144872,2,0,P|192:36|252:32,2,112.5,0|8|0,0:0|0:0|0:0,0:0:0:0:
124,136,145729,6,0,P|188:136|292:100,1,150,0|8,0:0|0:0,0:0:0:0:
332,72,146372,1,0,0:0:0:0:
400,44,146586,2,0,P|472:40|520:48,1,112.5,0|8,0:0|0:0,0:0:0:0:
464,148,147229,5,0,0:0:0:0:
464,148,147443,2,0,L|388:160,1,75
372,232,147872,2,0,L|296:220,1,75,8|0,0:0|0:0,0:0:0:0:
240,272,148300,2,0,P|216:316|132:328,2,112.5,0|8|0,0:0|0:0|0:0,0:0:0:0:
164,260,149157,5,0,0:0:0:0:
64,148,149586,1,8,0:0:0:0:
176,48,150015,2,0,P|236:68|284:116,1,112.5,0|8,0:0|0:0,0:0:0:0:
340,188,150657,5,0,0:0:0:0:
340,188,150872,2,0,P|372:232|388:244,1,75,0|0,0:0|0:0,0:0:0:0:
372,316,151300,2,0,P|304:284|276:256,2,112.5,8|0|0,0:0|0:0|0:0,0:0:0:0:
440,352,152157,1,8,0:0:0:0:
464,280,152372,1,0,0:0:0:0:
472,204,152586,6,0,P|480:152|464:92,1,112.5,0|8,0:0|0:0,0:0:0:0:
360,56,153229,1,0,0:0:0:0:
360,56,153443,2,0,P|352:108|368:168,1,112.5,0|8,0:0|0:0,0:0:0:0:
384,276,154086,5,0,0:0:0:0:
384,276,154300,2,0,L|272:276,1,112.5,0|8,0:0|0:0,0:0:0:0:
204,184,154943,1,0,0:0:0:0:
204,184,155157,2,0,L|124:184,2,75,0|0|8,0:0|0:0|0:0,0:0:0:0:
256,44,156015,5,4,0:0:0:0:
400,84,156443,1,8,0:0:0:0:
400,84,156657,2,0,P|448:116|436:280,1,225,0|8,0:0|0:0,0:0:0:0:
388,316,157515,1,0,0:0:0:0:
312,332,157729,6,0,L|188:332,1,112.5,0|8,0:0|0:0,0:0:0:0:
124,248,158372,1,0,0:0:0:0:
124,248,158586,2,0,L|296:248,1,150,0|8,0:0|0:0,0:0:0:0:
256,100,159443,5,0,0:0:0:0:
112,84,159872,1,8,0:0:0:0:
112,84,160086,2,0,P|64:116|76:280,1,225,0|8,0:0|0:0,0:0:0:0:
120,320,160943,1,0,0:0:0:0:
192,340,161157,6,0,P|252:336|312:312,2,112.5,0|8|0,0:0|0:0|0:0,0:0:0:0:
184,264,162015,2,0,P|248:256|324:200,1,150,0|8,0:0|0:0,0:0:0:0:
256,72,162872,5,0,0:0:0:0:
156,184,163300,1,8,0:0:0:0:
156,184,163515,2,0,P|256:224|360:184,1,225,0|8,0:0|0:0,0:0:0:0:
400,120,164372,1,0,0:0:0:0:
464,80,164586,6,0,P|432:52|348:60,2,112.5,0|8|0,0:0|0:0|0:0,0:0:0:0:
468,156,165443,2,0,L|468:320,1,150,0|8,0:0|0:0,0:0:0:0:
400,336,166086,1,0,0:0:0:0:
328,356,166300,6,0,P|288:312|116:332,1,225,0|8,0:0|0:0,0:0:0:0:
56,188,167372,1,0,0:0:0:0:
56,188,167586,2,0,L|56:108,1,75,8|0,0:0|0:0,0:0:0:0:
120,72,168015,6,0,P|168:84|272:56,1,150,0|8,0:0|0:0,0:0:0:0:
336,48,168657,2,0,L|436:48,1,75
424,124,169086,2,0,L|524:124,1,75,0|8,0:0|0:0,0:0:0:0:
499,124,169729,5,4,0:0:0:0:
440,264,170157,1,8,0:0:0:0:
300,212,170586,1,0,0:0:0:0:
212,336,171015,1,8,0:0:0:0:
68,300,171443,5,0,0:0:0:0:
156,176,171872,1,8,0:0:0:0:
300,212,172300,1,0,0:0:0:0:
260,68,172729,1,8,0:0:0:0:
156,176,173157,6,0,P|92:188|16:144,1,150,0|8,0:0|0:0,0:0:0:0:
116,32,174015,1,0,0:0:0:0:
260,68,174443,1,8,0:0:0:0:
320,208,174872,5,0,0:0:0:0:
460,156,175300,1,8,0:0:0:0:
404,16,175729,2,0,L|376:92,1,75
304,76,176157,2,0,L|276:152,1,75,8|0,0:0|0:0,0:0:0:0:
260,220,176586,6,0,P|220:276|136:308,1,150,4|8,0:0|0:0,0:0:0:0:
100,248,177229,1,0,0:0:0:0:
64,180,177443,2,0,P|104:124|188:92,1,150,0|8,0:0|0:0,0:0:0:0:
288,196,178300,6,0,P|328:252|412:284,1,150,4|8,0:0|0:0,0:0:0:0:
448,224,178943,1,0,0:0:0:0:
484,156,179157,2,0,P|444:100|360:68,1,150,0|8,0:0|0:0,0:0:0:0:
296,68,179800,1,0,0:0:0:0:
248,124,180015,1,4,0:0:0:0:
388,172,180443,6,0,P|368:224|344:248,1,75,8|0,0:0|0:0,0:0:0:0:
376,312,180872,2,0,P|316:340|208:332,1,150,0|8,0:0|0:0,0:0:0:0:
192,276,181515,1,0,0:0:0:0:
176,204,181729,6,0,P|140:180|92:180,1,75
80,108,182157,2,0,P|104:80|164:64,1,75,8|0,0:0|0:0,0:0:0:0:
204,32,182586,1,0,0:0:0:0:
248,92,182800,1,0,0:0:0:0:
316,128,183015,1,8,0:0:0:0:
392,132,183229,1,0,0:0:0:0:
464,112,183443,5,4,0:0:0:0:
256,192,190300,12,0,193300,0:0:0:0:
256,192,193729,12,0,197157,0:0:0:0:
144,64,198443,6,0,P|136:124|144:160,1,75,0|0,0:0|0:0,0:0:0:0:
176,204,198872,5,4,0:0:0:0:
196,276,199086,1,0,0:0:0:0:
172,348,199300,2,0,P|136:324|104:288,1,75,8|0,0:0|0:0,0:0:0:0:
96,228,199729,2,0,P|88:144|60:96,2,112.5,0|8|0,0:0|0:0|0:0,0:0:0:0:
172,228,200586,6,0,P|172:172|132:72,1,150,0|8,0:0|0:0,0:0:0:0:
84,36,201229,1,0,0:0:0:0:
36,92,201443,2,0,P|16:144|16:200,2,112.5,0|8|0,0:0|0:0|0:0,0:0:0:0:
84,36,202300,6,0,L|168:32,1,75
200,96,202729,2,0,L|284:100,1,75,8|0,0:0|0:0,0:0:0:0:
328,48,203157,2,0,P|404:28|464:40,1,112.5,0|8,0:0|0:0,0:0:0:0:
452,144,203800,5,0,0:0:0:0:
452,144,204015,2,0,P|412:164|288:144,1,150,0|8,0:0|0:0,0:0:0:0:
240,180,204657,1,0,0:0:0:0:
172,216,204872,2,0,P|112:200|32:212,2,112.5,0|8|0,0:0|0:0|0:0,0:0:0:0:
204,284,205729,6,0,L|284:292,1,75
348,260,206157,2,0,L|432:252,1,75,8|0,0:0|0:0,0:0:0:0:
440,180,206586,2,0,L|308:188,2,112.5,0|8|0,0:0|0:0|0:0,0:0:0:0:
444,104,207443,6,0,L|288:112,1,150,0|8,0:0|0:0,0:0:0:0:
224,84,208086,1,0,0:0:0:0:
152,72,208300,2,0,P|108:108|40:108,2,112.5,0|8|0,0:0|0:0|0:0,0:0:0:0:
224,84,209157,6,0,P|264:48|348:40,2,112.5,0|8|0,0:0|0:0|0:0,0:0:0:0:
184,148,210015,2,0,L|184:272,2,112.5,0|8|0,0:0|0:0|0:0,0:0:0:0:
108,156,210872,6,0,L|108:264,1,75
112,304,211300,2,0,P|152:328|244:328,1,112.5,8|0,0:0|0:0,0:0:0:0:
296,256,211943,1,0,0:0:0:0:
296,256,212157,2,0,P|356:240|452:264,1,150,8|4,0:0|0:0,0:0:0:0:
428,332,212800,5,0,0:0:0:0:
356,348,213015,2,0,P|304:352|264:344,1,75,8|0,0:0|0:0,0:0:0:0:
232,296,213443,2,0,P|184:252|112:236,1,112.5,0|8,0:0|0:0,0:0:0:0:
76,144,214086,1,0,0:0:0:0:
76,144,214300,6,0,L|76:64,1,75
152,68,214729,2,0,L|152:156,1,75,8|0,0:0|0:0,0:0:0:0:
228,144,215157,2,0,L|228:24,2,112.5,0|8|0,0:0|0:0|0:0,0:0:0:0:
244,220,216015,6,0,P|296:280|380:288,1,150,0|8,0:0|0:0,0:0:0:0:
412,236,216657,1,0,0:0:0:0:
444,168,216872,2,0,P|424:128|348:100,1,112.5,0|8,0:0|0:0,0:0:0:0:
264,52,217515,5,0,0:0:0:0:
264,52,217729,2,0,P|224:48|184:28,2,75,0|0|8,0:0|0:0|0:0,0:0:0:0:
276,128,218372,1,0,0:0:0:0:
292,200,218586,2,0,P|344:220|380:292,1,112.5,0|8,0:0|0:0,0:0:0:0:
268,300,219229,1,0,0:0:0:0:
268,300,219443,6,0,P|192:284|144:232,1,150,0|8,0:0|0:0,0:0:0:0:
72,212,220086,1,0,0:0:0:0:
104,144,220300,2,0,P|136:120|156:40,1,112.5,0|8,0:0|0:0,0:0:0:0:
268,32,220943,5,0,0:0:0:0:
268,32,221157,2,0,P|312:80|320:120,1,75
348,156,221586,2,0,P|344:212|384:276,2,112.5,8|0|0,0:0|0:0|0:0,0:0:0:0:
416,124,222443,1,8,0:0:0:0:
452,60,222657,1,0,0:0:0:0:
384,32,222872,6,0,L|268:32,1,112.5,0|8,0:0|0:0,0:0:0:0:
180,96,223515,1,0,0:0:0:0:
180,96,223729,2,0,L|52:96,1,112.5,0|8,0:0|0:0,0:0:0:0:
104,204,224372,5,0,0:0:0:0:
104,204,224586,2,0,L|232:204,2,112.5,0|8|0,0:0|0:0|0:0,0:0:0:0:
108,280,225443,2,0,L|24:280,1,75
40,356,225872,2,0,L|128:356,1,75,8|0,0:0|0:0,0:0:0:0:
188,352,226300,5,4,0:0:0:0:
332,316,226729,1,8,0:0:0:0:
308,168,227157,1,0,0:0:0:0:
164,204,227586,1,8,0:0:0:0:
188,352,228015,6,0,P|160:328|144:280,1,75
216,268,228443,2,0,P|244:192|200:132,2,150,8|0|8,0:0|0:0|0:0,0:0:0:0:
164,204,229515,6,0,L|64:204,1,75
136,64,230157,1,8,0:0:0:0:
256,152,230586,1,0,0:0:0:0:
400,108,231015,1,8,0:0:0:0:
256,152,231443,6,0,L|256:68,2,75,0|0|8,0:0|0:0|0:0,0:0:0:0:
324,188,232086,1,0,0:0:0:0:
324,188,232300,2,0,L|324:272,1,75
392,292,232729,2,0,L|392:376,2,75,8|0|0,0:0|0:0|0:0,0:0:0:0:
484,172,233586,5,8,0:0:0:0:
368,76,234015,1,0,0:0:0:0:
256,172,234443,2,0,L|168:172,1,75,8|0,0:0|0:0,0:0:0:0:
176,96,234872,6,0,P|140:56|36:60,1,150,0|8,0:0|0:0,0:0:0:0:
56,128,235515,2,0,P|40:176|108:264,1,150
148,300,236157,2,0,L|224:344,1,75,8|0,0:0|0:0,0:0:0:0:
268,284,236586,6,0,L|160:220,1,112.5,0|8,0:0|0:0,0:0:0:0:
152,116,237229,1,0,0:0:0:0:
152,116,237443,2,0,L|248:173,1,112.5,0|8,0:0|0:0,0:0:0:0:
356,140,238086,5,0,0:0:0:0:
356,140,238300,2,0,L|259:82,2,112.5,0|8|0,0:0|0:0|0:0,0:0:0:0:
428,156,239157,2,0,P|452:192|448:232,2,75,0|0|8,0:0|0:0|0:0,0:0:0:0:
256,192,240015,12,4,241729,0:0:0:0:
