osu file format v14

[General]
AudioFilename: miku.mp3
AudioLeadIn: 1000
PreviewTime: 45979
Countdown: 0
SampleSet: Normal
StackLeniency: 0.7
Mode: 0
LetterboxInBreaks: 0
WidescreenStoryboard: 0

[Editor]
DistanceSpacing: 1.1
BeatDivisor: 4
GridSize: 4
TimelineZoom: 1.9

[Metadata]
Title:Hibikase
TitleUnicode:ヒビカセ
Artist:Giga-P
ArtistUnicode:ギガP
Creator:tutuhaha
Version:Hard
Source:
Tags:初音ミク れをる けい Key お菊 Okiku Nico Douga c86 vocaloid Hatsune Miku Reol No title+
BeatmapID:510812
BeatmapSetID:217134

[Difficulty]
HPDrainRate:6
CircleSize:4.4
OverallDifficulty:6
ApproachRate:8
SliderMultiplier:1.8
SliderTickRate:1

[Events]
//Background and Video events
Video,0,"video.avi"
0,0,"bg.png",0,0
//Break Periods
2,19072,31836
2,87643,97821
2,183643,189550
//Storyboard Layer 0 (Background)
//Storyboard Layer 1 (Fail)
//Storyboard Layer 2 (Pass)
//Storyboard Layer 3 (Foreground)
//Storyboard Sound Samples

[TimingPoints]
15,428.571428571429,4,2,1,50,1,0
5157,-200,4,2,1,50,0,0
11586,-100,4,2,1,50,0,0
17372,-100,4,1,1,50,0,0
17586,-100,4,2,1,50,0,0
17800,-100,4,1,1,50,0,0
18443,-100,4,2,1,60,0,0
32586,-100,4,1,1,65,0,0
60015,-100,4,1,1,65,0,1
87443,-100,4,1,1,65,0,0
114443,-200,4,1,1,65,0,0
114872,-100,4,1,1,65,0,0
128586,-100,4,1,1,65,0,1
156015,-100,4,1,1,65,0,0
168015,-100,4,1,1,65,0,0
169300,-200,4,1,1,65,0,0
169729,-200,4,2,1,70,0,0
175943,-133.333333333333,4,2,1,70,0,0
176157,-133.333333333333,4,1,1,50,0,0
176586,-100,4,1,1,50,0,0
193729,-100,4,2,1,60,0,0
198443,-100,4,1,1,65,0,0
198872,-100,4,1,1,65,0,1
226300,-100,4,1,1,65,0,0

[Colours]
Combo1 : 192,192,192
Combo2 : 39,70,216
Combo3 : 121,182,255

[HitObjects]
88,64,5157,5,0,0:0:0:0:
200,200,5800,1,0,0:0:0:0:
200,200,6015,1,0,0:0:0:0:
256,36,6657,1,0,0:0:0:0:
256,36,7086,1,0,0:0:0:0:
312,200,7515,1,0,0:0:0:0:
312,200,7729,1,0,0:0:0:0:
424,64,8586,5,0,0:0:0:0:
312,200,9229,1,0,0:0:0:0:
312,200,9443,1,0,0:0:0:0:
256,36,10086,1,0,0:0:0:0:
256,36,10515,1,0,0:0:0:0:
200,200,10943,1,0,0:0:0:0:
200,200,11157,2,0,P|188:144|152:112,1,90,0|8,0:0|0:0,0:0:0:0:
104,72,12015,6,0,P|92:132|120:184,1,90
72,232,12443,2,0,P|120:264|144:304,1,90,2|0,0:0|0:0,0:0:0:0:
208,332,12872,1,0,0:0:0:0:
288,332,13086,1,0,0:0:0:0:
364,308,13300,1,2,0:0:0:0:
420,248,13515,6,0,L|456:140,1,90
360,192,13943,2,0,L|396:84,1,90,0|2,0:0|0:0,0:0:0:0:
328,52,14372,1,0,0:0:0:0:
328,52,14586,2,0,L|299:137,1,90
244,196,15015,6,0,P|184:212|100:124,1,180,10|0,0:0|0:0,0:0:0:0:
124,64,15657,1,0,0:0:0:0:
200,36,15872,2,0,P|252:60|272:100,1,90,2|0,0:0|0:0,0:0:0:0:
312,156,16300,1,0,0:0:0:0:
320,236,16515,1,0,0:0:0:0:
280,304,16729,1,2,0:0:0:0:
204,332,16943,5,0,0:0:0:0:
52,272,17372,1,0,0:0:0:0:
204,332,17800,1,0,0:0:0:0:
132,292,18015,2,0,P|132:240|4:208,2,180,8|8|4,0:0|0:0|0:0,0:0:0:0:
424,72,32586,6,0,P|368:112|324:112,1,90,4|0,0:0|0:0,0:0:0:0:
204,28,33015,2,0,P|264:28|312:48,1,90,8|0,0:0|0:0,0:0:0:0:
116,60,33443,1,0,0:0:0:0:
116,60,33550,2,0,P|60:72|8:108,1,90
15,168,33872,2,0,P|58:155|98:134,1,90,8|0,0:0|0:0,0:0:0:0:
168,196,34193,5,0,0:0:0:0:
168,196,34300,2,0,P|116:204|72:228,2,90,0|0|8,0:0|0:0|0:0,0:0:0:0:
232,272,34943,1,0,0:0:0:0:
332,260,35157,2,0,P|344:213|343:157,1,90
332,92,35479,2,0,P|312:49|280:19,1,90,8|0,0:0|0:0,0:0:0:0:
200,36,35800,6,0,P|180:76|177:120,2,90,8|0|0,0:0|0:0|0:0,0:0:0:0:
100,24,36443,1,8,0:0:0:0:
256,96,36657,1,0,0:0:0:0:
60,108,36872,2,0,P|68:164|116:236,2,135,0|8|0,0:0|0:0|0:0,0:0:0:0:
176,184,37729,6,0,P|192:142|223:111,1,90
256,180,38050,1,0,0:0:0:0:
256,180,38157,2,0,P|246:222|218:257,1,90,8|0,0:0|0:0,0:0:0:0:
100,372,38586,1,0,0:0:0:0:
56,132,38907,1,8,0:0:0:0:
224,308,39229,1,0,0:0:0:0:
348,176,39443,6,0,P|304:192|272:228,1,90
256,372,39872,2,0,L|336:292,1,90,8|0,0:0|0:0,0:0:0:0:
228,152,40300,2,0,P|216:172|204:208,1,45
136,336,40622,2,0,P|156:312|168:272,1,45,0|8,0:0|0:0,0:0:0:0:
48,188,40943,6,0,P|56:140|100:104,1,90
176,72,41372,1,0,0:0:0:0:
164,172,41586,1,8,0:0:0:0:
256,132,41800,1,0,0:0:0:0:
260,232,42015,2,0,L|231:266,1,45
352,112,42336,2,0,L|380:77,1,45,0|8,0:0|0:0,0:0:0:0:
476,60,42657,1,0,0:0:0:0:
432,212,42872,6,0,P|424:264|388:304,1,90
352,224,43300,2,0,P|360:172|396:132,1,90,8|0,0:0|0:0,0:0:0:0:
364,64,43622,2,0,P|405:96|421:148,1,90
500,152,43943,2,0,P|450:171|398:159,1,90,0|8,0:0|0:0,0:0:0:0:
284,52,44372,1,0,0:0:0:0:
216,244,44586,5,0,0:0:0:0:
364,248,44907,1,8,0:0:0:0:
268,360,45229,1,0,0:0:0:0:
168,344,45443,2,0,P|140:300|136:252,1,90
60,184,45872,6,0,P|80:180|108:200,3,45,8|0|0|0,0:0|0:0|0:0|0:0,0:0:0:0:
36,192,46300,6,0,L|56:292,1,90,4|0,0:0|0:0,0:0:0:0:
168,344,46729,1,8,0:0:0:0:
140,248,46943,1,0,0:0:0:0:
196,108,47157,2,0,L|214:197,1,90
280,40,47586,1,8,0:0:0:0:
280,40,47800,6,0,L|297:128,1,90,0|0,0:0|0:0,0:0:0:0:
368,200,48229,2,0,L|350:288,1,90,0|8,0:0|0:0,0:0:0:0:
256,352,48657,1,0,0:0:0:0:
161,288,48872,2,0,L|144:200,1,90,0|0,0:0|0:0,0:0:0:0:
76,152,49193,1,0,0:0:0:0:
76,152,49300,2,0,P|136:176|176:168,1,90,8|0,0:0|0:0,0:0:0:0:
272,76,49729,6,0,P|204:72|136:108,1,135,0|0,0:0|0:0,0:0:0:0:
112,128,50157,2,0,P|104:80|72:44,1,90,8|0,0:0|0:0,0:0:0:0:
78,48,50800,2,0,L|20:80,2,45,0|0|8,0:0|0:0|0:0,0:0:0:0:
172,12,51229,1,0,0:0:0:0:
112,128,51443,6,0,P|144:176|228:188,1,135
232,172,51872,2,0,L|280:80,1,90,8|0,0:0|0:0,0:0:0:0:
273,92,52515,2,0,P|292:76|320:68,1,45
340,44,52729,2,0,L|232:40,1,90,8|0,0:0|0:0,0:0:0:0:
358,144,53157,6,0,L|448:148,1,90
356,232,53586,1,8,0:0:0:0:
256,224,53800,1,0,0:0:0:0:
128,304,54015,6,0,L|217:307,1,90
80,208,54443,1,8,0:0:0:0:
80,208,54657,6,0,L|170:212,1,90
292,220,55086,2,0,L|382:224,1,90,0|8,0:0|0:0,0:0:0:0:
312,124,55515,1,0,0:0:0:0:
312,124,55729,2,0,L|222:127,1,90
148,92,56050,1,0,0:0:0:0:
148,92,56157,2,0,P|196:128|208:176,1,90,8|0,0:0|0:0,0:0:0:0:
116,296,56586,6,0,P|104:224|132:168,1,135
92,156,57015,2,0,P|56:120|40:72,2,90,8|0|0,0:0|0:0|0:0,0:0:0:0:
212,208,57657,2,0,L|272:228,1,45
260,264,57872,2,0,L|364:272,1,90,8|0,0:0|0:0,0:0:0:0:
456,140,58300,5,4,0:0:0:0:
376,212,58515,1,0,0:0:0:0:
292,144,58729,2,0,L|236:96,1,45,8|0,0:0|0:0,0:0:0:0:
224,92,58943,1,0,0:0:0:0:
192,68,59050,2,0,L|88:76,1,90
28,232,59479,1,0,0:0:0:0:
28,232,59586,2,0,L|140:232,1,90,8|0,0:0|0:0,0:0:0:0:
312,340,60015,6,0,P|256:332|220:296,1,90,4|0,0:0|0:0,0:0:0:0:
204,236,60443,1,8,0:0:0:0:
216,156,60657,1,0,0:0:0:0:
276,100,60872,2,0,P|320:96|340:96,2,45,0|0|0,0:0|0:0|0:0,0:0:0:0:
252,68,61193,2,0,P|192:64|128:12,1,135,8|0,0:0|0:0,0:0:0:0:
101,105,61729,6,0,P|70:72|52:32,1,90
47,171,62157,2,0,P|88:190|121:221,1,90,8|0,0:0|0:0,0:0:0:0:
40,252,62479,1,0,0:0:0:0:
40,252,62586,2,0,L|92:288,1,45
276,340,62907,6,0,P|220:340|136:308,1,135,8|0,0:0|0:0,0:0:0:0:
300,260,63443,1,0,0:0:0:0:
360,208,63657,1,0,0:0:0:0:
412,272,63872,1,8,0:0:0:0:
488,244,64086,1,0,0:0:0:0:
436,184,64300,2,0,L|432:128,1,45
352,48,64622,2,0,L|355:92,1,45,0|8,0:0|0:0,0:0:0:0:
254,96,64943,6,0,L|276:184,2,90,0|0|0,0:0|0:0|0:0,0:0:0:0:
216,240,65586,2,0,L|237:327,1,90,8|0,0:0|0:0,0:0:0:0:
309,307,65907,1,0,0:0:0:0:
309,307,66015,2,0,L|316:352,1,45,0|0,0:0|0:0,0:0:0:0:
324,228,66336,2,0,P|384:204|412:116,1,135,8|0,0:0|0:0,0:0:0:0:
256,32,66872,6,0,P|232:84|236:120,1,90,0|0,0:0|0:0,0:0:0:0:
224,196,67300,1,8,0:0:0:0:
204,276,67515,1,0,0:0:0:0:
84,356,67729,1,0,0:0:0:0:
84,356,67836,2,0,P|100:304|140:268,1,90
120,240,68157,2,0,P|83:265|39:270,1,90,8|0,0:0|0:0,0:0:0:0:
110,123,68586,6,0,P|66:130|29:154,1,90
188,180,69015,2,0,P|225:203|270:210,1,90,8|0,0:0|0:0,0:0:0:0:
336,160,69336,1,0,0:0:0:0:
336,160,69443,2,0,L|336:100,2,45,0|0|0,0:0|0:0|0:0,0:0:0:0:
344,240,69765,2,0,P|352:300|404:360,1,135,8|0,0:0|0:0,0:0:0:0:
456,204,70300,5,0,0:0:0:0:
240,248,70622,1,8,0:0:0:0:
456,204,70943,1,0,0:0:0:0:
344,240,71157,5,0,0:0:0:0:
128,204,71479,1,8,0:0:0:0:
344,240,71800,1,0,0:0:0:0:
240,248,72015,6,0,P|220:200|216:144,1,90
296,92,72443,2,0,L|304:48,2,45,8|0|0,0:0|0:0|0:0,0:0:0:0:
288,172,72765,2,0,P|268:112|192:88,1,135
124,152,73193,1,0,0:0:0:0:
124,152,73300,2,0,P|174:163|230:157,1,90,8|0,0:0|0:0,0:0:0:0:
372,248,73729,6,0,P|308:256|264:248,1,90,4|0,0:0|0:0,0:0:0:0:
204,240,74157,1,8,0:0:0:0:
124,224,74372,1,0,0:0:0:0:
44,204,74586,2,0,L|0:192,1,45
176,152,74907,2,0,L|220:140,1,45,0|8,0:0|0:0,0:0:0:0:
88,112,75229,6,0,L|0:90,1,90,0|0,0:0|0:0,0:0:0:0:
156,68,75657,1,0,0:0:0:0:
156,68,75872,2,0,P|200:72|252:108,1,90,8|0,0:0|0:0,0:0:0:0:
320,160,76193,1,0,0:0:0:0:
320,160,76300,2,0,L|264:156,1,45
160,224,76622,2,0,L|308:236,1,135,8|0,0:0|0:0,0:0:0:0:
436,312,77157,5,0,0:0:0:0:
356,300,77372,1,0,0:0:0:0:
276,316,77586,1,8,0:0:0:0:
196,308,77800,1,0,0:0:0:0:
116,320,78015,2,0,P|96:312|64:344,1,45,0|0,0:0|0:0,0:0:0:0:
105,204,78336,2,0,P|53:239|4:200,1,135,8|0,0:0|0:0,0:0:0:0:
124,124,78872,6,0,L|200:196,1,90
388,124,79300,2,0,L|312:196,1,90,8|0,0:0|0:0,0:0:0:0:
256,232,79622,1,0,0:0:0:0:
256,232,79729,2,0,P|272:264|264:296,2,45,0|0|0,0:0|0:0|0:0,0:0:0:0:
256,152,80050,2,0,P|240:92|312:40,1,135,8|0,0:0|0:0,0:0:0:0:
448,52,80586,5,0,0:0:0:0:
468,128,80800,1,0,0:0:0:0:
436,204,81015,1,8,0:0:0:0:
372,252,81229,1,0,0:0:0:0:
292,252,81443,2,0,P|232:224|144:260,2,135,0|8|0,0:0|0:0|0:0,0:0:0:0:
336,320,82300,6,0,P|388:324|432:308,1,90
420,188,82729,1,8,0:0:0:0:
420,188,82836,2,0,L|356:176,1,45
316,232,83050,2,0,P|348:180|332:100,1,135
264,76,83479,1,0,0:0:0:0:
264,76,83586,2,0,P|224:112|216:164,1,90,8|0,0:0|0:0,0:0:0:0:
272,248,84015,5,0,0:0:0:0:
56,204,84336,1,8,0:0:0:0:
272,248,84657,1,0,0:0:0:0:
384,204,84872,5,0,0:0:0:0:
168,240,85193,1,8,0:0:0:0:
384,204,85515,1,0,0:0:0:0:
272,248,85729,5,0,0:0:0:0:
256,116,86050,1,0,0:0:0:0:
272,248,86372,1,0,0:0:0:0:
368,300,86586,5,0,0:0:0:0:
264,344,86800,1,0,0:0:0:0:
368,300,87015,2,0,L|416:288,1,45
436,256,87229,2,0,L|340:280,1,90,0|4,0:0|0:0,0:0:0:0:
256,192,98586,12,0,99872,0:0:0:0:
132,260,100300,6,0,P|140:192|216:144,1,135,0|0,0:0|0:0,0:0:0:0:
272,96,100836,2,0,P|216:124|136:92,1,135,0|4,0:0|0:0,0:0:0:0:
20,28,101372,5,0,0:0:0:0:
60,120,101586,2,0,L|48:224,1,90,8|0,0:0|0:0,0:0:0:0:
88,300,102015,1,0,0:0:0:0:
88,300,102122,2,0,P|147:333|193:333,1,90
237,290,102443,2,0,P|202:262|159:252,1,90,8|0,0:0|0:0,0:0:0:0:
215,181,102765,5,0,0:0:0:0:
215,181,102872,2,0,P|258:207|317:216,2,90,0|0|8,0:0|0:0|0:0,0:0:0:0:
136,120,103515,1,0,0:0:0:0:
216,56,103729,1,0,0:0:0:0:
216,56,103836,2,0,P|260:28|312:28,1,90
360,76,104157,2,0,P|312:100|264:104,1,90,8|0,0:0|0:0,0:0:0:0:
196,92,104479,5,0,0:0:0:0:
196,92,104586,2,0,P|148:68|92:64,2,90,0|0|8,0:0|0:0|0:0,0:0:0:0:
248,176,105229,1,0,0:0:0:0:
220,272,105443,2,0,P|244:328|324:384,2,135,0|8|0,0:0|0:0|0:0,0:0:0:0:
248,176,106300,6,0,P|260:122|248:79,1,90
201,24,106622,1,0,0:0:0:0:
201,24,106729,2,0,P|170:84|169:126,1,90,8|0,0:0|0:0,0:0:0:0:
220,272,107157,5,0,0:0:0:0:
368,80,107479,1,8,0:0:0:0:
200,256,107800,1,0,0:0:0:0:
64,316,108015,5,0,0:0:0:0:
108,228,108229,1,0,0:0:0:0:
8,224,108443,2,0,P|16:172|48:124,1,90,8|0,0:0|0:0,0:0:0:0:
108,72,108872,2,0,L|144:132,1,45
251,154,109193,2,0,L|228:116,1,45,0|8,0:0|0:0,0:0:0:0:
236,248,109515,6,0,P|272:284|336:300,1,90
408,292,109943,1,0,0:0:0:0:
384,196,110157,1,8,0:0:0:0:
484,192,110372,1,0,0:0:0:0:
427,69,110586,2,0,L|468:88,1,45
336,112,110907,2,0,L|295:93,1,45,0|8,0:0|0:0,0:0:0:0:
124,120,111229,6,0,P|184:128|216:152,2,90
189,252,111872,2,0,P|233:243|268:216,1,90,8|0,0:0|0:0,0:0:0:0:
153,234,112193,2,0,P|138:276|145:319,1,90
182,212,112515,2,0,P|153:178|112:162,2,90,0|8|0,0:0|0:0|0:0,0:0:0:0:
320,276,113157,5,0,0:0:0:0:
428,376,113479,1,8,0:0:0:0:
351,205,113800,1,0,0:0:0:0:
392,272,114229,5,0,0:0:0:0:
351,205,114443,2,0,L|388:196,3,22.5
336,164,114872,6,0,L|308:72,1,90,4|0,0:0|0:0,0:0:0:0:
108,24,115300,2,0,L|134:110,1,90,8|0,0:0|0:0,0:0:0:0:
256,192,115729,1,0,0:0:0:0:
224,100,115943,1,0,0:0:0:0:
20,68,116157,2,0,L|46:154,1,90,8|0,0:0|0:0,0:0:0:0:
156,280,116586,6,0,L|129:366,2,90,0|0|8,0:0|0:0|0:0,0:0:0:0:
256,192,117229,1,0,0:0:0:0:
356,280,117443,2,0,L|383:366,2,90,0|0|8,0:0|0:0|0:0,0:0:0:0:
256,192,118086,1,0,0:0:0:0:
156,280,118300,6,0,P|117:331|35:344,1,135
14,332,118729,2,0,P|9:283|30:239,1,90,8|0,0:0|0:0,0:0:0:0:
25,246,119372,2,0,L|84:266,1,45
103,235,119586,2,0,P|145:208|196:224,1,90,8|0,0:0|0:0,0:0:0:0:
260,348,120015,6,0,P|196:330|155:279,1,135
174,239,120443,2,0,P|165:197|115:163,1,90,8|0,0:0|0:0,0:0:0:0:
19,231,120872,2,0,P|59:246|102:234,1,90
105,103,121300,2,0,P|69:130|59:172,1,90,8|0,0:0|0:0,0:0:0:0:
174,239,121729,6,0,L|202:331,1,90,4|0,0:0|0:0,0:0:0:0:
402,379,122157,2,0,L|375:292,1,90,8|0,0:0|0:0,0:0:0:0:
254,211,122586,1,0,0:0:0:0:
286,303,122800,1,0,0:0:0:0:
490,335,123015,2,0,L|464:249,1,90,8|0,0:0|0:0,0:0:0:0:
360,104,123443,5,0,0:0:0:0:
444,156,123657,1,0,0:0:0:0:
268,104,123872,2,0,P|276:60|320:20,1,90,8|0,0:0|0:0,0:0:0:0:
360,104,124193,1,0,0:0:0:0:
360,104,124300,2,0,L|340:216,1,90
184,120,124729,2,0,L|165:31,1,90,8|0,0:0|0:0,0:0:0:0:
12,208,125157,6,0,P|72:180|160:212,1,135,4|0,0:0|0:0,0:0:0:0:
144,228,125586,2,0,P|160:276|192:304,1,90,8|0,0:0|0:0,0:0:0:0:
220,188,126015,5,0,0:0:0:0:
252,348,126229,1,0,0:0:0:0:
220,188,126443,2,0,P|250:228|254:270,1,90,8|0,0:0|0:0,0:0:0:0:
440,332,126872,5,4,0:0:0:0:
376,184,127086,1,0,0:0:0:0:
456,296,127300,2,0,L|460:248,1,45,8|0,0:0|0:0,0:0:0:0:
468,212,127515,1,0,0:0:0:0:
472,172,127622,2,0,P|472:116|452:68,1,90
232,40,128050,1,0,0:0:0:0:
232,40,128157,2,0,L|172:32,3,45,8|0|0|0,0:0|0:0|0:0|0:0,0:0:0:0:
264,40,128586,6,0,P|308:48|348:80,1,90,4|0,0:0|0:0,0:0:0:0:
308,148,129015,1,8,0:0:0:0:
296,228,129229,1,0,0:0:0:0:
236,284,129443,2,0,P|192:288|172:288,2,45,0|0|0,0:0|0:0|0:0,0:0:0:0:
260,316,129765,2,0,P|320:320|384:372,1,135,8|0,0:0|0:0,0:0:0:0:
410,278,130300,6,0,P|441:311|460:352,1,90
464,212,130729,2,0,P|423:193|391:163,1,90,8|0,0:0|0:0,0:0:0:0:
472,132,131050,1,0,0:0:0:0:
472,132,131157,2,0,L|420:96,1,45
236,44,131479,6,0,P|292:44|376:76,1,135,8|0,0:0|0:0,0:0:0:0:
212,124,132015,1,0,0:0:0:0:
152,176,132229,1,0,0:0:0:0:
24,140,132443,1,0,0:0:0:0:
100,112,132657,1,8,0:0:0:0:
76,200,132872,2,0,L|80:256,1,45
160,336,133193,2,0,L|157:292,1,45,0|8,0:0|0:0,0:0:0:0:
257,287,133515,6,0,L|236:200,2,90,0|0|0,0:0|0:0|0:0,0:0:0:0:
296,144,134157,2,0,L|275:57,1,90,8|0,0:0|0:0,0:0:0:0:
203,77,134479,1,0,0:0:0:0:
203,77,134586,2,0,L|196:32,1,45,0|0,0:0|0:0,0:0:0:0:
216,156,134907,2,0,P|156:180|128:268,1,135,8|0,0:0|0:0,0:0:0:0:
256,352,135443,6,0,P|280:300|276:264,1,90,0|0,0:0|0:0,0:0:0:0:
288,188,135872,1,8,0:0:0:0:
308,108,136086,1,0,0:0:0:0:
428,28,136300,1,0,0:0:0:0:
428,28,136407,2,0,P|412:80|372:116,1,90
384,144,136729,2,0,P|421:119|466:115,1,90,8|0,0:0|0:0,0:0:0:0:
401,260,137157,6,0,P|445:253|483:230,1,90
324,204,137586,2,0,P|287:181|242:174,1,90,8|0,0:0|0:0,0:0:0:0:
176,224,137907,1,0,0:0:0:0:
176,224,138015,2,0,L|176:284,2,45,0|0|0,0:0|0:0|0:0,0:0:0:0:
168,144,138336,2,0,P|160:84|108:24,1,135,8|0,0:0|0:0,0:0:0:0:
56,180,138872,5,0,0:0:0:0:
272,136,139193,1,8,0:0:0:0:
56,180,139515,1,0,0:0:0:0:
168,144,139729,5,0,0:0:0:0:
384,180,140050,1,8,0:0:0:0:
168,144,140372,1,0,0:0:0:0:
272,136,140586,6,0,P|292:184|296:240,1,90
216,292,141015,2,0,L|208:336,2,45,8|0|0,0:0|0:0|0:0,0:0:0:0:
224,212,141336,2,0,P|244:272|320:296,1,135
384,231,141765,1,0,0:0:0:0:
384,231,141872,2,0,P|334:220|278:226,1,90,8|0,0:0|0:0,0:0:0:0:
140,136,142300,6,0,P|204:128|248:136,1,90,4|0,0:0|0:0,0:0:0:0:
308,144,142729,1,8,0:0:0:0:
388,160,142943,1,0,0:0:0:0:
468,180,143157,2,0,L|512:192,1,45
336,232,143479,2,0,L|292:244,1,45,0|8,0:0|0:0,0:0:0:0:
511,293,143800,6,0,L|424:272,2,90,0|0|0,0:0|0:0|0:0,0:0:0:0:
356,316,144443,2,0,P|312:312|260:276,1,90,8|0,0:0|0:0,0:0:0:0:
192,224,144765,1,0,0:0:0:0:
192,224,144872,2,0,L|248:228,1,45
352,160,145193,2,0,L|204:148,1,135,8|0,0:0|0:0,0:0:0:0:
76,72,145729,5,0,0:0:0:0:
156,84,145943,1,0,0:0:0:0:
236,68,146157,1,8,0:0:0:0:
316,76,146372,1,0,0:0:0:0:
396,64,146586,2,0,P|416:72|448:40,1,45,0|0,0:0|0:0,0:0:0:0:
406,179,146907,2,0,P|458:144|508:184,1,135,8|0,0:0|0:0,0:0:0:0:
388,260,147443,6,0,L|312:188,1,90
124,260,147872,2,0,L|200:188,1,90,8|0,0:0|0:0,0:0:0:0:
256,152,148193,1,0,0:0:0:0:
256,152,148300,2,0,P|240:120|248:88,2,45,0|0|0,0:0|0:0|0:0,0:0:0:0:
256,232,148622,2,0,P|272:292|200:344,1,135,8|0,0:0|0:0,0:0:0:0:
64,332,149157,5,0,0:0:0:0:
44,256,149372,1,0,0:0:0:0:
76,180,149586,1,8,0:0:0:0:
140,132,149800,1,0,0:0:0:0:
220,132,150015,2,0,P|280:160|368:124,2,135,0|8|0,0:0|0:0|0:0,0:0:0:0:
176,64,150872,6,0,P|124:60|80:76,1,90
92,196,151300,1,8,0:0:0:0:
92,196,151407,2,0,L|156:208,1,45
196,152,151622,2,0,P|164:204|180:284,1,135
248,308,152050,1,0,0:0:0:0:
248,308,152157,2,0,P|288:272|296:220,1,90,8|0,0:0|0:0,0:0:0:0:
240,136,152586,5,0,0:0:0:0:
456,180,152907,1,8,0:0:0:0:
240,136,153229,1,0,0:0:0:0:
128,180,153443,5,0,0:0:0:0:
344,144,153765,1,8,0:0:0:0:
128,180,154086,1,0,0:0:0:0:
240,136,154300,5,0,0:0:0:0:
256,268,154622,1,0,0:0:0:0:
240,136,154943,1,0,0:0:0:0:
144,84,155157,1,0,0:0:0:0:
248,40,155372,1,0,0:0:0:0:
144,84,155586,2,0,L|96:96,1,45
116,116,155800,2,0,L|68:128,1,45
16,176,156015,6,0,P|84:176|140:248,1,135,4|0,0:0|0:0,0:0:0:0:
128,260,156443,2,0,L|216:240,1,90,8|0,0:0|0:0,0:0:0:0:
215,240,157086,1,0,0:0:0:0:
252,260,157193,1,0,0:0:0:0:
292,272,157300,1,8,0:0:0:0:
392,284,157515,1,0,0:0:0:0:
288,188,157729,6,0,P|272:172|240:160,1,45
88,156,158050,2,0,P|152:148|208:92,1,135,8|0,0:0|0:0,0:0:0:0:
156,36,158479,1,0,0:0:0:0:
156,36,158586,2,0,P|108:60|80:104,1,90
96,228,159015,1,8,0:0:0:0:
188,152,159229,1,0,0:0:0:0:
88,60,159443,6,0,P|40:104|24:188,1,135
24,212,159872,2,0,P|32:264|60:296,1,90,8|0,0:0|0:0,0:0:0:0:
54,292,160515,1,0,0:0:0:0:
96,300,160622,1,0,0:0:0:0:
132,320,160729,1,8,0:0:0:0:
232,328,160943,1,0,0:0:0:0:
116,232,161157,6,0,P|100:212|92:180,1,45
152,32,161479,2,0,P|176:88|160:176,1,135,8|0,0:0|0:0,0:0:0:0:
184,196,161907,1,0,0:0:0:0:
208,232,162015,1,0,0:0:0:0:
280,300,162229,1,0,0:0:0:0:
404,264,162443,1,8,0:0:0:0:
324,188,162657,6,0,L|328:240,2,45,0|0|0,0:0|0:0|0:0,0:0:0:0:
420,160,163086,1,0,0:0:0:0:
332,312,163300,2,0,P|288:344|196:340,2,135,8|0|0,0:0|0:0|0:0,0:0:0:0:
388,256,164050,1,0,0:0:0:0:
388,256,164157,2,0,P|424:240|496:248,1,90,8|0,0:0|0:0,0:0:0:0:
356,184,164586,6,0,L|264:208,1,90
268,248,164907,2,0,L|181:226,1,90,8|0,0:0|0:0,0:0:0:0:
156,260,165229,2,0,L|111:268,1,45
80,248,165443,2,0,P|112:204|112:160,1,90
60,116,165765,1,0,0:0:0:0:
60,116,165872,2,0,P|48:72|72:16,1,90,8|0,0:0|0:0,0:0:0:0:
224,28,166300,5,0,0:0:0:0:
184,172,166622,1,8,0:0:0:0:
312,44,166943,1,0,0:0:0:0:
132,88,167157,2,0,P|88:72|20:80,1,90
12,148,167479,1,0,0:0:0:0:
12,148,167586,2,0,P|60:160|112:152,1,90,8|0,0:0|0:0,0:0:0:0:
256,108,168015,6,0,L|256:256,2,135,0|8|0,0:0|0:0|0:0,0:0:0:0:
256,36,168765,1,0,0:0:0:0:
256,36,168872,1,0,0:0:0:0:
336,104,169086,1,0,0:0:0:0:
176,104,169300,6,0,B|176:144|176:144|172:148|172:148|176:152|176:152|176:200,1,90
176,272,169943,5,0,0:0:0:0:
256,252,170157,1,8,0:0:0:0:
324,296,170372,1,0,0:0:0:0:
400,268,170586,5,0,0:0:0:0:
256,340,170907,1,8,0:0:0:0:
400,268,171229,1,0,0:0:0:0:
324,296,171443,5,0,0:0:0:0:
320,216,171657,1,0,0:0:0:0:
368,152,171872,1,8,0:0:0:0:
316,92,172086,1,0,0:0:0:0:
236,108,172300,5,0,0:0:0:0:
388,56,172622,1,8,0:0:0:0:
236,108,172943,1,0,0:0:0:0:
316,92,173157,1,0,0:0:0:0:
316,92,173586,5,8,0:0:0:0:
292,168,173800,1,0,0:0:0:0:
372,152,174015,1,0,0:0:0:0:
212,188,174336,1,8,0:0:0:0:
372,152,174657,1,0,0:0:0:0:
292,168,174872,6,0,L|288:224,1,45
360,252,175300,2,0,L|364:280,1,22.5,8|0,0:0|0:0,0:0:0:0:
360,312,175515,2,0,L|300:292,1,45
248,332,175943,2,0,L|176:344,2,67.5000025749208,0|8|0,0:0|0:0|0:0,0:0:0:0:
160,268,176586,6,0,L|56:252,1,90,4|0,0:0|0:0,0:0:0:0:
188,184,177015,2,0,L|292:168,1,90,8|0,0:0|0:0,0:0:0:0:
160,104,177443,1,0,0:0:0:0:
236,292,177765,1,8,0:0:0:0:
160,104,178086,1,0,0:0:0:0:
240,212,178300,6,0,P|184:224|160:264,1,90,4|0,0:0|0:0,0:0:0:0:
240,136,178729,2,0,P|296:124|320:84,1,90,8|0,0:0|0:0,0:0:0:0:
196,36,179157,1,0,0:0:0:0:
316,200,179479,1,8,0:0:0:0:
196,36,179800,1,0,0:0:0:0:
168,168,180015,6,0,L|64:168,1,90,4|0,0:0|0:0,0:0:0:0:
36,100,180336,1,0,0:0:0:0:
36,100,180443,2,0,P|56:160|36:200,1,90,8|0,0:0|0:0,0:0:0:0:
40,320,180872,1,0,0:0:0:0:
240,296,181193,1,8,0:0:0:0:
40,320,181515,1,0,0:0:0:0:
164,272,181729,6,0,P|192:232|248:220,1,90
312,212,182050,1,0,0:0:0:0:
312,212,182157,2,0,P|256:204|224:176,1,90,8|0,0:0|0:0,0:0:0:0:
188,116,182479,1,0,0:0:0:0:
188,116,182586,2,0,L|144:80,3,45,0|0|0|0,0:0|0:0|0:0|0:0,0:0:0:0:
192,24,183015,2,0,L|226:52,3,45,0|0|0|0,0:0|0:0|0:0|0:0,0:0:0:0:
264,116,183443,5,4,0:0:0:0:
256,192,190300,12,4,193300,0:0:0:0:
312,116,193729,6,0,P|340:168|344:208,1,90,2|0,0:0|0:0,0:0:0:0:
320,276,194157,1,8,0:0:0:0:
240,264,194372,2,0,P|208:240|180:192,1,90
172,116,194800,1,0,0:0:0:0:
128,48,195015,1,8,0:0:0:0:
128,48,195229,6,0,P|128:108|112:144,1,90
64,196,195657,2,0,P|52:248|60:304,1,90,0|8,0:0|0:0,0:0:0:0:
116,340,196086,1,0,0:0:0:0:
188,308,196300,1,0,0:0:0:0:
268,324,196515,1,0,0:0:0:0:
344,296,196729,1,8,0:0:0:0:
420,320,196943,1,0,0:0:0:0:
204,60,198443,6,0,L|140:44,1,45,0|0,0:0|0:0,0:0:0:0:
88,64,198657,6,0,P|136:100|144:152,2,90,0|4|0,0:0|0:0|0:0,0:0:0:0:
56,140,199300,1,8,0:0:0:0:
60,220,199515,1,0,0:0:0:0:
92,296,199729,1,0,0:0:0:0:
92,296,199836,2,0,P|132:316|192:320,1,90
200,244,200157,2,0,P|240:224|300:220,1,90,8|0,0:0|0:0,0:0:0:0:
260,300,200479,5,0,0:0:0:0:
260,300,200586,2,0,P|316:328|360:328,2,90,0|0|8,0:0|0:0|0:0,0:0:0:0:
200,244,201229,1,0,0:0:0:0:
140,188,201443,2,0,L|116:144,1,45
164,32,201765,2,0,P|176:96|232:156,1,135,8|0,0:0|0:0,0:0:0:0:
280,92,202300,6,0,L|376:76,1,90
448,174,202729,2,0,L|360:160,1,90,8|0,0:0|0:0,0:0:0:0:
251,254,203157,1,0,0:0:0:0:
251,254,203265,2,0,L|340:240,1,90,0|0,0:0|0:0,0:0:0:0:
356,320,203586,2,0,L|444:334,1,90,8|0,0:0|0:0,0:0:0:0:
276,336,204015,6,0,P|220:332|180:300,2,90,0|0|8,0:0|0:0|0:0,0:0:0:0:
324,268,204657,1,0,0:0:0:0:
304,188,204872,1,0,0:0:0:0:
304,188,204979,1,0,0:0:0:0:
204,116,205193,1,0,0:0:0:0:
204,116,205300,1,8,0:0:0:0:
284,100,205515,1,0,0:0:0:0:
224,200,205729,6,0,P|176:196|136:168,1,90,0|0,0:0|0:0,0:0:0:0:
100,104,206157,1,8,0:0:0:0:
72,28,206372,1,0,0:0:0:0:
28,96,206586,2,0,L|16:148,1,45,0|0,0:0|0:0,0:0:0:0:
86,239,206907,2,0,L|76:196,1,45,0|8,0:0|0:0,0:0:0:0:
28,96,207229,1,0,0:0:0:0:
100,132,207443,6,0,P|144:136|196:112,1,90
256,80,207872,1,8,0:0:0:0:
336,64,208086,1,0,0:0:0:0:
416,68,208300,2,0,L|480:80,2,45,0|0|0,0:0|0:0|0:0,0:0:0:0:
388,144,208622,2,0,P|336:156|232:140,1,135,8|0,0:0|0:0,0:0:0:0:
48,108,209157,6,0,P|104:132|172:184,1,135,0|8,0:0|0:0,0:0:0:0:
240,320,209800,1,0,0:0:0:0:
196,252,210015,2,0,P|240:228|296:152,1,135,0|8,0:0|0:0,0:0:0:0:
388,32,210657,1,0,0:0:0:0:
352,104,210872,6,0,L|384:188,1,90
404,268,211193,1,0,0:0:0:0:
404,268,211300,2,0,P|388:268|352:260,2,45,8|0|0,0:0|0:0|0:0,0:0:0:0:
456,332,211622,2,0,P|400:348|312:328,1,135
268,280,212050,1,0,0:0:0:0:
268,280,212157,2,0,P|248:224|248:188,1,90,8|0,0:0|0:0,0:0:0:0:
176,48,212586,5,4,0:0:0:0:
224,112,212800,1,0,0:0:0:0:
144,128,213015,1,8,0:0:0:0:
92,64,213229,1,0,0:0:0:0:
60,140,213443,2,0,L|80:192,1,45,0|0,0:0|0:0,0:0:0:0:
80,308,213765,2,0,L|63:265,1,45,0|8,0:0|0:0,0:0:0:0:
160,312,214086,6,0,P|204:336|264:332,2,90,0|0|0,0:0|0:0|0:0,0:0:0:0:
152,288,214622,1,0,0:0:0:0:
144,260,214729,1,8,0:0:0:0:
52,112,214943,1,0,0:0:0:0:
128,168,215157,2,0,L|188:164,1,45
292,212,215479,2,0,L|232:216,1,45,0|8,0:0|0:0,0:0:0:0:
328,136,215800,6,0,P|380:128|420:88,2,90,0|0|0,0:0|0:0|0:0,0:0:0:0:
260,96,216443,1,8,0:0:0:0:
184,68,216657,1,0,0:0:0:0:
108,40,216872,1,0,0:0:0:0:
108,40,216979,2,0,P|76:92|72:136,1,90
132,176,217300,2,0,P|120:228|88:264,1,90,8|0,0:0|0:0,0:0:0:0:
32,364,217729,5,0,0:0:0:0:
108,340,217943,1,0,0:0:0:0:
188,340,218157,1,8,0:0:0:0:
307,328,218372,2,0,L|264:316,1,45
388,336,218586,2,0,L|444:320,1,45
396,196,218907,2,0,B|356:208|356:208|348:152|296:136,1,135
156,220,219443,5,0,0:0:0:0:
156,220,219550,1,0,0:0:0:0:
156,220,219657,1,0,0:0:0:0:
216,160,219872,1,8,0:0:0:0:
136,140,220086,1,0,0:0:0:0:
56,148,220300,1,0,0:0:0:0:
208,88,220622,1,8,0:0:0:0:
56,148,220943,1,0,0:0:0:0:
208,88,221157,6,0,P|248:64|308:64,1,90
368,88,221479,1,0,0:0:0:0:
368,88,221586,2,0,L|428:80,2,45,8|0|0,0:0|0:0|0:0,0:0:0:0:
384,168,221907,2,0,B|448:160|448:160|488:136|492:88,1,135
476,24,222336,1,0,0:0:0:0:
476,24,222443,2,0,L|376:36,1,90,8|0,0:0|0:0,0:0:0:0:
188,72,222872,6,0,P|264:80|320:120,1,135,0|8,0:0|0:0,0:0:0:0:
396,248,223515,1,0,0:0:0:0:
336,192,223729,6,0,P|272:212|232:256,1,90
216,296,224050,1,0,0:0:0:0:
216,296,224157,2,0,P|232:248|224:176,1,90,8|0,0:0|0:0,0:0:0:0:
148,64,224586,5,4,0:0:0:0:
124,160,224800,2,0,L|112:216,1,45
44,272,225015,2,0,L|44:220,3,45,8|0|0|0,0:0|0:0|0:0|0:0,0:0:0:0:
120,280,225443,2,0,P|136:336|164:360,1,90,0|0,0:0|0:0,0:0:0:0:
200,284,225765,1,0,0:0:0:0:
200,284,225872,2,0,L|204:240,3,45,8|0|0|0,0:0|0:0|0:0|0:0,0:0:0:0:
276,304,226300,6,0,P|336:280|356:248,1,90,4|0,0:0|0:0,0:0:0:0:
356,180,226622,2,0,P|292:176|224:212,1,135,8|0,0:0|0:0,0:0:0:0:
148,208,227050,1,0,0:0:0:0:
148,208,227157,2,0,L|152:308,1,90
68,228,227479,1,0,0:0:0:0:
68,228,227586,2,0,L|72:328,1,90,8|0,0:0|0:0,0:0:0:0:
240,340,228015,6,0,P|248:268|224:188,1,135
184,144,228443,2,0,P|242:186|323:206,1,135,8|0,0:0|0:0,0:0:0:0:
384,196,228872,2,0,P|317:225|260:285,1,135
240,340,229300,1,8,0:0:0:0:
100,256,229515,5,0,0:0:0:0:
100,256,229622,1,0,0:0:0:0:
100,256,229729,2,0,P|72:220|64:164,2,90,0|0|8,0:0|0:0|0:0,0:0:0:0:
136,112,230372,1,0,0:0:0:0:
136,112,230586,2,0,P|164:148|172:204,1,90,0|0,0:0|0:0,0:0:0:0:
180,272,230907,1,0,0:0:0:0:
180,272,231015,2,0,P|236:272|280:304,1,90,8|0,0:0|0:0,0:0:0:0:
416,292,231443,6,0,P|464:288|500:256,2,90,0|0|8,0:0|0:0|0:0,0:0:0:0:
348,192,232086,1,0,0:0:0:0:
360,152,232193,1,0,0:0:0:0:
380,116,232300,2,0,P|428:120|464:152,2,90,0|0|8,0:0|0:0|0:0,0:0:0:0:
316,192,232943,2,0,P|324:232|336:252,1,45
252,148,233157,6,0,P|276:104|276:52,1,90
176,112,233586,1,0,0:0:0:0:
192,16,233800,1,8,0:0:0:0:
72,112,234015,2,0,P|68:164|80:204,1,90
155,215,234336,2,0,P|161:259|149:303,1,90,8|0,0:0|0:0,0:0:0:0:
75,335,234657,2,0,P|72:313|72:291,1,45
156,216,234872,6,0,P|176:160|144:72,2,135,0|8|0,0:0|0:0|0:0,0:0:0:0:
53,117,235729,2,0,L|64:28,1,90,0|0,0:0|0:0,0:0:0:0:
144,28,236050,1,0,0:0:0:0:
144,28,236157,2,0,L|156:132,1,90,8|0,0:0|0:0,0:0:0:0:
112,236,236586,6,0,P|144:288|184:312,1,90
236,344,236907,2,0,P|244:288|200:200,1,135,8|0,0:0|0:0,0:0:0:0:
160,156,237443,1,0,0:0:0:0:
316,192,237765,1,8,0:0:0:0:
160,156,238086,1,0,0:0:0:0:
392,192,238300,6,0,P|376:144|280:120,2,135,0|8|0,0:0|0:0|0:0,0:0:0:0:
300,276,239157,2,0,L|244:288,1,45
292,304,239372,2,0,L|236:316,1,45
284,336,239586,2,0,L|196:355,1,90,8|0,0:0|0:0,0:0:0:0:
256,192,240015,12,4,241729,0:0:0:0:
