osu file format v13

[General]
AudioFilename: Kagamine Rin & LenElectricAngel.mp3
AudioLeadIn: 0
PreviewTime: 39014
Countdown: 0
SampleSet: Soft
StackLeniency: 0.6
Mode: 0
LetterboxInBreaks: 0
WidescreenStoryboard: 0

[Editor]
Bookmarks: 12207,13807,13899,32607,65007,71407,77807,84207,90607,103407,116207,129007,143407,148207,149800,156207,162507,169007
DistanceSpacing: 1
BeatDivisor: 4
GridSize: 4
TimelineZoom: 1.7

[Metadata]
Title:Electric Angel
TitleUnicode:えれくとりっく・えんじぇぅ
Artist:Giga-P
ArtistUnicode:ギガP
Creator:pkmnyab
Version:Normal
Source:
Tags:Kagamine Rin Len Vocaloid Kibbleru Yasuo-P YasuoP Orebanana-P OrebananaP GigaP
BeatmapID:363640
BeatmapSetID:146794

[Difficulty]
HPDrainRate:3
CircleSize:3
OverallDifficulty:4
ApproachRate:5
SliderMultiplier:1.2
SliderTickRate:2

[Events]
//Background and Video events
0,0,"BG.jpg",0,0
Video,-50,"Electric Angel.avi"
//Break Periods
2,52414,63814
2,116413,127814
2,143614,147014
//Storyboard Layer 0 (Background)
//Storyboard Layer 1 (Fail)
//Storyboard Layer 2 (Pass)
//Storyboard Layer 3 (Foreground)
//Storyboard Sound Samples
//Background Colour Transformations
3,100,163,162,255

[TimingPoints]
1014.04809727265,400,4,2,3,70,1,0
13414,-100,4,2,1,70,0,0
26614,-100,4,2,2,70,0,0
33014,-100,4,2,1,70,0,0
39414,-100,4,2,1,90,0,1
52214,-100,4,2,1,70,0,0
65014,-100,4,2,3,70,0,0
71014,-100,4,1,0,50,0,0
71414,-100,4,2,1,70,0,0
90614,-100,4,2,1,90,0,1
103014,-100,4,2,1,70,0,0
103414,-100,4,2,1,90,0,1
116214,-100,4,2,3,70,0,0
143414,-100,4,1,1,95,0,0
148214,-100,4,2,1,70,0,0
149814,-100,4,2,1,90,0,1
155814,-100,4,2,1,50,0,0
156214,-100,4,2,1,90,0,1
169014,-100,4,2,1,80,0,0

[Colours]
Combo1 : 253,179,179
Combo2 : 243,245,165
Combo3 : 252,209,65
Combo4 : 235,38,33

[HitObjects]
364,288,12214,5,0,1:2:0:0:
272,212,12614,1,0,1:2:0:0:
180,288,13014,1,0,1:2:0:0:
64,80,13814,6,0,P|128:64|194:89,1,120,0|0,1:2|1:2,0:0:0:0:
264,164,14614,2,0,L|288:44,1,120,0|0,1:2|1:2,0:0:0:0:
372,132,15414,2,0,P|416:168|484:176,2,120,0|0|0,1:2|1:2|1:2,0:0:0:0:
268,76,16614,2,0,L|200:100,1,60,8|8,1:2|0:0,0:0:0:0:
160,124,17014,6,0,P|195:171|249:195,1,120,0|0,1:2|1:2,0:0:0:0:
342,269,17814,2,0,P|294:304|236:312,1,120,0|0,1:2|1:2,0:0:0:0:
132,252,18614,1,0,1:2:0:0:
184,144,19014,1,0,1:2:0:0:
296,108,19414,2,0,L|364:108,2,60,0|0|0,1:2|0:0|1:2,0:0:0:0:
184,144,20214,5,0,1:2:0:0:
288,204,20614,1,0,1:2:0:0:
320,320,21014,2,0,P|376:292|400:236,1,120,0|0,1:2|1:2,0:0:0:0:
372,124,21814,1,0,1:2:0:0:
268,60,22214,2,0,L|208:60,2,60,0|0|0,1:2|0:0|1:2,0:0:0:0:
372,124,23014,2,0,L|424:184,1,60,8|8,1:2|0:0,0:0:0:0:
432,224,23414,6,0,B|372:252|317:225,1,120,0|0,1:2|1:2,0:0:0:0:
224,152,24214,2,0,L|156:152,2,60,0|0|0,1:2|0:0|1:2,0:0:0:0:
172,260,25014,2,0,P|112:248|68:196,1,120,0|0,1:2|1:2,0:0:0:0:
92,88,25814,1,0,1:2:0:0:
212,108,26214,2,0,L|292:88,1,60,0|0,1:2|0:0,0:0:0:0:
328,84,26614,6,0,P|386:95|428:140,1,120,4|0,1:2|0:0,0:0:0:0:
328,204,27414,2,0,P|260:204|212:240,1,120,8|0,1:2|0:0,0:0:0:0:
100,228,28214,1,0,1:2:0:0:
136,344,28614,1,0,1:2:0:0:
256,336,29014,2,0,B|312:336|312:336|330:330|330:330|384:332,1,120,8|0,1:2|1:2,0:0:0:0:
464,252,29814,5,0,1:2:0:0:
352,208,30214,1,0,0:0:0:0:
440,128,30614,2,0,L|504:100,2,60,8|0|0,1:2|0:0|0:0,0:0:0:0:
332,80,31414,1,0,1:2:0:0:
236,152,31814,1,0,1:2:0:0:
344,200,32214,1,8,1:2:0:0:
440,128,32614,2,0,P|472:156|488:192,1,60,0|0,1:2|0:0,0:0:0:0:
500,228,33014,6,0,P|506:291|466:353,1,120,4|10,1:2|1:2,0:0:0:0:
388,264,33814,2,0,P|372:202|401:135,2,120,0|10|0,1:2|1:2|1:2,0:0:0:0:
496,204,35014,1,10,1:2:0:0:
389,151,35414,2,0,B|253:151,1,120,0|10,1:2|1:2,0:0:0:0:
164,208,36214,6,0,B|192:264|260:271,1,120,0|10,1:2|1:2,0:0:0:0:
368,320,37014,2,0,L|388:384,2,60,0|0|10,1:2|0:0|1:2,0:0:0:0:
260,272,37814,2,0,B|201:244|201:292|140:272,2,120,0|0|8,1:2|1:2|1:2,0:0:0:0:
376,240,39014,2,0,L|432:192,1,60
424,140,39414,6,0,P|385:79|320:52,1,120,6|8,1:2|1:2,0:0:0:0:
240,116,40214,2,0,P|210:167|160:199,1,120,2|8,1:2|1:2,0:0:0:0:
40,208,41014,2,0,L|96:336,1,120,2|8,1:2|1:2,0:0:0:0:
140,348,41614,1,0,0:0:0:0:
140,348,41814,2,0,P|216:356|280:340,1,120,2|8,1:2|1:2,0:0:0:0:
320,244,42614,6,0,P|256:256|201:244,1,120,2|8,1:2|1:2,0:0:0:0:
136,144,43414,2,0,L|92:264,2,120,2|8|2,1:2|1:2|1:2,0:0:0:0:
248,96,44614,1,8,1:2:0:0:
244,216,45014,2,0,P|302:207|348:164,1,120,2|8,1:2|1:2,0:0:0:0:
440,92,45814,6,0,B|392:100|352:56|352:56|324:64,1,120,2|8,1:2|1:2,0:0:0:0:
212,48,46614,2,0,P|204:107|175:159,1,120,2|8,1:2|1:2,0:0:0:0:
124,268,47414,1,2,1:2:0:0:
232,316,47814,1,10,1:2:0:0:
308,220,48214,2,0,P|367:216|421:191,1,120,2|8,1:2|1:2,0:0:0:0:
456,144,48814,1,0,0:0:0:0:
444,84,49014,6,0,B|379:52|328:85,1,120,6|12,1:2|1:2,0:0:0:0:
276,116,49614,1,0,0:0:0:0:
232,156,49814,2,0,B|181:188|117:157,1,120,6|8,1:2|1:2,0:0:0:0:
256,192,50614,12,4,52214,0:0:0:0:
84,148,65014,5,0,1:2:0:0:
180,216,65414,1,0,1:2:0:0:
228,104,65814,1,0,1:2:0:0:
324,176,66214,1,0,1:2:0:0:
412,96,66614,2,0,L|488:96,2,60,0|0|0,1:2|0:0|1:2,0:0:0:0:
324,176,67414,2,0,P|302:233|318:293,1,120,0|0,1:2|1:2,0:0:0:0:
424,236,68214,5,0,1:2:0:0:
492,140,68614,1,0,1:2:0:0:
392,76,69014,1,0,1:2:0:0:
324,176,69414,1,0,1:2:0:0:
220,236,69814,2,0,L|160:236,2,60,0|0|0,1:2|0:0|1:2,0:0:0:0:
324,176,70614,2,0,P|353:174|379:160,1,60,0|0,1:2|0:0,0:0:0:0:
412,108,71014,2,2,P|440:92|468:92,1,60,2|0,0:0|1:2,0:0:0:0:
508,136,71414,5,0,1:2:0:0:
452,244,71814,2,0,P|416:252|380:280,1,60,8|0,1:2|0:0,0:0:0:0:
360,312,72214,2,0,P|304:331|246:318,1,120,0|8,1:2|1:2,0:0:0:0:
148,252,73014,2,0,L|100:304,2,60,0|0|8,1:2|0:0|1:2,0:0:0:0:
240,176,73814,2,0,P|176:136|108:140,1,120,0|8,1:2|1:2,0:0:0:0:
148,252,74614,6,0,P|192:292|252:304,1,120,0|8,1:2|1:2,0:0:0:0:
356,252,75414,2,0,L|384:308,2,60,0|0|8,1:2|0:0|1:2,0:0:0:0:
252,192,76214,2,0,P|236:132|260:72,1,120,0|8,1:2|1:2,0:0:0:0:
356,16,77014,1,0,1:2:0:0:
460,76,77414,1,8,1:2:0:0:
368,152,77814,6,0,B|344:184|344:184|344:280,1,120,6|8,1:2|1:2,0:0:0:0:
232,304,78614,2,0,B|256:272|256:272|256:176,1,120,2|8,1:2|1:2,0:0:0:0:
156,128,79414,2,0,L|100:184,2,60,2|0|8,1:2|0:0|1:2,0:0:0:0:
256,60,80214,1,2,1:2:0:0:
340,148,80614,2,0,P|368:164|400:164,1,60,8|0,1:2|0:0,0:0:0:0:
452,152,81014,6,0,P|468:209|452:266,1,120,2|8,1:2|1:2,0:0:0:0:
340,312,81814,2,0,L|348:372,2,60,2|0|8,1:2|0:0|1:2,0:0:0:0:
244,240,82614,2,0,P|208:256|116:228,1,120,2|8,1:2|1:2,0:0:0:0:
72,136,83414,1,2,1:2:0:0:
132,240,83814,2,0,L|132:312,1,60,8|0,1:2|0:0,0:0:0:0:
160,352,84214,6,0,P|220:368|280:352,1,120,2|8,1:2|1:2,0:0:0:0:
372,288,85014,2,0,P|423:318|482:323,2,120,2|8|2,1:2|1:2|1:2,0:0:0:0:
264,232,86214,1,8,1:2:0:0:
156,288,86614,2,0,P|104:318|44:320,1,120,2|8,1:2|1:2,0:0:0:0:
76,204,87414,6,0,P|128:174|188:172,1,120,2|8,1:2|1:2,0:0:0:0:
240,196,88014,1,0,0:0:0:0:
292,224,88214,2,0,P|351:221|402:191,1,120,2|8,1:2|1:2,0:0:0:0:
488,108,89014,2,0,L|488:236,1,120,0|0,1:2|0:0,0:0:0:0:
396,304,89814,2,0,L|444:348,2,60,0|0|0,1:2|0:0|1:2,0:0:0:0:
320,212,90614,6,0,P|312:268|260:316,1,120,6|8,1:2|1:2,0:0:0:0:
148,320,91414,2,0,P|156:264|208:216,1,120,2|8,1:2|1:2,0:0:0:0:
320,212,92214,2,0,P|348:240|444:264,1,120,2|8,1:2|1:2,0:0:0:0:
480,248,92814,1,0,0:0:0:0:
480,248,93014,2,0,L|492:112,1,120,2|8,1:2|1:2,0:0:0:0:
376,88,93814,6,0,P|312:112|255:95,1,120,2|8,1:2|1:2,0:0:0:0:
168,172,94614,2,0,P|179:230|155:284,2,120,2|8|2,1:2|1:2|1:2,0:0:0:0:
72,104,95814,1,8,1:2:0:0:
180,52,96214,2,0,P|236:71|274:115,1,120,2|8,1:2|1:2,0:0:0:0:
308,232,97014,6,0,L|195:190,1,120,2|8,1:2|1:2,0:0:0:0:
112,276,97814,2,0,L|232:320,1,120,2|8,1:2|1:2,0:0:0:0:
340,352,98614,1,2,1:2:0:0:
436,284,99014,1,10,1:2:0:0:
404,168,99414,2,0,P|356:192|320:252,1,120,2|8,1:2|1:2,0:0:0:0:
292,300,100014,1,0,0:0:0:0:
244,332,100214,6,0,B|187:358|129:331,1,120,6|12,1:2|1:2,0:0:0:0:
76,304,100814,1,0,0:0:0:0:
20,324,101014,2,0,L|36:180,1,120,6|8,1:2|1:2,0:0:0:0:
116,116,101814,5,0,1:2:0:0:
180,216,102214,1,0,0:0:0:0:
236,112,102614,1,0,1:2:0:0:
304,212,103014,2,0,L|328:132,1,60,0|0,1:2|0:0,0:0:0:0:
340,96,103414,6,0,P|392:120|460:96,1,120,6|8,1:2|1:2,0:0:0:0:
456,224,104214,2,0,P|440:264|411:285,1,60,2|0,1:2|0:0,0:0:0:0:
376,300,104614,1,8,1:2:0:0:
260,264,105014,6,0,B|208:236|143:253,1,120,2|8,1:2|1:2,0:0:0:0:
88,272,105614,1,0,0:0:0:0:
40,308,105814,2,0,L|40:368,2,60,2|2|10,1:2|0:0|1:2,0:0:0:0:
44,188,106614,6,0,B|108:188|172:148,1,120,2|8,1:2|1:2,0:0:0:0:
212,124,107214,1,0,0:0:0:0:
212,124,107414,2,0,L|212:256,1,120,2|8,1:2|1:2,0:0:0:0:
312,308,108214,6,0,P|340:292|364:260,1,60,2|0,1:2|0:0,0:0:0:0:
396,224,108614,2,0,L|396:152,1,60,10|0,1:2|0:0,0:0:0:0:
452,148,109014,2,0,B|484:160|488:200|488:200|488:268,1,120,2|10,1:2|1:2,0:0:0:0:
428,356,109814,5,2,1:2:0:0:
328,288,110214,1,8,1:2:0:0:
208,300,110614,2,0,P|184:324|167:354,2,60,2|2|10,1:2|0:0|1:2,0:0:0:0:
328,288,111414,6,0,P|285:245|264:188,1,120,2|8,1:2|1:2,0:0:0:0:
348,104,112214,1,2,1:2:0:0:
240,52,112614,2,0,P|176:76|140:124,1,120,10|2,1:2|1:2,0:0:0:0:
212,212,113414,6,0,P|232:248|236:282,2,60,10|2|2,1:2|0:0|1:2,0:0:0:0:
319,160,114214,2,0,L|396:136,1,60,8|0,1:2|0:0,0:0:0:0:
436,148,114614,2,0,P|431:224|392:272,1,120,0|0,1:2|1:2,0:0:0:0:
288,244,115414,1,0,1:2:0:0:
176,292,115814,6,0,L|128:348,2,60,10|2|6,1:2|0:0|1:2,0:0:0:0:
88,120,129014,5,0,1:2:0:0:
196,64,129414,1,8,1:2:0:0:
220,180,129814,1,0,1:2:0:0:
328,124,130214,1,8,1:2:0:0:
420,204,130614,2,0,P|404:260|344:286,1,120,0|8,1:2|1:2,0:0:0:0:
232,300,131414,1,0,1:2:0:0:
164,204,131814,2,0,L|236:172,1,60,8|0,1:2|0:0,0:0:0:0:
276,156,132214,5,0,1:2:0:0:
364,76,132614,1,8,1:2:0:0:
424,180,133014,2,0,L|416:256,1,60,0|0,1:2|0:0,0:0:0:0:
412,300,133414,1,8,1:2:0:0:
292,332,133814,6,0,B|224:308|213:245,1,120,0|10,1:2|1:2,0:0:0:0:
184,196,134414,2,0,P|145:233|71:239,1,120,0|0,0:0|0:0,0:0:0:0:
64,184,135014,2,2,B|80:104,1,60,8|0,1:2|0:0,0:0:0:0:
88,68,135414,5,0,1:2:0:0:
208,48,135814,1,8,1:2:0:0:
284,140,136214,1,0,1:2:0:0:
168,164,136614,1,8,1:2:0:0:
104,264,137014,2,0,P|140:324|188:344,1,120,0|8,1:2|1:2,0:0:0:0:
220,228,137814,1,0,1:2:0:0:
172,120,138214,2,0,L|243:83,1,60,8|0,1:2|0:0,0:0:0:0:
280,64,138614,5,0,1:2:0:0:
340,168,139014,1,8,1:2:0:0:
396,60,139414,2,0,P|428:83|444:117,2,60,0|0|8,1:2|0:0|1:2,0:0:0:0:
340,168,140214,6,0,B|277:205|209:166,1,120,0|8,1:2|1:2,0:0:0:0:
164,72,141014,2,0,B|231:38|300:82,1,120,0|8,1:2|1:2,0:0:0:0:
256,192,141814,12,4,143414,0:0:0:0:
196,268,148214,6,0,P|256:280|324:264,2,120,0|0|0,1:2|1:2|1:2,0:0:0:0:
112,180,149414,2,0,L|100:112,1,60
112,60,149814,6,0,P|168:84|236:76,1,120,4|8,1:2|1:2,0:0:0:0:
336,32,150614,2,0,L|318:150,1,120,0|8,1:2|1:2,0:0:0:0:
204,184,151414,1,0,1:2:0:0:
288,268,151814,1,8,1:2:0:0:
396,212,152214,2,0,P|408:272|388:336,1,120,0|8,1:2|1:2,0:0:0:0:
340,352,152814,1,0,0:0:0:0:
280,352,153014,6,0,P|240:340|144:340,1,120,4|4,1:2|1:2,0:0:0:0:
104,360,153614,1,0,0:0:0:0:
48,376,153814,2,0,L|56:248,1,120,4|0,1:2|1:2,0:0:0:0:
164,204,154614,5,0,1:2:0:0:
264,272,155014,1,0,0:0:0:0:
376,232,155414,2,0,P|364:200|336:180,1,60,0|0,1:2|0:0,0:0:0:0:
292,156,155814,2,0,P|260:144|236:124,1,60
204,80,156214,6,0,P|156:132|140:184,1,120,6|8,1:2|1:2,0:0:0:0:
76,280,157014,2,0,P|32:232|20:164,1,120,2|8,1:2|1:2,0:0:0:0:
141,178,157814,2,0,P|200:184|269:154,1,120,2|8,1:2|1:2,0:0:0:0:
316,148,158414,1,0,0:0:0:0:
316,148,158614,2,0,L|316:280,1,120,2|8,1:2|1:2,0:0:0:0:
220,340,159414,6,0,P|162:325|119:284,1,120,2|8,1:2|1:2,0:0:0:0:
80,172,160214,2,0,P|28:208|1:262,2,120,2|8|2,1:2|1:2|1:2,0:0:0:0:
172,96,161414,1,8,1:2:0:0:
248,188,161814,2,0,B|296:224|372:216,1,120,2|8,1:2|1:2,0:0:0:0:
452,296,162614,6,0,L|331:328,1,120,2|8,1:2|1:2,0:0:0:0:
247,248,163414,2,0,L|366:216,1,120,2|8,1:2|1:2,0:0:0:0:
448,132,164214,1,2,1:2:0:0:
344,68,164614,1,10,1:2:0:0:
244,132,165014,2,0,P|192:180|128:188,1,120,2|8,1:2|1:2,0:0:0:0:
84,184,165614,1,0,0:0:0:0:
28,164,165814,6,0,P|16:212|24:296,1,120,4|4,1:2|1:2,0:0:0:0:
68,320,166414,1,0,0:0:0:0:
128,308,166614,2,0,P|192:296|260:312,1,120,4|0,1:2|1:2,0:0:0:0:
256,192,167414,12,4,169014,0:0:0:0:
