osu file format v14

[General]
AudioFilename: IMA NO.mp3
AudioLeadIn: 0
PreviewTime: 51305
Countdown: 0
SampleSet: Normal
StackLeniency: 0.7
Mode: 0
LetterboxInBreaks: 0
WidescreenStoryboard: 1

[Editor]
Bookmarks: 58968,59457,115544,116849,245327
DistanceSpacing: 0.6
BeatDivisor: 4
GridSize: 4
TimelineZoom: 2.2

[Metadata]
Title:Asymmetry
TitleUnicode:アシンメトリー
Artist:Giga-P
ArtistUnicode:Giga-P
Creator:-Harpuia-
Version:Wish
Source:
Tags:vocaloid no title+ kagamine len reol kalibe -akitoshi- akitoshi ster chara vulkin
BeatmapID:952387
BeatmapSetID:357547

[Difficulty]
HPDrainRate:6
CircleSize:4.2
OverallDifficulty:8
ApproachRate:9.6
SliderMultiplier:2.3
SliderTickRate:1

[Events]
//Background and Video events
0,0,"re.png",0,0
//Break Periods
2,79875,83079
//Storyboard Layer 0 (Background)
//Storyboard Layer 1 (Fail)
//Storyboard Layer 2 (Pass)
//Storyboard Layer 3 (Foreground)
//Storyboard Sound Samples

[TimingPoints]
110,326.086956521739,4,2,7,40,1,0
110,-200,4,2,7,40,0,0
5327,-100,4,2,8,75,0,0
5490,-100,4,1,7,75,0,0
7283,-100,4,1,5,75,0,0
7609,-100,4,1,7,75,0,0
8425,-100,4,1,5,75,0,0
8914,-100,4,1,7,75,0,0
10055,-66.6666666666667,4,1,7,90,0,0
10381,-100,4,1,7,70,0,0
10544,-200,4,2,7,50,0,0
14457,-200,4,2,43,50,0,0
15109,-200,4,2,44,50,0,0
15762,-200,4,2,7,50,0,0
20653,-200,4,1,66,50,0,0
20979,-100,4,1,66,75,0,0
30109,-133.333333333333,4,1,66,75,0,0
31088,-80,4,1,66,75,0,0
31414,-133.333333333333,4,2,66,50,0,0
41849,-100,4,1,66,75,0,0
50979,-100,4,1,66,50,0,0
52283,-100,4,1,9,75,0,1
57827,-66.6666666666667,4,1,9,75,0,1
58153,-100,4,1,9,75,0,1
60109,-133.333333333333,4,1,9,75,0,1
60436,-100,4,1,9,75,0,1
68262,-66.6666666666667,4,1,9,75,0,1
68588,-100,4,1,9,75,0,1
70544,-133.333333333333,4,1,9,75,0,1
70870,-100,4,1,9,75,0,1
76984,-100,4,1,9,5,0,1
77229,-100,4,1,9,50,0,1
78370,-100,4,1,20,70,0,0
83588,-200,4,1,20,70,0,0
84240,-133.333333333333,4,1,20,70,0,0
84729,-133.333333333333,4,1,5,70,0,0
86196,-200,4,1,20,70,0,0
86849,-100,4,1,20,70,0,0
87175,-66.6666666666667,4,1,20,70,0,0
88153,-133.333333333333,4,1,7,70,0,0
88316,-100,4,1,7,70,0,0
88479,-66.6666666666667,4,1,7,70,0,0
88805,-100,4,1,66,50,0,0
94023,-133.333333333333,4,1,66,65,0,0
99240,-100,4,1,66,70,0,0
109675,-133.333333333333,4,2,66,50,0,0
110816,-133.333333333333,4,2,88,50,0,0
111631,-133.333333333333,4,2,66,50,0,0
112120,-133.333333333333,4,2,88,50,0,0
112936,-133.333333333333,4,2,66,50,0,0
113425,-133.333333333333,4,2,88,50,0,0
114240,-133.333333333333,4,2,66,50,0,0
114566,-133.333333333333,4,2,88,50,0,0
115544,-133.333333333333,4,2,66,50,0,0
115870,-133.333333333333,4,2,88,50,0,0
116849,-133.333333333333,4,2,66,50,0,0
117501,-133.333333333333,4,2,88,50,0,0
118153,-133.333333333333,4,2,66,50,0,0
118805,-133.333333333333,4,2,88,50,0,0
119457,-133.333333333333,4,2,66,50,0,0
120109,-100,4,1,66,75,0,0
130544,-100,4,1,9,75,0,1
136088,-66.6666666666667,4,1,9,75,0,1
136414,-100,4,1,9,75,0,1
138370,-133.333333333333,4,1,9,75,0,1
138696,-100,4,1,9,75,0,1
146523,-66.6666666666667,4,1,9,75,0,1
146849,-100,4,1,9,75,0,1
148805,-133.333333333333,4,1,9,75,0,1
149131,-100,4,1,9,75,0,1
154023,-100,4,1,9,60,0,0
165762,-200,4,1,9,60,0,0
166088,-100,4,1,9,60,0,0
166414,-200,4,1,9,60,0,0
166740,-100,4,1,9,60,0,0
177501,-200,4,2,48,90,0,0
177827,-200,4,2,44,50,0,0
180109,-200,4,2,48,50,0,0
180436,-200,4,2,44,50,0,0
182718,-200,4,2,48,90,0,0
182800,-200,4,2,44,50,0,0
183859,-200,4,2,48,90,0,0
183941,-200,4,2,44,50,0,0
185327,-200,4,2,48,90,0,0
185408,-200,4,2,44,50,0,0
186468,-200,4,2,48,90,0,0
186550,-200,4,2,44,50,0,0
187936,-133.333333333333,4,1,9,65,0,0
193153,-100,4,1,7,10,0,0
193805,-100,4,1,7,20,0,0
194457,-100,4,1,7,40,0,0
195109,-100,4,1,7,50,0,0
195436,-100,4,1,7,60,0,0
195762,-100,4,1,7,70,0,0
197066,-133.333333333333,4,2,7,40,0,0
198207,-66.6666666666667,4,1,7,50,0,0
198370,-66.6666666666667,4,1,7,65,0,0
198696,-133.333333333333,4,1,7,50,0,0
199186,-200,4,1,7,40,0,0
199512,-100,4,1,9,80,0,1
210436,-66.6666666666667,4,1,9,80,0,1
210599,-100,4,1,9,80,0,1
222990,-100,4,1,9,65,0,0

[Colours]
Combo1 : 216,216,216
Combo2 : 255,168,168
Combo3 : 255,190,125
Combo4 : 247,102,123
Combo5 : 255,221,117
Combo6 : 255,125,255

[HitObjects]
112,68,110,6,0,L|44:140,1,86.25,2|0,0:0|0:0,0:0:0:0:
156,176,599,2,0,L|88:248,1,86.25
204,268,1088,2,0,P|232:299|240:341,1,86.25
320,312,1414,6,0,L|408:272,1,86.25,2|0,0:0|0:0,0:0:0:0:
316,176,1903,2,0,L|404:136,1,86.25
504,72,2392,2,0,P|481:34|429:10,1,86.25
360,24,2718,6,0,L|276:60,1,86.25,2|0,0:0|0:0,0:0:0:0:
237,211,3207,2,0,L|325:171,1,86.25
160,172,3696,2,0,P|148:224|176:268,1,86.25
236,296,4023,6,0,P|280:288|312:240,2,86.25,2|0|0,0:0|0:0|0:0,0:0:0:0:
88,248,4675,2,0,P|44:256|12:304,2,86.25,2|0|0,0:0|0:0|0:0,0:0:0:0:
88,328,5327,5,6,0:0:0:0:
20,96,5490,1,0,0:0:0:0:
20,96,5571,1,0,0:0:0:0:
20,96,5653,1,10,0:0:0:0:
212,188,5816,1,0,0:0:0:0:
88,248,5979,1,0,0:0:0:0:
212,36,6142,1,0,0:0:0:0:
212,36,6224,1,0,0:0:0:0:
212,36,6305,2,0,P|268:12|340:40,1,115,8|0,0:0|0:0,0:0:0:0:
288,260,6631,5,0,0:0:0:0:
136,88,6794,1,0,0:0:0:0:
136,88,6876,1,0,0:0:0:0:
136,88,6957,1,10,0:0:0:0:
88,248,7120,6,0,L|156:216,1,57.5
332,144,7283,1,0,0:0:0:0:
360,152,7365,1,2,0:0:0:0:
384,164,7446,1,2,0:0:0:0:
412,172,7528,1,0,0:0:0:0:
436,184,7609,2,0,L|500:176,1,57.5,10|0,0:0|0:0,0:0:0:0:
352,296,7773,2,0,L|288:304,1,57.5
320,64,7936,5,0,0:0:0:0:
202,149,8099,1,0,0:0:0:0:
202,149,8180,1,0,0:0:0:0:
202,149,8262,1,10,0:0:0:0:
352,296,8425,1,2,0:0:0:0:
376,332,8506,1,2,0:0:0:0:
404,368,8588,1,2,0:0:0:0:
360,372,8669,1,0,0:0:0:0:
312,368,8751,1,0,0:0:0:0:
268,368,8832,1,2,0:0:0:0:
220,364,8914,2,0,L|156:360,1,57.5,10|0,0:0|0:0,0:0:0:0:
196,256,9077,2,0,L|260:260,1,57.5
44,336,9240,5,0,0:0:0:0:
104,64,9403,1,0,0:0:0:0:
124,72,9484,1,0,0:0:0:0:
144,80,9566,1,10,0:0:0:0:
280,152,9729,1,0,0:0:0:0:
116,284,9892,1,0,0:0:0:0:
260,32,10055,6,0,L|436:32,1,172.500006580353,2|2,0:0|0:0,0:0:0:0:
380,136,10381,1,0,0:0:0:0:
196,168,10544,6,0,L|88:192,1,86.25,2|0,0:0|0:0,0:0:0:0:
116,284,11033,2,0,L|8:308,2,86.25
224,360,11686,1,2,0:0:0:0:
280,208,11849,6,0,P|332:232|356:276,2,86.25
64,172,12501,1,2,0:0:0:0:
116,284,12664,1,0,0:0:0:0:
204,104,12827,2,0,L|204:184,1,57.5
280,296,13153,6,0,P|308:328|348:342,1,86.25,2|0,0:0|0:0,0:0:0:0:
394,185,13642,2,0,P|361:213|347:253,2,86.25
452,272,14294,1,0,0:0:0:0:
336,84,14457,6,0,P|288:40|248:36,2,86.25,2|0|0,0:0|0:0|0:0,0:0:0:0:
252,136,15109,2,0,L|188:220,1,86.25,2|0,0:0|0:0,0:0:0:0:
164,240,15436,2,0,L|88:260,1,57.5,0|0,0:0|0:0,0:0:0:0:
80,56,15762,6,0,L|168:24,1,86.25,2|0,0:0|0:0,0:0:0:0:
168,114,16251,2,0,L|260:138,2,86.25,0|0|0,0:0|0:0|0:0,0:0:0:0:
76,168,16903,1,2,0:0:0:0:
208,328,17066,2,0,P|244:352|308:356,2,86.25
304,168,17718,1,2,0:0:0:0:
356,260,17881,1,0,0:0:0:0:
504,188,18044,2,0,L|480:264,1,57.5
448,96,18370,6,0,P|428:60|380:40,1,86.25,2|0,0:0|0:0,0:0:0:0:
364,124,18859,2,0,P|316:136|264:104,2,86.25
432,188,19512,1,2,0:0:0:0:
291,307,19675,6,0,L|195:331,2,86.25,2|0|0,0:0|0:0|0:0,0:0:0:0:
220,224,20327,2,0,L|124:248,1,86.25
116,248,20653,1,8,0:0:0:0:
236,36,20979,6,0,L|348:88,1,115,4|0,0:0|0:0,0:0:0:0:
291,307,21305,1,8,0:0:0:0:
460,264,21468,1,0,0:0:0:0:
460,264,21550,1,0,0:0:0:0:
460,264,21631,1,0,0:0:0:0:
352,128,21794,1,0,0:0:0:0:
291,307,21957,1,8,0:0:0:0:
472,136,22120,1,0,0:0:0:0:
152,116,22283,5,2,0:0:0:0:
220,224,22446,1,0,0:0:0:0:
220,224,22528,1,0,0:0:0:0:
220,224,22609,1,8,0:0:0:0:
16,240,22773,1,0,0:0:0:0:
144,8,22936,1,2,0:0:0:0:
280,172,23099,1,0,0:0:0:0:
112,192,23262,1,8,0:0:0:0:
296,36,23425,1,0,0:0:0:0:
496,196,23588,5,2,0:0:0:0:
380,320,23751,1,0,0:0:0:0:
380,320,23832,1,0,0:0:0:0:
380,320,23914,1,8,0:0:0:0:
220,224,24077,2,0,P|152:232|104:288,1,115
208,352,24403,1,0,0:0:0:0:
132,136,24566,2,0,L|32:52,1,115,8|0,0:0|0:0,0:0:0:0:
36,52,24811,1,2,0:0:0:0:
32,44,24892,6,0,P|128:48|228:20,1,172.5
259,116,25218,2,0,L|219:224,1,115,10|2,0:0|0:0,0:0:0:0:
268,300,25463,1,2,0:0:0:0:
280,308,25544,2,0,L|352:348,1,57.5
480,224,25707,2,0,L|412:248,1,57.5
272,40,25870,2,0,L|344:84,1,57.5,10|0,0:0|0:0,0:0:0:0:
452,96,26033,1,0,0:0:0:0:
320,224,26196,5,0,0:0:0:0:
200,64,26359,1,0,0:0:0:0:
188,52,26441,1,0,0:0:0:0:
176,40,26523,1,8,0:0:0:0:
80,224,26686,2,0,L|16:340,1,115,2|0,0:0|0:0,0:0:0:0:
184,304,27012,1,0,0:0:0:0:
232,172,27175,1,8,0:0:0:0:
440,280,27338,1,0,0:0:0:0:
120,112,27501,5,2,0:0:0:0:
272,40,27664,1,0,0:0:0:0:
272,40,27745,1,0,0:0:0:0:
272,40,27827,1,8,0:0:0:0:
320,224,27990,1,0,0:0:0:0:
484,88,28153,5,2,0:0:0:0:
440,280,28316,1,0,0:0:0:0:
124,228,28479,5,8,0:0:0:0:
468,184,28642,1,2,0:0:0:0:
327,347,28805,5,0,0:0:0:0:
308,132,28968,1,0,0:0:0:0:
308,132,29050,1,0,0:0:0:0:
308,132,29131,1,8,0:0:0:0:
148,80,29294,1,2,0:0:0:0:
400,20,29457,1,2,0:0:0:0:
320,224,29620,1,0,0:0:0:0:
320,224,29702,1,0,0:0:0:0:
320,224,29783,1,8,0:0:0:0:
440,280,29946,1,0,0:0:0:0:
253,324,30109,6,0,P|168:320|109:284,2,129.375004935265
269,332,30680,1,0,0:0:0:0:
285,340,30762,6,0,L|357:352,1,43.1250016450883,2|0,0:0|0:0,0:0:0:0:
232,216,30925,2,0,L|189:208,1,43.1250016450883,2|0,0:0|0:0,0:0:0:0:
388,80,31088,6,0,P|456:40|424:132,1,215.625,8|2,0:0|0:0,0:0:0:0:
368,160,31414,6,0,P|404:208|476:208,1,129.375004935265,4|0,0:0|0:0,0:0:0:0:
492,244,31740,2,0,L|448:340,1,86.2500032901765
327,347,32066,1,2,0:0:0:0:
327,347,32229,1,0,0:0:0:0:
200,236,32392,1,0,0:0:0:0:
200,236,32555,1,0,0:0:0:0:
75,316,32718,5,0,0:0:0:0:
61,167,32881,1,0,0:0:0:0:
200,236,33044,1,0,0:0:0:0:
68,300,33207,5,0,0:0:0:0:
79,157,33370,1,2,0:0:0:0:
199,246,33533,1,0,0:0:0:0:
68,276,33696,5,0,0:0:0:0:
100,152,33859,1,2,0:0:0:0:
280,224,34023,6,0,L|356:168,1,86.2500032901765
392,32,34349,2,0,L|316:88,1,86.2500032901765
504,180,34675,6,0,L|448:104,1,86.2500032901765,2|0,0:0|0:0,0:0:0:0:
164,76,35001,2,0,L|220:152,1,86.2500032901765
408,208,35327,5,2,0:0:0:0:
428,336,35490,1,0,0:0:0:0:
300,352,35653,1,0,0:0:0:0:
280,224,35816,1,0,0:0:0:0:
491,261,35979,5,2,0:0:0:0:
476,148,36142,1,0,0:0:0:0:
376,96,36305,1,0,0:0:0:0:
272,140,36468,1,0,0:0:0:0:
216,280,36631,6,0,P|180:324|52:328,1,172.500006580353
104,212,37120,1,0,0:0:0:0:
216,280,37283,1,2,0:0:0:0:
272,140,37446,1,0,0:0:0:0:
360,208,37609,5,0,0:0:0:0:
384,16,37773,1,0,0:0:0:0:
256,28,37936,2,0,L|164:80,1,86.2500032901765
168,180,38262,1,0,0:0:0:0:
272,140,38425,1,0,0:0:0:0:
300,272,38588,6,0,P|284:336|252:356,1,86.2500032901765,2|0,0:0|0:0,0:0:0:0:
164,376,38914,1,0,0:0:0:0:
244,208,39077,1,2,0:0:0:0:
392,364,39240,6,0,P|472:356|484:256,1,172.500006580353
416,184,39729,2,0,B|428:300|428:300|364:268,1,172.500006580353
312,356,40218,1,2,0:0:0:0:
244,208,40381,1,0,0:0:0:0:
168,296,40544,5,2,0:0:0:0:
108,236,40707,1,0,0:0:0:0:
48,176,40870,1,0,0:0:0:0:
184,292,41033,5,0,0:0:0:0:
124,232,41196,1,0,0:0:0:0:
64,172,41359,1,0,0:0:0:0:
204,288,41523,1,10,0:0:0:0:
216,28,41849,5,4,0:0:0:0:
320,192,42012,1,0,0:0:0:0:
320,192,42093,1,0,0:0:0:0:
320,192,42175,1,8,0:0:0:0:
148,148,42338,1,0,0:0:0:0:
384,32,42501,1,2,0:0:0:0:
472,172,42664,1,0,0:0:0:0:
256,108,42827,1,8,0:0:0:0:
388,292,42990,2,0,L|424:340,1,57.5,0|2,0:0|0:0,0:0:0:0:
288,308,43153,6,0,L|168:364,1,115
128,372,43398,1,2,0:0:0:0:
128,372,43479,1,8,0:0:0:0:
204,172,43642,1,0,0:0:0:0:
352,216,43805,1,2,0:0:0:0:
352,216,43887,1,0,0:0:0:0:
352,216,43968,1,0,0:0:0:0:
204,288,44131,1,8,0:0:0:0:
16,80,44294,1,2,0:0:0:0:
264,44,44457,6,0,L|376:20,1,115,2|0,0:0|0:0,0:0:0:0:
92,208,44783,1,8,0:0:0:0:
464,144,44946,2,0,P|484:216|444:288,1,115,2|0,0:0|0:0,0:0:0:0:
352,216,45273,1,0,0:0:0:0:
304,356,45436,1,8,0:0:0:0:
156,100,45599,1,2,0:0:0:0:
280,184,45762,5,0,0:0:0:0:
128,320,45925,1,0,0:0:0:0:
128,320,46006,1,2,0:0:0:0:
128,320,46088,1,8,0:0:0:0:
92,208,46251,1,0,0:0:0:0:
112,200,46332,1,0,0:0:0:0:
136,192,46414,2,0,L|200:172,1,57.5,2|0,0:0|0:0,0:0:0:0:
352,216,46577,2,0,L|416:196,1,57.5,2|0,0:0|0:0,0:0:0:0:
216,256,46740,1,8,0:0:0:0:
336,360,46903,2,0,L|352:300,1,57.5,0|2,0:0|0:0,0:0:0:0:
392,104,47066,5,8,0:0:0:0:
396,92,47229,1,0,0:0:0:0:
400,80,47392,1,0,0:0:0:0:
204,172,47555,5,8,0:0:0:0:
200,184,47718,1,0,0:0:0:0:
196,196,47881,1,0,0:0:0:0:
340,204,48044,5,8,0:0:0:0:
208,280,48207,1,0,0:0:0:0:
124,148,48370,5,8,0:0:0:0:
340,276,48533,1,0,0:0:0:0:
432,180,48696,5,8,0:0:0:0:
108,252,48859,1,0,0:0:0:0:
64,84,49023,5,2,0:0:0:0:
456,280,49186,2,0,L|500:308,4,28.75,2|2|2|2|8,0:0|0:0|0:0|0:0|0:0,0:0:0:0:
140,352,49512,1,0,0:0:0:0:
296,100,49675,5,12,0:0:0:0:
272,324,49838,1,0,0:0:0:0:
272,324,50001,1,0,0:0:0:0:
32,156,50164,5,12,0:0:0:0:
224,52,50327,1,0,0:0:0:0:
224,52,50490,1,0,0:0:0:0:
440,184,50653,5,12,0:0:0:0:
192,256,50816,1,0,0:0:0:0:
296,100,50979,6,0,L|368:216,1,115
368,236,51224,1,2,0:0:0:0:
368,276,51305,2,0,L|344:328,3,57.5
272,360,51631,2,0,L|220:336,3,57.5,2|2|2|2,0:0|0:0|0:0|0:0,0:0:0:0:
144,308,51957,1,2,0:0:0:0:
100,316,52039,1,2,0:0:0:0:
64,344,52120,1,2,0:0:0:0:
56,300,52202,1,0,0:0:0:0:
36,260,52283,6,0,P|24:176|112:88,1,172.5,6|0,0:0|0:0,0:0:0:0:
128,88,52609,1,8,0:0:0:0:
232,220,52773,2,0,L|192:268,1,57.5,0|2,0:0|0:0,0:0:0:0:
368,40,52936,1,2,0:0:0:0:
484,144,53099,1,0,0:0:0:0:
484,144,53180,1,0,0:0:0:0:
484,144,53262,1,10,0:0:0:0:
228,116,53425,1,0,0:0:0:0:
380,256,53588,6,0,L|460:340,1,115,2|0,0:0|0:0,0:0:0:0:
476,316,53832,1,0,0:0:0:0:
476,316,53914,1,8,0:0:0:0:
312,332,54077,1,0,0:0:0:0:
244,36,54240,1,2,0:0:0:0:
100,184,54403,1,0,0:0:0:0:
380,256,54566,1,8,0:0:0:0:
196,352,54729,1,0,0:0:0:0:
88,92,54892,5,2,0:0:0:0:
20,304,55055,1,0,0:0:0:0:
20,304,55137,1,0,0:0:0:0:
20,304,55218,1,8,0:0:0:0:
272,266,55381,2,0,L|192:354,1,115
440,320,55707,1,0,0:0:0:0:
344,32,55870,1,8,0:0:0:0:
208,176,56033,1,2,0:0:0:0:
208,176,56115,1,2,0:0:0:0:
208,176,56196,1,0,0:0:0:0:
400,220,56359,5,0,0:0:0:0:
400,220,56441,1,2,0:0:0:0:
400,220,56523,1,8,0:0:0:0:
244,336,56686,1,2,0:0:0:0:
212,304,56767,1,2,0:0:0:0:
180,272,56849,2,0,L|104:248,1,57.5,2|0,0:0|0:0,0:0:0:0:
64,172,57012,2,0,L|9:154,1,57.5,2|0,0:0|0:0,0:0:0:0:
176,60,57175,2,0,P|244:48|316:136,1,172.5,8|0,0:0|0:0,0:0:0:0:
224,144,57501,6,0,P|268:32|344:32,1,172.5
400,124,57827,6,0,B|396:216|396:216|456:280,1,172.500006580353,8|0,0:0|0:0,0:0:0:0:
307,240,58153,6,0,L|235:348,1,115,2|0,0:0|0:0,0:0:0:0:
228,360,58398,1,0,0:0:0:0:
228,360,58479,1,8,0:0:0:0:
136,192,58642,1,2,0:0:0:0:
468,84,58805,5,2,0:0:0:0:
420,332,58968,1,0,0:0:0:0:
420,332,59050,1,0,0:0:0:0:
420,332,59131,1,8,0:0:0:0:
256,208,59294,1,0,0:0:0:0:
232,192,59376,1,0,0:0:0:0:
208,176,59457,2,0,L|144:152,1,57.5
16,228,59620,2,0,L|80:252,1,57.5,2|0,0:0|0:0,0:0:0:0:
292,120,59783,1,8,0:0:0:0:
304,336,59946,1,0,0:0:0:0:
96,72,60109,6,0,L|252:48,1,129.375004935265,6|0,0:0|0:0,0:0:0:0:
292,120,60436,6,0,L|392:236,1,115,8|0,0:0|0:0,0:0:0:0:
184,312,60762,1,2,0:0:0:0:
316,32,60924,1,0,0:0:0:0:
316,32,61006,1,0,0:0:0:0:
316,32,61087,1,8,0:0:0:0:
460,240,61251,1,2,0:0:0:0:
257,96,61414,6,0,L|270:166,1,57.5
254,287,61577,2,0,L|241:217,1,57.5
352,72,61740,6,0,L|314:165,1,57.5,2|0,0:0|0:0,0:0:0:0:
148,304,61903,2,0,L|186:211,1,57.5,2|0,0:0|0:0,0:0:0:0:
176,104,62066,6,0,L|199:190,1,57.5
338,254,62229,2,0,L|314:167,1,57.5
48,172,62392,6,0,L|136:218,1,57.5,2|2,0:0|0:0,0:0:0:0:
448,176,62555,2,0,L|355:133,1,57.5,2|2,0:0|0:0,0:0:0:0:
208,28,62718,5,6,0:0:0:0:
98,198,62881,1,0,0:0:0:0:
98,198,62963,1,0,0:0:0:0:
98,198,63044,1,8,0:0:0:0:
312,344,63207,2,0,P|376:340|424:292,1,115,2|2,0:0|0:0,0:0:0:0:
312,164,63533,2,0,L|292:100,1,57.5,0|2,0:0|0:0,0:0:0:0:
338,254,63696,1,8,0:0:0:0:
152,376,63859,1,2,0:0:0:0:
152,376,63941,1,2,0:0:0:0:
152,376,64023,6,0,B|132:332|132:332|136:304|136:304|112:256,1,115
294,109,64349,1,8,0:0:0:0:
248,304,64512,1,0,0:0:0:0:
128,24,64675,1,2,0:0:0:0:
98,198,64838,1,0,0:0:0:0:
364,72,65001,1,8,0:0:0:0:
440,316,65164,1,0,0:0:0:0:
220,60,65327,5,2,0:0:0:0:
364,156,65490,1,0,0:0:0:0:
364,156,65571,1,0,0:0:0:0:
364,156,65653,1,8,0:0:0:0:
152,284,65816,2,0,L|48:344,1,115,2|0,0:0|0:0,0:0:0:0:
160,128,66142,1,2,0:0:0:0:
160,128,66224,1,0,0:0:0:0:
160,128,66305,1,8,0:0:0:0:
248,304,66468,1,2,0:0:0:0:
272,320,66550,1,2,0:0:0:0:
296,332,66631,6,0,P|380:340|432:316,1,115
432,320,66876,1,2,0:0:0:0:
452,300,66957,2,0,L|496:264,1,57.5,8|0,0:0|0:0,0:0:0:0:
464,92,67120,5,2,0:0:0:0:
464,92,67202,1,0,0:0:0:0:
464,92,67283,2,0,L|392:64,1,57.5,2|0,0:0|0:0,0:0:0:0:
284,184,67446,2,0,L|328:244,1,57.5,2|0,0:0|0:0,0:0:0:0:
272,56,67609,2,0,P|180:48|104:96,1,172.5,8|0,0:0|0:0,0:0:0:0:
36,36,67936,2,0,B|112:84|112:84|72:160,1,172.5
104,328,68262,6,0,L|180:168,1,172.500006580353,8|0,0:0|0:0,0:0:0:0:
272,56,68588,5,2,0:0:0:0:
392,156,68751,1,0,0:0:0:0:
224,272,68914,1,8,0:0:0:0:
392,24,69077,1,2,0:0:0:0:
492,308,69240,5,2,0:0:0:0:
320,209,69403,1,0,0:0:0:0:
320,209,69484,1,2,0:0:0:0:
320,209,69566,2,0,L|208:282,1,115,8|0,0:0|0:0,0:0:0:0:
344,332,69892,2,0,L|404:364,1,57.5
132,224,70055,2,0,L|72:192,1,57.5
320,209,70218,2,0,L|424:260,1,115,8|0,0:0|0:0,0:0:0:0:
132,336,70544,6,0,P|72:320|28:248,1,129.375004935265,6|0,0:0|0:0,0:0:0:0:
203,133,70870,6,0,L|127:229,1,115,8|0,0:0|0:0,0:0:0:0:
116,248,71115,1,0,0:0:0:0:
116,248,71196,1,2,0:0:0:0:
284,40,71359,1,2,0:0:0:0:
24,40,71523,2,0,L|212:40,1,172.5,8|0,0:0|0:0,0:0:0:0:
284,40,71849,6,0,L|412:64,1,115,2|0,0:0|0:0,0:0:0:0:
440,72,72093,1,0,0:0:0:0:
440,72,72175,1,8,0:0:0:0:
448,300,72338,1,0,0:0:0:0:
320,209,72501,2,0,L|248:220,1,57.5
116,248,72664,2,0,L|192:288,1,57.5,2|0,0:0|0:0,0:0:0:0:
304,344,72827,1,8,0:0:0:0:
220,108,72990,1,2,0:0:0:0:
220,108,73071,1,2,0:0:0:0:
220,108,73153,6,0,B|188:60|188:60|80:56,1,115
40,260,73479,1,8,0:0:0:0:
328,244,73642,1,2,0:0:0:0:
328,244,73724,1,2,0:0:0:0:
328,244,73805,2,0,L|364:356,1,115,2|0,0:0|0:0,0:0:0:0:
204,176,74131,1,8,0:0:0:0:
164,344,74294,1,2,0:0:0:0:
324,112,74457,5,0,0:0:0:0:
120,84,74620,1,0,0:0:0:0:
120,84,74702,1,0,0:0:0:0:
120,84,74783,1,8,0:0:0:0:
184,276,74946,1,0,0:0:0:0:
256,32,75109,5,2,0:0:0:0:
400,200,75273,1,0,0:0:0:0:
184,276,75436,1,8,0:0:0:0:
420,36,75599,6,0,B|464:76|461:119|461:119|456:164|492:184|492:184|468:212|480:276,1,230,2|0,0:0|0:0,0:0:0:0:
480,284,76006,1,2,0:0:0:0:
468,328,76088,2,0,L|420:364,3,57.5,8|0|0|2,0:0|0:0|0:0|0:0,0:0:0:0:
396,372,76414,1,2,0:0:0:0:
368,372,76495,1,0,0:0:0:0:
340,364,76577,1,0,0:0:0:0:
316,352,76658,1,2,0:0:0:0:
292,332,76740,2,0,L|264:268,1,57.5,8|0,0:0|0:0,0:0:0:0:
144,196,76903,2,0,L|68:216,1,57.5
248,88,77229,5,0,0:0:0:0:
296,192,77392,1,2,0:0:0:0:
296,192,77474,1,0,0:0:0:0:
296,192,77555,1,0,0:0:0:0:
296,192,77637,1,0,0:0:0:0:
296,192,77718,2,0,L|388:264,1,115,2|0,0:0|0:0,0:0:0:0:
508,44,78044,1,12,0:0:0:0:
348,104,78207,1,0,0:0:0:0:
480,212,78370,1,0,0:0:0:0:
256,192,78452,12,0,79675,0:0:0:0:
476,48,83588,6,0,B|428:68|364:44|364:44|316:24|256:52,1,201.25
180,88,84240,6,0,L|96:132,1,86.2500032901765,2|0,0:0|0:0,0:0:0:0:
300,239,84566,2,0,L|224:280,1,86.2500032901765,0|2,0:0|0:0,0:0:0:0:
460,288,84892,5,0,0:0:0:0:
300,104,85055,1,2,0:0:0:0:
224,280,85218,1,0,0:0:0:0:
428,144,85381,1,0,0:0:0:0:
144,56,85544,1,8,0:0:0:0:
136,60,85626,1,0,0:0:0:0:
128,64,85707,1,2,0:0:0:0:
120,68,85789,1,2,0:0:0:0:
112,72,85870,5,0,0:0:0:0:
88,108,85952,1,0,0:0:0:0:
84,148,86033,1,2,0:0:0:0:
92,188,86115,1,2,0:0:0:0:
112,224,86196,6,0,B|160:256|160:256|188:252|188:252|244:320|244:320|264:284,1,201.25,4|0,0:0|0:0,0:0:0:0:
296,152,86849,6,0,B|320:201|304:233|304:233|336:210|388:217,1,172.5,2|0,0:0|0:0,0:0:0:0:
472,304,87175,6,0,B|432:308|376:344|376:344|400:268|387:217|387:217|447:176|436:104,1,345.000013160706
396,48,88153,6,0,L|344:56,1,43.1250016450883,2|0,0:0|0:0,0:0:0:0:
295,151,88316,6,0,L|353:145,1,57.5,2|0,0:0|0:0,0:0:0:0:
180,56,88479,6,0,B|56:64|56:64|16:112,1,172.500006580353,10|0,0:0|0:0,0:0:0:0:
93,252,88805,5,6,0:0:0:0:
236,100,88968,1,0,0:0:0:0:
153,333,89131,1,8,0:0:0:0:
325,342,89294,1,0,0:0:0:0:
274,178,89457,5,0,0:0:0:0:
474,229,89620,1,0,0:0:0:0:
248,272,89783,1,8,0:0:0:0:
372,153,89946,1,0,0:0:0:0:
259,354,90109,5,0,0:0:0:0:
160,204,90273,1,0,0:0:0:0:
304,88,90436,1,8,0:0:0:0:
248,272,90599,1,0,0:0:0:0:
121,126,90762,5,0,0:0:0:0:
340,220,90925,1,0,0:0:0:0:
88,222,91088,1,8,0:0:0:0:
153,333,91251,1,0,0:0:0:0:
208,120,91414,5,0,0:0:0:0:
400,41,91577,1,0,0:0:0:0:
172,44,91740,1,8,0:0:0:0:
372,153,91903,1,0,0:0:0:0:
220,204,92066,5,0,0:0:0:0:
424,236,92229,1,0,0:0:0:0:
316,352,92392,1,8,0:0:0:0:
340,220,92555,1,0,0:0:0:0:
216,330,92718,5,0,0:0:0:0:
91,165,92881,1,0,0:0:0:0:
340,220,93044,1,8,0:0:0:0:
160,256,93207,1,2,0:0:0:0:
136,268,93289,1,0,0:0:0:0:
112,280,93370,2,0,L|40:296,1,57.5,2|0,0:0|0:0,0:0:0:0:
91,165,93533,2,0,L|147:152,1,57.5,2|0,0:0|0:0,0:0:0:0:
316,352,93696,1,8,0:0:0:0:
340,220,93859,1,0,0:0:0:0:
216,330,94023,6,0,L|256:184,1,129.375004935265
268,148,94349,1,8,0:0:0:0:
216,330,94512,1,0,0:0:0:0:
476,136,94838,5,0,0:0:0:0:
476,136,94919,1,0,0:0:0:0:
476,136,95001,2,0,L|372:152,1,86.2500032901765,8|0,0:0|0:0,0:0:0:0:
224,64,95327,2,0,L|374:43,1,129.375004935265
416,40,95653,1,8,0:0:0:0:
140,64,95816,1,0,0:0:0:0:
92,228,95979,1,2,0:0:0:0:
216,330,96142,1,0,0:0:0:0:
24,308,96305,1,8,0:0:0:0:
176,136,96468,1,0,0:0:0:0:
304,244,96631,6,0,L|424:335,1,129.375004935265
456,362,96957,1,8,0:0:0:0:
304,244,97120,1,0,0:0:0:0:
144,308,97446,6,0,L|112:368,1,43.1250016450883
92,228,97609,2,0,L|124:168,1,43.1250016450883,2|0,0:0|0:0,0:0:0:0:
292,96,97773,2,0,L|216:260,1,172.500006580353
224,272,98180,1,0,0:0:0:0:
232,292,98262,5,2,0:0:0:0:
252,320,98343,1,0,0:0:0:0:
284,332,98425,1,0,0:0:0:0:
320,332,98506,1,2,0:0:0:0:
352,320,98588,5,2,0:0:0:0:
396,292,98669,1,2,0:0:0:0:
408,240,98751,1,0,0:0:0:0:
396,188,98832,1,2,0:0:0:0:
356,152,98914,5,8,0:0:0:0:
352,132,98995,1,2,0:0:0:0:
360,112,99077,1,2,0:0:0:0:
376,100,99158,1,0,0:0:0:0:
396,92,99240,6,0,L|512:60,1,115,4|2,0:0|0:0,0:0:0:0:
232,36,99566,1,8,0:0:0:0:
140,168,99729,1,0,0:0:0:0:
140,168,99811,1,0,0:0:0:0:
140,168,99892,1,0,0:0:0:0:
296,192,100055,1,0,0:0:0:0:
92,324,100218,1,8,0:0:0:0:
64,68,100381,1,2,0:0:0:0:
264,112,100544,6,0,L|340:108,1,57.5,2|0,0:0|0:0,0:0:0:0:
140,168,100707,2,0,L|72:208,1,57.5
240,292,100870,2,0,L|242:349,1,57.5,8|0,0:0|0:0,0:0:0:0:
296,192,101033,5,0,0:0:0:0:
296,192,101115,1,2,0:0:0:0:
296,192,101196,1,2,0:0:0:0:
384,272,101359,1,0,0:0:0:0:
92,324,101523,1,8,0:0:0:0:
216,120,101686,1,2,0:0:0:0:
452,328,101849,6,0,L|480:200,1,115
488,172,102093,1,0,0:0:0:0:
488,172,102175,1,8,0:0:0:0:
344,36,102338,1,2,0:0:0:0:
316,40,102419,1,2,0:0:0:0:
288,44,102501,2,0,L|216:56,1,57.5
296,192,102664,2,0,L|344:224,1,57.5
112,48,102827,1,8,0:0:0:0:
60,188,102990,1,0,0:0:0:0:
216,120,103153,6,0,L|192:248,1,115
188,260,103398,1,2,0:0:0:0:
180,288,103479,2,0,B|204:312|208:340|208:340|232:324|288:328,1,115,8|0,0:0|0:0,0:0:0:0:
488,172,103805,2,0,L|408:188,1,57.5,2|0,0:0|0:0,0:0:0:0:
344,312,103968,2,0,L|424:296,1,57.5
272,108,104131,2,0,L|192:124,1,57.5,8|0,0:0|0:0,0:0:0:0:
131,271,104294,2,0,L|211:255,1,57.5
296,32,104457,5,0,0:0:0:0:
488,172,104620,1,0,0:0:0:0:
488,172,104702,1,0,0:0:0:0:
488,172,104783,1,8,0:0:0:0:
252,238,104946,1,2,0:0:0:0:
272,262,105028,1,2,0:0:0:0:
292,286,105109,2,0,L|348:314,1,57.5
468,342,105273,2,0,L|412:370,1,57.5
328,168,105436,2,0,P|260:128|204:140,1,115,8|2,0:0|0:0,0:0:0:0:
204,352,105762,5,2,0:0:0:0:
252,238,105925,1,0,0:0:0:0:
252,238,106006,1,2,0:0:0:0:
252,238,106088,1,8,0:0:0:0:
64,316,106251,2,0,L|16:372,1,57.5,2|0,0:0|0:0,0:0:0:0:
124,116,106414,1,2,0:0:0:0:
252,238,106577,1,2,0:0:0:0:
368,68,106740,1,8,0:0:0:0:
132,256,106903,1,0,0:0:0:0:
356,356,107066,5,0,0:0:0:0:
328,168,107229,1,0,0:0:0:0:
328,168,107311,1,0,0:0:0:0:
328,168,107392,1,8,0:0:0:0:
144,184,107555,1,2,0:0:0:0:
120,188,107637,1,2,0:0:0:0:
96,192,107718,2,0,L|32:204,1,57.5
176,64,107881,2,0,L|232:53,1,57.5
252,238,108044,1,8,0:0:0:0:
368,68,108207,5,2,0:0:0:0:
408,64,108289,1,0,0:0:0:0:
444,76,108370,2,0,P|492:116|492:184,1,115
492,204,108615,1,2,0:0:0:0:
472,236,108696,2,0,L|448:312,1,57.5,8|0,0:0|0:0,0:0:0:0:
276,352,108859,1,0,0:0:0:0:
360,160,109023,6,0,L|377:214,1,57.5,2|0,0:0|0:0,0:0:0:0:
252,238,109186,2,0,L|212:288,1,57.5,2|0,0:0|0:0,0:0:0:0:
236,112,109349,2,0,B|176:64|176:64|72:68,1,172.5,8|0,0:0|0:0,0:0:0:0:
4,176,109675,6,0,L|59:276,1,86.2500032901765
116,360,110001,1,0,0:0:0:0:
252,238,110164,1,0,0:0:0:0:
268,252,110245,1,0,0:0:0:0:
284,264,110327,2,0,P|320:300|328:348,1,86.2500032901765,8|0,0:0|0:0,0:0:0:0:
360,160,110653,2,0,P|352:124|376:56,1,86.2500032901765,0|2,0:0|0:0,0:0:0:0:
428,240,110979,5,0,0:0:0:0:
252,238,111142,1,2,0:0:0:0:
252,238,111224,1,0,0:0:0:0:
252,238,111305,1,2,0:0:0:0:
360,160,111468,1,0,0:0:0:0:
184,56,111631,2,0,P|139:60|100:88,1,86.2500032901765,8|0,0:0|0:0,0:0:0:0:
56,256,111957,2,0,P|100:251|140:224,1,86.2500032901765,0|2,0:0|0:0,0:0:0:0:
232,144,112283,6,0,B|360:160|360:160|388:192,1,172.500006580353
272,336,112773,1,0,0:0:0:0:
272,336,112854,1,0,0:0:0:0:
272,336,112936,2,0,L|180:324,1,86.2500032901765,8|0,0:0|0:0,0:0:0:0:
134,229,113262,2,0,L|219:240,1,86.2500032901765,0|2,0:0|0:0,0:0:0:0:
372,352,113588,5,0,0:0:0:0:
468,148,113751,1,2,0:0:0:0:
468,148,113832,1,2,0:0:0:0:
468,148,113914,1,0,0:0:0:0:
292,248,114077,1,0,0:0:0:0:
412,36,114240,2,0,L|516:24,1,86.2500032901765,8|0,0:0|0:0,0:0:0:0:
392,128,114566,2,0,L|306:137,1,86.2500032901765
168,56,114892,6,0,B|300:40|300:40|348:60,1,172.500006580353,2|0,0:0|0:0,0:0:0:0:
220,144,115381,1,0,0:0:0:0:
204,156,115463,1,0,0:0:0:0:
188,172,115544,2,0,L|112:232,1,86.2500032901765,8|0,0:0|0:0,0:0:0:0:
368,200,115870,2,0,P|416:228|432:280,1,86.2500032901765,0|2,0:0|0:0,0:0:0:0:
204,304,116196,6,0,B|267:250|267:250|351:282,1,172.500006580353,0|2,0:0|0:0,0:0:0:0:
288,372,116686,2,0,L|276:316,1,43.1250016450883
188,172,116849,2,0,L|104:152,1,86.2500032901765,8|0,0:0|0:0,0:0:0:0:
112,296,117175,1,0,0:0:0:0:
288,372,117338,1,0,0:0:0:0:
368,200,117501,6,0,P|416:124|440:240,1,258.75000987053,2|0,0:0|0:0,0:0:0:0:
388,296,118071,1,0,0:0:0:0:
388,296,118153,2,0,P|296:264|276:192,1,172.500006580353,8|0,0:0|0:0,0:0:0:0:
440,128,118642,1,0,0:0:0:0:
460,230,118805,5,2,0:0:0:0:
236,80,118968,1,0,0:0:0:0:
120,208,119131,1,0,0:0:0:0:
84,56,119294,1,2,0:0:0:0:
320,256,119457,1,8,0:0:0:0:
92,344,119783,5,0,0:0:0:0:
236,80,119946,1,0,0:0:0:0:
460,230,120109,5,6,0:0:0:0:
272,176,120273,1,0,0:0:0:0:
328,364,120436,1,8,0:0:0:0:
384,156,120599,1,0,0:0:0:0:
384,156,120680,1,2,0:0:0:0:
384,156,120762,1,2,0:0:0:0:
184,320,120925,1,0,0:0:0:0:
236,80,121088,2,0,B|280:60|280:60|296:40|296:40|336:24,1,115,8|2,0:0|0:0,0:0:0:0:
156,128,121414,5,0,0:0:0:0:
228,256,121577,1,2,0:0:0:0:
228,256,121658,1,2,0:0:0:0:
228,256,121740,1,8,0:0:0:0:
384,156,121903,1,0,0:0:0:0:
488,368,122066,1,2,0:0:0:0:
328,292,122229,1,0,0:0:0:0:
417,62,122392,2,0,P|469:102|481:174,1,115,8|0,0:0|0:0,0:0:0:0:
264,68,122718,6,0,L|151:90,1,115,2|0,0:0|0:0,0:0:0:0:
48,280,123044,1,8,0:0:0:0:
271,177,123207,2,0,L|384:155,1,115,2|0,0:0|0:0,0:0:0:0:
176,320,123533,1,0,0:0:0:0:
264,68,123696,1,8,0:0:0:0:
368,236,123859,1,0,0:0:0:0:
144,144,124023,6,0,L|92:180,1,57.5,2|0,0:0|0:0,0:0:0:0:
32,300,124186,1,2,0:0:0:0:
220,224,124349,1,8,0:0:0:0:
316,352,124512,1,0,0:0:0:0:
332,328,124593,1,0,0:0:0:0:
344,304,124675,2,0,L|384:348,1,57.5,2|0,0:0|0:0,0:0:0:0:
480,208,124838,2,0,L|440:252,1,57.5,2|0,0:0|0:0,0:0:0:0:
332,112,125001,2,0,P|392:152|380:76,1,172.5,8|0,0:0|0:0,0:0:0:0:
248,36,125327,6,0,L|68:36,1,172.5
28,40,125653,1,8,0:0:0:0:
156,200,125816,1,0,0:0:0:0:
332,112,125979,1,0,0:0:0:0:
328,304,126142,1,2,0:0:0:0:
328,304,126224,1,0,0:0:0:0:
328,304,126305,1,8,0:0:0:0:
208,348,126468,1,0,0:0:0:0:
332,192,126631,6,0,L|452:256,1,115
476,264,126876,1,0,0:0:0:0:
476,264,126957,1,8,0:0:0:0:
208,348,127120,1,0,0:0:0:0:
324,96,127283,2,0,L|392:80,1,57.5,0|2,0:0|0:0,0:0:0:0:
152,260,127446,2,0,L|120:328,1,57.5,2|0,0:0|0:0,0:0:0:0:
176,16,127609,1,8,0:0:0:0:
336,196,127773,1,0,0:0:0:0:
208,132,127936,6,0,L|32:132,1,172.5,0|2,0:0|0:0,0:0:0:0:
20,132,128262,1,8,0:0:0:0:
127,312,128425,1,0,0:0:0:0:
336,196,128588,2,0,P|396:212|444:264,1,115,0|2,0:0|0:0,0:0:0:0:
448,272,128832,1,0,0:0:0:0:
460,300,128914,1,8,0:0:0:0:
332,356,129077,1,0,0:0:0:0:
208,132,129240,6,0,B|152:24|152:24|124:92,1,172.5
120,96,129566,1,0,0:0:0:0:
108,124,129648,1,0,0:0:0:0:
96,152,129729,1,0,0:0:0:0:
88,180,129811,1,0,0:0:0:0:
80,208,129892,2,0,L|100:268,1,57.5
231,339,130055,2,0,L|240:312,3,28.75
240,296,130218,6,0,L|248:224,1,57.5
348,84,130381,2,0,L|424:48,1,57.5
208,104,130544,6,0,L|48:192,1,172.5,4|0,0:0|0:0,0:0:0:0:
9,192,130870,1,0,0:0:0:0:
128,304,131033,2,0,L|176:376,1,57.5
288,136,131196,1,0,0:0:0:0:
428,272,131359,1,0,0:0:0:0:
428,272,131441,1,0,0:0:0:0:
428,272,131523,2,0,P|384:320|312:328,1,115
200,100,131849,6,0,P|244:52|316:44,1,115
337,48,132093,1,0,0:0:0:0:
377,68,132175,1,0,0:0:0:0:
332,224,132338,1,0,0:0:0:0:
100,12,132501,1,0,0:0:0:0:
40,184,132664,1,0,0:0:0:0:
288,136,132827,1,0,0:0:0:0:
240,336,132990,1,0,0:0:0:0:
64,76,133153,5,0,0:0:0:0:
332,224,133316,1,0,0:0:0:0:
332,224,133398,1,0,0:0:0:0:
332,224,133479,1,0,0:0:0:0:
124,312,133642,2,0,L|20:380,1,115
200,100,133968,1,0,0:0:0:0:
200,100,134050,1,0,0:0:0:0:
200,100,134131,1,0,0:0:0:0:
280,276,134294,1,0,0:0:0:0:
40,184,134457,5,0,0:0:0:0:
240,24,134620,1,0,0:0:0:0:
240,24,134702,1,0,0:0:0:0:
240,24,134783,2,0,L|368:36,1,115
484,148,135109,6,0,L|452:200,1,57.5
280,276,135273,2,0,L|312:328,1,57.5
345,91,135436,6,0,L|357:11,1,57.5
472,300,135599,1,0,0:0:0:0:
296,188,135762,6,0,P|224:204|192:300,1,172.5
280,276,136088,6,0,L|154:157,1,172.500006580353
408,28,136414,5,0,0:0:0:0:
488,220,136577,1,0,0:0:0:0:
488,220,136658,1,0,0:0:0:0:
488,220,136740,1,0,0:0:0:0:
189,289,136903,1,0,0:0:0:0:
224,20,137066,5,0,0:0:0:0:
356,152,137229,1,0,0:0:0:0:
356,152,137311,1,0,0:0:0:0:
356,152,137392,2,0,B|392:192|392:192|396:276,1,115
392,300,137637,1,0,0:0:0:0:
364,336,137718,2,0,L|320:376,1,57.5
200,216,137881,2,0,L|242:177,1,57.5
100,336,138044,2,0,L|48:276,1,57.5
64,80,138207,2,0,L|116:140,1,57.5
200,216,138370,6,0,P|208:128|248:80,1,129.375004935265
323,41,138696,6,0,L|359:165,1,115
232,352,139023,1,0,0:0:0:0:
392,300,139186,1,0,0:0:0:0:
400,308,139267,1,0,0:0:0:0:
408,316,139349,2,0,L|472:356,1,57.5
200,216,139512,1,0,0:0:0:0:
355,151,139675,6,0,L|427:139,1,57.5
332,244,139838,2,0,L|260:256,1,57.5
200,48,140001,6,0,L|256:72,1,57.5
120,212,140164,2,0,L|64:188,1,57.5
341,95,140327,6,0,L|357:159,1,57.5
240,328,140490,2,0,L|224:264,1,57.5
416,64,140653,6,0,L|488:52,1,57.5
408,316,140816,2,0,L|336:328,1,57.5
124,132,140979,6,0,L|264:120,1,115
268,120,141224,1,0,0:0:0:0:
268,120,141305,1,0,0:0:0:0:
64,272,141468,1,0,0:0:0:0:
200,12,141631,1,0,0:0:0:0:
384,252,141794,1,0,0:0:0:0:
384,252,141876,1,0,0:0:0:0:
384,252,141957,1,0,0:0:0:0:
200,340,142120,1,0,0:0:0:0:
248,188,142283,2,0,B|268:120|268:120|324:132|384:96,1,172.5
428,44,142609,6,0,P|364:112|428:172,1,172.5
428,180,142936,2,0,L|480:248,1,57.5
392,360,143099,2,0,L|340:292,1,57.5
224,120,143262,1,0,0:0:0:0:
168,272,143425,1,0,0:0:0:0:
428,180,143588,5,0,0:0:0:0:
280,28,143751,1,0,0:0:0:0:
280,28,143832,1,0,0:0:0:0:
280,28,143914,1,0,0:0:0:0:
64,204,144077,2,0,L|-12:180,1,57.5
116,80,144240,2,0,P|172:128|180:188,1,115
180,196,144484,1,0,0:0:0:0:
180,196,144566,1,0,0:0:0:0:
52,336,144729,1,0,0:0:0:0:
392,360,144892,5,0,0:0:0:0:
261,114,145055,1,0,0:0:0:0:
261,114,145137,1,0,0:0:0:0:
261,114,145218,2,0,L|167:208,1,115
420,60,145544,6,0,L|476:32,1,57.5
431,222,145707,2,0,L|375:250,1,57.5
196,57,145870,2,0,L|252:29,1,57.5
179,195,146033,2,0,L|103:195,1,57.5
39,335,146196,6,0,B|129:266|129:266|188:265,1,172.5
270,327,146523,6,0,B|190:267|190:267|178:183,1,172.500006580353
312,36,146849,5,0,0:0:0:0:
431,222,147012,1,0,0:0:0:0:
376,352,147175,1,0,0:0:0:0:
336,128,147338,1,0,0:0:0:0:
336,128,147419,1,0,0:0:0:0:
336,128,147501,2,0,P|392:88|468:100,1,115
304,260,147827,2,0,P|248:300|172:288,1,115
176,76,148153,2,0,L|224:204,1,115
224,212,148398,1,0,0:0:0:0:
224,212,148479,1,0,0:0:0:0:
72,340,148642,1,0,0:0:0:0:
336,128,148805,6,0,B|376:128|392:144|392:144|408:136|408:136|432:152|464:136,1,129.375004935265
