osu file format v14

[General]
AudioFilename: Reol - BWW_SCREAM.mp3
AudioLeadIn: 0
PreviewTime: 43912
Countdown: 0
SampleSet: Normal
StackLeniency: 0.7
Mode: 1
LetterboxInBreaks: 0
WidescreenStoryboard: 0

[Editor]
Bookmarks: 585,11918,22584,33251,38251,38417,42084,42417,43917,55251,55334,55501,55751,55834,55917,56084,56105,56251,56272,56417,56438,56584,56605,56751,56772,56792,56813,56834,56855,56876,56897,56917,57084,57251,57334,57417,67251,67417,70751,70834,74251,74334,74417,74501
DistanceSpacing: 0.8
BeatDivisor: 4
GridSize: 32
TimelineZoom: 1.8

[Metadata]
Title:-BWW SCREAM-
TitleUnicode:-BWW SCREAM-
Artist:Giga
ArtistUnicode:ギガ
Creator:JUDYDANNY
Version:Oni
Source:
Tags:Taiko Chromoxx れおる Reol GigaP No title+
BeatmapID:1219590
BeatmapSetID:576021

[Difficulty]
HPDrainRate:6
CircleSize:5
OverallDifficulty:5.5
ApproachRate:5
SliderMultiplier:1.4
SliderTickRate:1

[Events]
//Background and Video events
0,0,"48795543_p0.jpg",0,100
//Break Periods
//Storyboard Layer 0 (Background)
//Storyboard Layer 1 (Fail)
//Storyboard Layer 2 (Pass)
//Storyboard Layer 3 (Foreground)
//Storyboard Sound Samples

[TimingPoints]
585,333.333333333333,4,1,0,80,1,0
11918,333.333333333333,4,1,0,98,1,0
33417,-111.111111111111,4,1,0,80,0,0
43084,-100,4,1,0,98,0,0
46584,-100,4,1,0,98,0,1
65251,-100,4,1,0,98,0,0
71834,-100,4,1,0,30,0,0
72501,-100,4,1,0,98,0,0

[HitObjects]
224,160,585,5,8,0:0:0:0:
224,160,1418,1,8,0:0:0:0:
224,160,1751,1,8,0:0:0:0:
224,160,2584,1,8,0:0:0:0:
224,160,2918,1,8,0:0:0:0:
224,160,3251,1,8,0:0:0:0:
224,160,4084,1,8,0:0:0:0:
224,160,4418,1,8,0:0:0:0:
224,160,5084,1,8,0:0:0:0:
224,160,5418,1,8,0:0:0:0:
224,160,5918,1,0,0:0:0:0:
224,160,6251,1,0,0:0:0:0:
224,160,6584,1,0,0:0:0:0:
224,160,6918,1,0,0:0:0:0:
224,160,7251,1,0,0:0:0:0:
224,160,7584,1,0,0:0:0:0:
224,160,7751,1,0,0:0:0:0:
224,160,7918,1,0,0:0:0:0:
224,160,8251,1,0,0:0:0:0:
224,160,8418,1,0,0:0:0:0:
224,160,8584,1,0,0:0:0:0:
224,160,8751,1,0,0:0:0:0:
224,160,8918,1,8,0:0:0:0:
224,160,9084,1,8,0:0:0:0:
224,160,9251,1,0,0:0:0:0:
224,160,9418,1,8,0:0:0:0:
224,160,9584,1,0,0:0:0:0:
224,160,9751,1,8,0:0:0:0:
224,160,9918,1,0,0:0:0:0:
192,128,10001,1,0,0:0:0:0:
224,160,10084,1,8,0:0:0:0:
224,160,10168,1,8,0:0:0:0:
192,128,10251,1,0,0:0:0:0:
224,160,10418,1,8,0:0:0:0:
224,160,10584,1,0,0:0:0:0:
224,160,10668,1,0,0:0:0:0:
224,160,10751,1,2,0:0:0:0:
224,160,10834,1,0,0:0:0:0:
224,128,10918,1,2,0:0:0:0:
224,160,11084,1,8,0:0:0:0:
224,128,11168,1,8,0:0:0:0:
224,160,11251,1,8,0:0:0:0:
192,64,11584,1,8,0:0:0:0:
192,32,11668,1,8,0:0:0:0:
192,32,11751,1,8,0:0:0:0:
192,32,11834,1,8,0:0:0:0:
224,160,11918,1,0,0:0:0:0:
224,160,12251,1,8,0:0:0:0:
224,160,12418,1,0,0:0:0:0:
192,64,12751,1,0,0:0:0:0:
224,160,12917,1,8,0:0:0:0:
206,119,13084,1,0,0:0:0:0:
224,160,13251,1,0,0:0:0:0:
224,160,13584,1,8,0:0:0:0:
224,160,13751,1,0,0:0:0:0:
192,96,13917,1,0,0:0:0:0:
192,64,14001,1,0,0:0:0:0:
192,64,14084,1,0,0:0:0:0:
224,160,14251,1,8,0:0:0:0:
192,128,14417,1,8,0:0:0:0:
224,160,14584,1,0,0:0:0:0:
224,160,14917,1,8,0:0:0:0:
224,160,15084,1,0,0:0:0:0:
192,64,15417,1,0,0:0:0:0:
224,128,15584,1,8,0:0:0:0:
224,64,15751,1,8,0:0:0:0:
224,64,15917,1,0,0:0:0:0:
224,160,16251,1,8,0:0:0:0:
224,96,16417,1,0,0:0:0:0:
224,160,16584,1,0,0:0:0:0:
224,128,16667,1,8,0:0:0:0:
224,128,16751,1,0,0:0:0:0:
192,256,16917,1,8,0:0:0:0:
192,224,17084,1,8,0:0:0:0:
192,192,17167,1,8,0:0:0:0:
224,128,17251,1,0,0:0:0:0:
224,128,17584,1,8,0:0:0:0:
224,128,17751,1,0,0:0:0:0:
192,32,18084,1,0,0:0:0:0:
224,128,18251,1,8,0:0:0:0:
210,90,18417,1,0,0:0:0:0:
224,128,18584,1,0,0:0:0:0:
224,128,18917,1,8,0:0:0:0:
224,128,19084,1,0,0:0:0:0:
192,64,19251,1,0,0:0:0:0:
192,32,19417,1,0,0:0:0:0:
160,32,19501,1,0,0:0:0:0:
224,128,19584,1,8,0:0:0:0:
207,83,19751,1,8,0:0:0:0:
224,128,19917,1,0,0:0:0:0:
224,128,20251,1,8,0:0:0:0:
224,128,20417,1,0,0:0:0:0:
192,32,20751,1,0,0:0:0:0:
224,128,20917,1,8,0:0:0:0:
224,96,21084,1,8,0:0:0:0:
224,128,21251,1,0,0:0:0:0:
224,96,21417,1,8,0:0:0:0:
224,128,21584,1,8,0:0:0:0:
224,128,21751,1,0,0:0:0:0:
224,128,21917,1,8,0:0:0:0:
224,128,22001,1,8,0:0:0:0:
224,128,22084,1,0,0:0:0:0:
224,128,22251,1,8,0:0:0:0:
224,96,22334,1,8,0:0:0:0:
224,128,22417,1,8,0:0:0:0:
224,128,22584,1,4,0:0:0:0:
224,128,22917,1,8,0:0:0:0:
224,128,23084,1,0,0:0:0:0:
224,96,23251,1,8,0:0:0:0:
224,64,23334,1,8,0:0:0:0:
224,32,23417,1,8,0:0:0:0:
224,128,23584,1,8,0:0:0:0:
224,96,23751,1,0,0:0:0:0:
224,128,23917,1,0,0:0:0:0:
224,128,24251,1,8,0:0:0:0:
224,128,24417,1,0,0:0:0:0:
192,64,24584,1,8,0:0:0:0:
192,32,24751,1,0,0:0:0:0:
192,0,24834,1,0,0:0:0:0:
224,128,24917,1,8,0:0:0:0:
192,0,25084,1,8,0:0:0:0:
224,128,25251,1,0,0:0:0:0:
224,128,25584,1,8,0:0:0:0:
224,128,25751,1,0,0:0:0:0:
192,64,25917,1,8,0:0:0:0:
192,0,26084,1,0,0:0:0:0:
192,0,26167,1,0,0:0:0:0:
224,128,26251,1,8,0:0:0:0:
224,128,26417,1,0,0:0:0:0:
224,128,26584,1,8,0:0:0:0:
192,96,26751,1,8,0:0:0:0:
192,64,26834,1,8,0:0:0:0:
224,128,26917,1,8,0:0:0:0:
192,96,27084,1,8,0:0:0:0:
256,128,27251,1,0,0:0:0:0:
224,96,27334,1,0,0:0:0:0:
256,128,27417,1,0,0:0:0:0:
256,128,27584,1,8,0:0:0:0:
256,128,27751,1,8,0:0:0:0:
256,128,27917,1,0,0:0:0:0:
256,128,28251,1,8,0:0:0:0:
256,128,28417,1,0,0:0:0:0:
224,96,28584,1,8,0:0:0:0:
224,96,28751,1,0,0:0:0:0:
224,96,28834,1,0,0:0:0:0:
224,32,28917,1,8,0:0:0:0:
224,64,29084,1,8,0:0:0:0:
256,128,29251,1,0,0:0:0:0:
224,96,29417,1,0,0:0:0:0:
160,64,29584,1,2,0:0:0:0:
256,128,29751,1,0,0:0:0:0:
192,32,30084,1,0,0:0:0:0:
256,128,30251,1,8,0:0:0:0:
192,32,30417,1,8,0:0:0:0:
256,128,30584,1,0,0:0:0:0:
224,96,30751,1,0,0:0:0:0:
224,64,30834,1,0,0:0:0:0:
256,128,30917,1,8,0:0:0:0:
256,128,31001,1,8,0:0:0:0:
256,128,31084,1,0,0:0:0:0:
224,96,31251,1,8,0:0:0:0:
192,32,31417,1,0,0:0:0:0:
224,64,31501,1,0,0:0:0:0:
256,128,31584,1,8,0:0:0:0:
224,96,31751,1,8,0:0:0:0:
256,128,31917,1,0,0:0:0:0:
192,64,32417,1,2,0:0:0:0:
256,128,32501,1,10,0:0:0:0:
256,128,32584,1,8,0:0:0:0:
224,96,32751,1,8,0:0:0:0:
256,96,32917,1,8,0:0:0:0:
256,128,33251,1,4,0:0:0:0:
256,128,33917,1,8,0:0:0:0:
256,128,34417,1,8,0:0:0:0:
256,128,34584,1,0,0:0:0:0:
256,128,34917,1,0,0:0:0:0:
256,128,35251,1,8,0:0:0:0:
208,65,35584,1,8,0:0:0:0:
188,32,35751,1,10,0:0:0:0:
256,128,35917,1,0,0:0:0:0:
169,27,36417,1,0,0:0:0:0:
256,128,36584,1,8,0:0:0:0:
256,128,37084,1,8,0:0:0:0:
256,128,37251,1,0,0:0:0:0:
256,128,37584,1,8,0:0:0:0:
256,128,37751,1,8,0:0:0:0:
256,128,37917,1,0,0:0:0:0:
256,128,38251,1,8,0:0:0:0:
256,128,38584,1,0,0:0:0:0:
256,128,39251,1,8,0:0:0:0:
256,128,39751,1,8,0:0:0:0:
256,128,39917,1,0,0:0:0:0:
256,128,40251,1,0,0:0:0:0:
192,0,40417,1,0,0:0:0:0:
256,128,40584,1,8,0:0:0:0:
256,128,40917,1,8,0:0:0:0:
256,128,41251,1,0,0:0:0:0:
160,32,41751,1,8,0:0:0:0:
256,128,41917,1,0,0:0:0:0:
256,128,42584,1,4,0:0:0:0:
256,128,43251,1,8,0:0:0:0:
256,128,43334,1,8,0:0:0:0:
256,128,43417,1,8,0:0:0:0:
256,128,43501,1,8,0:0:0:0:
256,128,43584,1,8,0:0:0:0:
192,160,43751,1,8,0:0:0:0:
192,128,43834,1,8,0:0:0:0:
256,128,43917,1,0,0:0:0:0:
256,128,44417,1,0,0:0:0:0:
256,128,44584,1,8,0:0:0:0:
192,32,44917,1,8,0:0:0:0:
256,128,45251,1,0,0:0:0:0:
256,128,45751,1,0,0:0:0:0:
256,128,45917,1,8,0:0:0:0:
192,64,46251,1,8,0:0:0:0:
160,32,46417,1,8,0:0:0:0:
256,128,46584,1,4,0:0:0:0:
192,32,46834,1,0,0:0:0:0:
256,128,46917,1,8,0:0:0:0:
256,128,47084,1,0,0:0:0:0:
224,64,47251,1,8,0:0:0:0:
224,64,47334,1,8,0:0:0:0:
192,32,47417,1,0,0:0:0:0:
256,128,47584,1,8,0:0:0:0:
224,96,47751,1,0,0:0:0:0:
256,128,47917,1,0,0:0:0:0:
192,128,48084,1,8,0:0:0:0:
224,64,48167,1,0,0:0:0:0:
256,128,48251,1,8,0:0:0:0:
224,96,48417,1,8,0:0:0:0:
256,128,48584,1,0,0:0:0:0:
256,96,48667,1,8,0:0:0:0:
256,128,48751,1,0,0:0:0:0:
256,128,48917,1,8,0:0:0:0:
256,128,49084,1,8,0:0:0:0:
256,128,49251,1,0,0:0:0:0:
160,128,49501,1,0,0:0:0:0:
128,128,49584,1,8,0:0:0:0:
256,128,49751,1,8,0:0:0:0:
192,32,49834,1,8,0:0:0:0:
192,64,49917,1,8,0:0:0:0:
160,32,50084,1,0,0:0:0:0:
256,128,50251,1,8,0:0:0:0:
224,96,50417,1,8,0:0:0:0:
256,128,50584,1,0,0:0:0:0:
160,128,50834,1,0,0:0:0:0:
128,128,50917,1,8,0:0:0:0:
256,128,51084,1,0,0:0:0:0:
192,64,51167,1,0,0:0:0:0:
192,64,51251,1,2,0:0:0:0:
160,32,51417,1,0,0:0:0:0:
256,128,51584,1,8,0:0:0:0:
224,96,51751,1,8,0:0:0:0:
256,128,51917,1,0,0:0:0:0:
256,128,52167,1,0,0:0:0:0:
224,96,52251,1,8,0:0:0:0:
256,128,52417,1,0,0:0:0:0:
224,96,52584,1,8,0:0:0:0:
192,64,52751,1,0,0:0:0:0:
192,64,52834,1,0,0:0:0:0:
256,128,52917,1,8,0:0:0:0:
224,96,53084,1,8,0:0:0:0:
224,96,53167,1,8,0:0:0:0:
256,128,53251,1,0,0:0:0:0:
224,96,53417,1,0,0:0:0:0:
256,128,53584,1,8,0:0:0:0:
224,96,53751,1,8,0:0:0:0:
256,128,53917,1,0,0:0:0:0:
256,128,54001,1,0,0:0:0:0:
256,128,54084,1,0,0:0:0:0:
256,128,54251,1,8,0:0:0:0:
224,96,54334,1,8,0:0:0:0:
256,128,54417,1,8,0:0:0:0:
256,128,54584,1,4,0:0:0:0:
256,128,54917,1,8,0:0:0:0:
256,128,55084,1,0,0:0:0:0:
192,64,55251,1,8,0:0:0:0:
224,64,55417,1,0,0:0:0:0:
128,0,55501,1,0,0:0:0:0:
256,128,55584,1,8,0:0:0:0:
224,96,55751,1,0,0:0:0:0:
224,96,55834,1,0,0:0:0:0:
192,64,55917,1,0,0:0:0:0:
160,128,56084,1,0,0:0:0:0:
256,128,56251,1,8,0:0:0:0:
256,128,56417,1,8,0:0:0:0:
224,96,56584,1,0,0:0:0:0:
192,64,56751,1,0,0:0:0:0:
160,64,56834,1,0,0:0:0:0:
256,128,56917,1,8,0:0:0:0:
224,96,57084,1,8,0:0:0:0:
256,128,57251,1,0,0:0:0:0:
256,128,57584,1,8,0:0:0:0:
256,128,57751,1,0,0:0:0:0:
224,96,57917,1,8,0:0:0:0:
192,32,58084,1,2,0:0:0:0:
160,32,58167,1,8,0:0:0:0:
160,64,58251,1,0,0:0:0:0:
256,128,58417,1,8,0:0:0:0:
256,128,58584,1,0,0:0:0:0:
224,96,58751,1,8,0:0:0:0:
256,128,58917,1,8,0:0:0:0:
256,128,59084,1,0,0:0:0:0:
256,128,59251,1,0,0:0:0:0:
256,128,59334,1,8,0:0:0:0:
256,128,59417,1,0,0:0:0:0:
256,128,59584,1,8,0:0:0:0:
160,32,59751,1,8,0:0:0:0:
256,128,59917,1,0,0:0:0:0:
224,96,60001,1,0,0:0:0:0:
224,96,60084,1,0,0:0:0:0:
256,128,60251,1,8,0:0:0:0:
256,128,60417,1,8,0:0:0:0:
224,96,60584,1,0,0:0:0:0:
160,32,60834,1,0,0:0:0:0:
160,32,60917,1,8,0:0:0:0:
256,128,61084,1,8,0:0:0:0:
256,128,61251,1,0,0:0:0:0:
224,96,61417,1,0,0:0:0:0:
256,128,61584,1,8,0:0:0:0:
224,96,61751,1,8,0:0:0:0:
192,64,61917,1,0,0:0:0:0:
160,0,62084,1,8,0:0:0:0:
160,32,62167,1,0,0:0:0:0:
256,128,62251,1,8,0:0:0:0:
224,64,62417,1,8,0:0:0:0:
256,128,62584,1,0,0:0:0:0:
256,128,62917,1,8,0:0:0:0:
256,128,63084,1,0,0:0:0:0:
224,96,63251,1,8,0:0:0:0:
224,96,63334,1,8,0:0:0:0:
224,64,63417,1,0,0:0:0:0:
192,64,63501,1,0,0:0:0:0:
256,128,63584,1,8,0:0:0:0:
224,96,63751,1,8,0:0:0:0:
256,128,63917,1,0,0:0:0:0:
224,64,64084,1,8,0:0:0:0:
256,128,64167,1,0,0:0:0:0:
224,96,64251,1,8,0:0:0:0:
224,96,64334,1,8,0:0:0:0:
256,128,64417,1,0,0:0:0:0:
256,128,64584,1,0,0:0:0:0:
256,128,64667,1,0,0:0:0:0:
256,128,64751,1,0,0:0:0:0:
256,128,64917,1,8,0:0:0:0:
256,128,65084,1,8,0:0:0:0:
256,128,65251,1,0,0:0:0:0:
256,128,65917,1,8,0:0:0:0:
256,96,66251,1,8,0:0:0:0:
256,96,66334,1,8,0:0:0:0:
256,96,66417,1,8,0:0:0:0:
256,96,66501,1,8,0:0:0:0:
256,128,66584,1,0,0:0:0:0:
224,32,66917,1,8,0:0:0:0:
256,128,67251,1,0,0:0:0:0:
224,96,67417,1,8,0:0:0:0:
256,128,67584,1,0,0:0:0:0:
224,96,67667,1,0,0:0:0:0:
224,96,67751,1,0,0:0:0:0:
192,96,67834,1,0,0:0:0:0:
256,128,67917,1,0,0:0:0:0:
224,96,68084,1,0,0:0:0:0:
192,64,68251,1,8,0:0:0:0:
256,128,68417,1,0,0:0:0:0:
256,128,68584,1,8,0:0:0:0:
224,96,68751,1,0,0:0:0:0:
192,64,68917,1,8,0:0:0:0:
160,32,69084,1,8,0:0:0:0:
256,128,69251,1,0,0:0:0:0:
256,128,69751,1,0,0:0:0:0:
256,128,69917,1,8,0:0:0:0:
192,96,70084,1,8,0:0:0:0:
160,32,70167,1,8,0:0:0:0:
160,64,70251,1,8,0:0:0:0:
160,32,70417,1,0,0:0:0:0:
256,128,70501,1,0,0:0:0:0:
256,128,70584,1,0,0:0:0:0:
224,96,70751,1,8,0:0:0:0:
192,64,70917,1,8,0:0:0:0:
256,128,71084,1,0,0:0:0:0:
256,128,71251,1,8,0:0:0:0:
256,128,71334,1,8,0:0:0:0:
256,128,71417,1,0,0:0:0:0:
256,128,71584,1,8,0:0:0:0:
256,128,71751,1,0,0:0:0:0:
256,192,71917,12,0,72417,0:0:0:0:
160,32,72584,5,8,0:0:0:0:
160,64,72667,1,8,0:0:0:0:
160,96,72751,1,8,0:0:0:0:
160,32,72917,1,8,0:0:0:0:
128,64,73001,1,8,0:0:0:0:
160,32,73084,1,8,0:0:0:0:
160,32,73167,1,8,0:0:0:0:
256,128,73251,1,0,0:0:0:0:
192,32,73584,1,8,0:0:0:0:
192,32,73751,1,8,0:0:0:0:
192,32,73834,1,8,0:0:0:0:
192,32,73917,1,0,0:0:0:0:
192,32,74084,1,8,0:0:0:0:
192,32,74251,1,8,0:0:0:0:
192,32,74417,1,0,0:0:0:0:
256,128,74584,1,0,0:0:0:0:
256,128,74834,1,0,0:0:0:0:
256,128,75084,1,8,0:0:0:0:
256,128,75584,1,4,0:0:0:0:
256,128,75917,1,8,0:0:0:0:
256,128,76084,1,0,0:0:0:0:
256,128,76251,1,8,0:0:0:0:
256,128,76584,1,0,0:0:0:0:
256,96,76667,1,0,0:0:0:0:
256,128,76751,1,8,0:0:0:0:
256,128,76834,1,8,0:0:0:0:
256,128,76917,1,0,0:0:0:0:
256,128,77001,1,0,0:0:0:0:
256,128,77084,1,8,0:0:0:0:
256,128,77251,1,12,0:0:0:0:
