osu file format v11

[General]
AudioFilename: Mirai Miracle.mp3
AudioLeadIn: 2000
PreviewTime: 33895
Countdown: 0
SampleSet: Normal
StackLeniency: 0.7
Mode: 0
LetterboxInBreaks: 1

[Editor]
DistanceSpacing: 1
BeatDivisor: 4
GridSize: 8

[Metadata]
Title:Mirai Miracle
TitleUnicode:Mirai Miracle
Artist:GhostFinal
ArtistUnicode:GhostFinal
Creator:Banana
Version:Hard
Source:
Tags:Melo
BeatmapID:152902
BeatmapSetID:49618

[Difficulty]
HPDrainRate:6
CircleSize:4
OverallDifficulty:7
ApproachRate:8
SliderMultiplier:1.9
SliderTickRate:2

[Events]
//Background and Video events
0,0,"bg.jpg"
//Break Periods
2,68513,71701
2,151272,157563
//Storyboard Layer 0 (Background)
//Storyboard Layer 1 (Fail)
//Storyboard Layer 2 (Pass)
//Storyboard Layer 3 (Foreground)
//Storyboard Sound Samples
//Background Colour Transformations
3,100,163,162,255

[TimingPoints]
38,517.241379310345,4,2,1,25,1,0
555,-100,4,2,1,35,0,0
1072,-100,4,2,1,45,0,0
2106,-100,4,2,1,65,0,0
14520,-100,4,1,1,45,0,0
14779,-100,4,1,1,5,0,0
16331,-100,4,2,1,20,0,0
17365,-100,4,2,1,30,0,0
17624,-100,4,2,1,40,0,0
17882,-100,4,2,1,50,0,0
18400,-100,4,1,1,50,0,0
35210,-100,4,1,1,60,0,1
47106,-100,4,1,2,60,0,1
47236,-100,4,1,1,60,0,1
50598,-100,4,1,1,40,0,1
51503,-100,4,1,1,60,0,1
51632,-100,4,1,1,60,0,0
51762,-100,4,1,1,60,0,1
60555,-100,4,1,2,60,0,1
60684,-100,4,1,1,60,0,1
67150,-100,4,1,1,40,0,1
68055,-100,4,1,1,60,0,1
68313,-100,4,2,0,60,0,0
83572,-100,4,1,0,50,0,0
84865,-100,4,1,1,60,0,0
98831,-100,4,1,2,60,0,0
98960,-100,4,1,1,60,0,0
117969,-100,4,1,1,60,0,1
134391,-100,4,1,1,60,0,0
134520,-100,4,1,1,60,0,1
150038,-100,4,1,1,50,0,0
162451,-133.333333333333,4,1,1,50,0,0
167624,-100,4,1,1,60,0,1
180813,-133.333333333333,4,1,1,60,0,1
182106,-100,4,1,1,60,0,1
184175,-100,4,1,1,50,0,0
184305,-100,4,2,1,40,0,0
200727,-100,4,2,1,30,0,0
201762,-100,4,2,1,20,0,0
203313,-100,4,2,1,15,0,0
203831,-100,4,2,1,10,0,0
204348,-100,4,2,1,5,0,0

[Colours]
Combo1 : 250,255,155
Combo2 : 166,255,136
Combo3 : 164,140,255
Combo4 : 140,235,255
Combo5 : 255,140,143
Combo6 : 255,147,252

[HitObjects]
256,192,296,12,4,2106,0:0:0
286,204,2365,6,0,B|325:178,1,47.5,2|0,0:0|0:0,0:0:0
239,294,2753,2,0,B|335:278,1,95
379,272,3141,2,0,B|427:282|458:322,1,95
421,165,3658,2,0,B|422:216|435:262,1,95,2|0,0:0|0:0,0:0:0
494,97,4175,5,0,0:0:0
382,30,4434,1,2,0:0:0
348,63,4563,2,0,B|304:73|252:68,1,95
180,132,5081,1,0,0:0:0
147,101,5210,2,0,B|97:101|55:81,2,95,0|0|2,0:0|0:0|0:0,0:0:0
48,229,6244,6,0,B|100:225|138:200,1,95,0|2,0:0|0:0,0:0:0
181,202,6632,1,0,0:0:0
228,298,6891,1,0,0:0:0
118,290,7150,1,0,0:0:0
113,371,7279,2,0,B|54:376|8:347,1,95
118,290,7796,1,2,0:0:0
228,298,8055,1,0,0:0:0
316,314,8313,6,0,B|364:319|400:272,1,95,0|2,0:0|0:0,0:0:0
446,309,8701,2,0,B|425:266|426:217,2,95
368,233,9348,1,0,0:0:0
376,104,9606,1,0,0:0:0
483,172,9865,1,2,0:0:0
144,125,10382,6,0,B|196:121|231:93,1,95,0|2,0:0|0:0,0:0:0
274,50,10770,2,0,B|260:80|264:115|251:145,1,95
152,265,11288,1,0,0:0:0
112,227,11417,2,0,B|63:223|9:193,1,95
144,125,11934,1,2,0:0:0
248,206,12193,1,0,0:0:0
205,349,12451,5,0,0:0:0
300,301,12710,2,0,B|321:309|342:324,1,47.5,2|0,0:0|0:0,0:0:0
447,248,13098,2,0,B|393:255|342:242,1,95
465,142,13486,2,0,B|424:169|377:175,1,95
377,174,14003,1,2,0:0:0
257,128,14520,5,0,0:0:0
256,192,14779,12,0,16331,0:0:0
256,192,16589,12,0,18400,0:0:0
224,147,18658,6,0,B|171:144|132:162,1,95
84,246,19175,2,0,B|145:249|186:228,2,95,8|0|0,0:0|0:0|0:0,0:0:0
139,326,19951,1,0,0:0:0
228,305,20210,2,0,B|288:314|328:340,1,95,8|0,0:0|0:0,0:0:0
331,249,20727,6,0,B|358:210|405:192,1,95
471,165,21115,2,0,B|432:166|403:144|371:146,1,95
448,48,21632,1,0,0:0:0
409,52,21762,2,0,B|376:64|376:64|310:60,1,95
231,106,22279,1,8,0:0:0
206,229,22538,2,0,B|183:188,1,47.5
127,182,22796,6,0,B|153:223|206:229,1,95
301,202,23313,2,0,B|352:196|396:213,1,95,8|0,0:0|0:0,0:0:0
460,231,23701,2,0,B|410:261,1,47.5
352,317,24089,2,0,B|389:338|448:341,1,95,0|8,0:0|0:0,0:0:0
369,248,24606,1,0,0:0:0
256,327,24865,5,0,0:0:0
157,326,25124,2,0,B|111:345,1,47.5
291,220,25512,1,0,0:0:0
243,229,25641,1,0,0:0:0
199,244,25770,1,0,0:0:0
149,242,25900,2,0,B|91:235|59:208,1,95
31,178,26288,2,0,B|8:128,1,47.5,0|8,0:0|0:0,0:0:0
65,47,26675,1,0,0:0:0
112,64,26805,1,0,0:0:0
143,102,26934,6,0,B|156:151|191:184,1,95
293,222,27451,1,8,0:0:0
276,184,27581,1,0,0:0:0
359,144,27839,1,0,0:0:0
327,116,27969,2,0,B|275:93|225:103,1,95
313,64,28486,2,0,B|359:64|416:45,1,95,8|0,0:0|0:0,0:0:0
502,63,29003,6,0,B|461:101|448:144,1,95
445,185,29391,1,0,0:0:0
314,236,29650,1,0,0:0:0
366,236,29779,1,0,0:0:0
418,257,29908,1,0,0:0:0
445,307,30038,2,0,B|464:363|464:363|493:385,2,95,0|0|8,0:0|0:0|0:0,0:0:0
361,367,30813,2,0,B|325:332,1,47.5
277,330,31072,6,0,B|224:348|180:334,1,95
183,335,31460,1,0,0:0:0
140,246,31719,1,0,0:0:0
44,260,31977,1,0,0:0:0
44,260,32106,2,0,B|45:316|24:356,1,95
57,153,32624,2,0,B|102:172|132:221,1,95,8|0,0:0|0:0,0:0:0
226,253,33141,5,0,0:0:0
210,150,33400,2,0,B|242:143|269:157,2,47.5
130,85,33917,2,0,B|84:54|36:49,1,95,2|0,0:0|0:0,0:0:0
148,44,34434,2,0,B|197:52|246:38,1,95,2|10,0:0|0:0,0:0:0
258,152,34951,1,2,0:0:0
352,53,35210,1,4,0:0:0
472,91,35727,5,8,0:0:0
330,157,35986,1,2,0:0:0
372,142,36115,1,0,0:0:0
417,150,36244,1,0,0:0:0
473,232,36503,2,0,B|423:254|367:229,1,95,2|8,0:0|0:0,0:0:0
452,338,37020,1,0,0:0:0
310,335,37279,6,0,B|362:309|383:276,2,95,2|0|8,0:0|0:0|0:0,0:0:0
183,314,38055,2,0,B|243:310|287:292,1,95,2|0,0:0|0:0,0:0:0
72,246,38572,2,0,B|115:265|165:263,2,95,2|8|0,0:0|0:0|0:0,0:0:0
116,356,39348,5,2,0:0:0
34,293,39606,2,0,B|15:336,1,47.5
24,205,39994,1,0,0:0:0
62,162,40124,2,0,B|113:152|150:120,1,95,2|0,0:0|0:0,0:0:0
258,184,40641,2,0,B|200:190|154:180,1,95,2|8,0:0|0:0,0:0:0
46,68,41158,1,0,0:0:0
145,90,41417,6,0,B|194:103|241:96,1,95,2|0,0:0|0:0,0:0:0
285,86,41805,1,0,0:0:0
424,57,42063,2,0,B|380:44,1,47.5
285,86,42322,2,0,B|329:99,1,47.5
482,125,42710,2,0,B|423:137|398:173,1,95,2|8,0:0|0:0,0:0:0
360,217,43098,2,0,B|321:192,1,47.5,2|2,0:0|0:0,0:0:0
259,200,43356,1,8,0:0:0
210,180,43486,6,0,B|162:169|111:180,1,95,6|0,0:0|0:0,0:0:0
111,76,44003,2,0,B|101:140|38:202,1,142.5,8|0,0:0|0:0,0:0:0
2,241,44520,2,0,B|55:238|100:251,1,95,0|2,0:0|0:0,0:0:0
225,232,45038,1,8,0:0:0
189,346,45296,2,0,B|146:324,1,47.5
95,352,45555,6,0,B|146:363|188:345,1,95,2|0,0:0|0:0,0:0:0
279,324,46072,2,0,B|320:343|370:344,1,95,8|2,0:0|0:0,0:0:0
385,225,46589,2,0,B|392:277|421:318|482:335,2,142.5
495,193,47624,5,2,0:0:0
495,193,47882,2,0,B|481:238,1,47.5
443,152,48141,2,0,B|442:200|480:238,1,95,8|4,0:0|0:0,0:0:0
481,46,48658,2,0,B|476:94|487:148,1,95,0|2,0:0|0:0,0:0:0
345,42,49175,1,8,0:0:0
416,94,49434,1,0,0:0:0
320,157,49693,5,2,0:0:0
241,124,49951,2,0,B|178:131,1,47.5
206,163,50210,2,0,B|164:195,1,47.5,8|0,0:0|0:0,0:0:0
256,192,50598,12,2,51374,0:0:0
196,214,51632,5,0,0:0:0
232,242,51762,2,0,B|280:253|332:247,2,95,4|0|8,0:0|0:0|0:0,0:0:0
85,298,52538,2,0,B|132:291,1,47.5,2|0,0:0|0:0,0:0:0
132,291,52796,2,0,B|183:305|219:332,1,95,0|2,0:0|0:0,0:0:0
328,341,53313,2,0,B|384:335|420:315,1,95,8|0,0:0|0:0,0:0:0
450,225,53831,5,2,0:0:0
432,107,54089,2,0,B|422:162|401:197,2,95,0|8|2,0:0|0:0|0:0,0:0:0
490,30,54865,1,0,0:0:0
320,39,55124,2,0,B|355:70|408:63,1,95,2|8,0:0|0:0,0:0:0
322,102,55641,2,0,B|281:117|228:101,1,95,0|2,0:0|0:0,0:0:0
447,122,56158,6,0,B|433:148|412:162,1,47.5
382,177,56417,2,0,B|331:174|292:200,1,95,8|2,0:0|0:0,0:0:0
334,353,56934,2,0,B|352:321|353:260,1,95,0|2,0:0|0:0,0:0:0
185,236,57451,2,0,B|222:270|268:286,1,95,8|0,0:0|0:0,0:0:0
170,347,57969,6,0,B|112:336|65:354,1,95,2|0,0:0|0:0,0:0:0
19,308,58356,2,0,B|66:312|109:286,1,95
99,243,58744,1,0,0:0:0
71,210,58874,2,0,B|89:192|95:169,1,47.5
29,125,59262,1,2,0:0:0
133,66,59520,1,8,0:0:0
258,102,59779,1,0,0:0:0
335,67,60038,6,0,B|379:70|438:55|438:55|475:67,2,142.5,2|0|2,0:0|0:0|0:0,0:0:0
339,185,61072,2,0,B|390:155|403:113,1,95,0|2,0:0|0:0,0:0:0
509,204,61589,2,0,B|466:183|413:184,1,95,8|0,0:0|0:0,0:0:0
251,271,62106,6,0,B|316:287|361:288|403:263|403:263|455:270,2,190,2|8|0,0:0|0:0|0:0,0:0:0
144,239,63400,1,2,0:0:0
93,326,63658,2,0,B|37:323|0:360,2,95,8|0|2,0:0|0:0|0:0,0:0:0
170,263,64434,1,0,0:0:0
72,233,64693,6,0,B|21:214|12:157,2,95,8|2|0,0:0|0:0|0:0,0:0:0
142,71,65469,2,0,B|93:108|96:156,1,95,2|8,0:0|0:0,0:0:0
252,196,65986,2,0,B|191:196|169:137,2,95,0|2|0,0:0|0:0|0:0,0:0:0
310,203,66632,1,0,0:0:0
419,168,66891,1,0,0:0:0
256,192,67150,12,2,67925,0:0:0
325,85,68184,6,0,B|348:132,1,47.5,8|4,0:0|0:0,0:0:0
264,191,72451,6,0,B|301:156|351:144,1,95,0|2,0:0|0:0,0:0:0
392,32,72969,2,0,B|403:81|389:130,1,95,0|2,0:0|0:0,0:0:0
467,222,73486,1,0,0:0:0
467,222,73744,1,0,0:0:0
467,222,74003,2,0,B|418:207|382:170,1,95,2|0,0:0|0:0,0:0:0
248,193,74520,5,0,0:0:0
247,302,74779,2,0,B|295:296|352:311,2,95,2|0|2,0:0|0:0|0:0,0:0:0
248,193,75555,1,0,0:0:0
280,80,75813,2,0,B|232:86|175:71,2,95,0|2|0,0:0|0:0|0:0,0:0:0
248,193,76589,6,0,B|211:228|161:240,1,95,0|2,0:0|0:0,0:0:0
120,352,77107,2,0,B|108:302|122:253,1,95,0|2,0:0|0:0,0:0:0
45,162,77624,1,0,0:0:0
45,162,77882,1,0,0:0:0
45,162,78141,2,0,B|93:176|129:213,1,95,2|0,0:0|0:0,0:0:0
248,193,78658,5,0,0:0:0
372,106,78917,2,0,B|360:153|366:201,2,95,2|0|2,0:0|0:0|0:0,0:0:0
248,193,79693,1,0,0:0:0
139,277,79951,2,0,B|152:231|146:183,2,95,0|2|0,0:0|0:0|0:0,0:0:0
266,305,80727,6,0,B|303:270|353:258,1,95,0|2,0:0|0:0,0:0:0
394,146,81245,2,0,B|405:195|391:244,1,95,0|2,0:0|0:0,0:0:0
469,336,81762,1,0,0:0:0
469,336,82020,1,0,0:0:0
469,336,82279,2,0,B|420:321|384:284,1,95,2|0,0:0|0:0,0:0:0
266,305,82796,5,0,0:0:0
385,140,83055,1,2,0:0:0
476,319,83313,1,0,0:0:0
476,319,83572,1,4,0:0:0
476,319,83831,1,4,0:0:0
310,132,84865,6,0,B|361:138|406:124,1,95,4|0,0:0|0:0,0:0:0
364,252,85382,1,8,0:0:0
241,239,85641,1,0,0:0:0
452,351,85900,2,0,B|394:330|364:296,2,95,0|0|8,0:0|0:0|0:0,0:0:0
242,333,86675,1,0,0:0:0
124,255,86934,6,0,B|109:299|61:323,1,95
214,217,87451,1,8,0:0:0
43,164,87710,1,0,0:0:0
126,111,87969,2,0,B|178:116|212:77,1,95
379,171,88486,2,0,B|326:175|289:141,1,95,8|0,0:0|0:0,0:0:0
379,20,89003,5,0,0:0:0
469,107,89262,2,0,B|474:129|494:148,2,47.5,0|0|8,0:0|0:0|0:0,0:0:0
329,175,89779,1,0,0:0:0
395,295,90038,2,0,B|432:287|460:276|486:254,2,95,0|0|8,0:0|0:0|0:0,0:0:0
261,332,90813,1,0,0:0:0
357,337,91072,6,0,B|403:352|456:342,1,95
349,222,91589,1,8,0:0:0
241,273,91848,1,0,0:0:0
187,283,91977,2,0,B|163:272|134:284,1,47.5
63,199,92365,2,0,B|55:183|59:153,1,47.5
35,306,92753,2,0,B|23:330|0:336,1,47.5
117,350,93141,6,0,B|141:285|111:245|111:245|72:224,1,142.5
38,218,93658,2,0,B|87:241|141:211,1,95,8|0,0:0|0:0,0:0:0
224,262,94175,1,0,0:0:0
154,54,94563,1,0,0:0:0
38,218,94951,1,0,0:0:0
148,213,95210,5,0,0:0:0
104,127,95469,2,0,B|56:127,1,47.5
24,77,95727,2,0,B|76:88|104:127,1,95,8|0,0:0|0:0,0:0:0
177,162,96244,1,0,0:0:0
229,99,96503,2,0,B|280:83,1,47.5
322,92,96762,1,8,0:0:0
407,95,97020,6,0,B|454:95|499:72,2,95
368,194,97796,2,0,B|411:176|424:156|445:136,1,95,8|0,0:0|0:0,0:0:0
391,292,98313,2,0,B|407:254|431:236|428:194|428:194|473:199,2,142.5,0|0|0,0:0|0:0|0:0,0:0:0
463,352,99348,5,0,0:0:0
322,324,99606,1,0,0:0:0
354,303,99736,1,0,0:0:0
391,292,99865,1,8,0:0:0
309,213,100124,2,0,B|343:181|363:135,1,95
182,183,100770,1,0,0:0:0
186,230,100900,2,0,B|216:269|206:327,1,95,8|0,0:0|0:0,0:0:0
85,229,101417,6,0,B|87:280|38:314,1,95,4|4,0:0|0:0,0:0:0
16,334,101805,1,0,0:0:0
7,183,102063,2,0,B|50:163,1,47.5
97,170,102322,1,0,0:0:0
129,204,102451,2,0,B|185:215|231:208,1,95
249,64,102969,2,0,B|212:105|201:148,1,95,8|0,0:0|0:0,0:0:0
327,231,103486,6,0,B|295:171|243:143,1,95
302,115,103874,2,0,B|357:119|400:86,1,95
434,56,104262,2,0,B|414:99|417:151,1,95
456,338,104908,1,0,0:0:0
443,298,105038,2,0,B|463:255|460:203,1,95,8|0,0:0|0:0,0:0:0
357,328,105555,6,0,B|304:316|262:328,1,95
224,350,105943,1,0,0:0:0
363,245,106201,2,0,B|304:232|260:183,1,95
256,262,106589,2,0,B|206:259|162:281,1,95
55,229,107106,2,0,B|22:264|20:319,1,95,8|0,0:0|0:0,0:0:0
56,346,107494,1,0,0:0:0
102,355,107624,6,0,B|150:362|194:342,2,95,0|0|8,0:0|0:0|0:0,0:0:0
147,207,108400,2,0,B|124:201|100:198,1,47.5
56,174,108658,2,0,B|88:131|74:67,1,95
124,68,109046,2,0,B|168:105|190:155|197:195,1,142.5
283,114,109693,6,0,B|236:125|175:116,1,95,4|0,0:0|0:0,0:0:0
221,76,110081,1,0,0:0:0
223,24,110210,1,8,0:0:0
339,60,110469,1,0,0:0:0
398,163,110727,2,0,B|356:170|309:195,2,95,0|0|8,0:0|0:0|0:0,0:0:0
484,247,111503,6,0,B|419:244|378:214,1,95
473,155,112020,1,0,0:0:0
422,140,112150,1,0,0:0:0
388,100,112279,1,8,0:0:0
232,108,112538,1,0,0:0:0
265,282,112796,2,0,B|309:278|361:250,1,95
453,339,113313,2,0,B|405:305|336:299,1,95,8|0,0:0|0:0,0:0:0
154,328,113831,6,0,B|200:350|253:344,1,95
288,343,114219,1,0,0:0:0
35,323,114477,2,0,B|46:302|63:285,1,47.5
63,231,114736,1,0,0:0:0
88,172,114865,2,0,B|139:192|165:241,1,95
253,188,115382,1,8,0:0:0
148,68,115641,2,0,B|160:116|151:172,1,95
272,70,116158,6,0,B|249:72|227:64,1,47.5
332,75,116417,2,0,B|297:122|246:130,1,95,8|2,0:0|0:0,0:0:0
408,144,116934,1,0,0:0:0
416,232,117193,2,0,B|361:230|332:192,2,95,2|2|2,0:0|0:0|0:0,0:0:0
210,291,117969,5,4,0:0:0
45,265,118486,1,8,0:0:0
52,162,118744,1,2,0:0:0
62,193,118874,1,0,0:0:0
60,231,119003,1,0,0:0:0
121,140,119262,2,0,B|80:109|17:122,2,95,2|8|0,0:0|0:0|0:0,0:0:0
226,56,120038,6,0,B|209:100|163:140,1,95,2|0,0:0|0:0,0:0:0
155,177,120425,2,0,B|164:226|194:263,1,95
220,286,120813,1,2,0:0:0
283,186,121072,1,0,0:0:0
369,350,121331,1,2,0:0:0
398,247,121589,2,0,B|406:194|378:146,1,95,8|0,0:0|0:0,0:0:0
474,58,122107,5,2,0:0:0
472,160,122365,1,0,0:0:0
491,209,122494,2,0,B|488:272|475:307,1,95
512,380,122882,2,0,B|475:347|424:337,1,95,2|0,0:0|0:0,0:0:0
253,351,123400,2,0,B|289:359|347:353,1,95,2|8,0:0|0:0,0:0:0
296,263,123917,1,0,0:0:0
194,272,124176,6,0,B|162:306|105:317,1,95,2|0,0:0|0:0,0:0:0
56,314,124564,1,0,0:0:0
72,126,124822,2,0,B|120:121,1,47.5,0|0,0:0|0:0,0:0:0
134,79,125081,2,0,B|178:92,1,47.5
299,46,125469,2,0,B|352:49|396:44,1,95,2|8,0:0|0:0,0:0:0
442,114,125857,2,0,B|396:100,1,47.5,2|2,0:0|0:0,0:0:0
353,139,126115,1,8,0:0:0
288,142,126244,6,0,B|243:164|184:161,1,95,4|0,0:0|0:0,0:0:0
142,155,126632,1,0,0:0:0
271,222,126891,1,0,0:0:0
215,220,127020,1,2,0:0:0
160,233,127150,1,0,0:0:0
109,254,127279,2,0,B|54:267|12:244,1,95,0|2,0:0|0:0,0:0:0
97,356,127796,1,8,0:0:0
299,348,128055,2,0,B|256:326,1,47.5
205,354,128314,6,0,B|256:365|298:347,1,95,2|0,0:0|0:0,0:0:0
348,327,128701,1,0,0:0:0
363,270,128831,2,0,B|399:306|451:310,1,95,8|2,0:0|0:0,0:0:0
456,115,129348,2,0,B|457:173|439:219,1,95,0|2,0:0|0:0,0:0:0
382,189,129736,2,0,B|381:215|395:244,1,47.5,0|10,0:0|0:0,0:0:0
326,36,130124,1,2,0:0:0
231,160,130382,5,2,0:0:0
322,132,130641,1,0,0:0:0
318,173,130770,2,0,B|297:223|256:246,1,95
138,198,131288,1,0,0:0:0
94,197,131417,2,0,B|43:191|2:213,1,95,0|2,0:0|0:0,0:0:0
105,329,131934,2,0,B|96:273|44:243,1,95,8|0,0:0|0:0,0:0:0
87,73,132451,5,2,0:0:0
198,98,132710,1,0,0:0:0
249,97,132839,2,0,B|294:96|341:127,1,95
280,236,133356,1,0,0:0:0
325,211,133486,2,0,B|366:192|418:194,1,95,0|2,0:0|0:0,0:0:0
385,304,134003,1,8,0:0:0
117,300,134391,1,8,0:0:0
156,337,134520,6,0,B|207:341|248:361,1,95,4|0,0:0|0:0,0:0:0
295,351,134908,1,0,0:0:0
233,254,135167,1,0,0:0:0
354,254,135425,1,0,0:0:0
397,214,135555,2,0,B|446:217|488:244,1,95,0|2,0:0|0:0,0:0:0
434,327,136072,1,8,0:0:0
489,118,136331,1,0,0:0:0
356,83,136589,6,0,B|305:79|264:59,1,95,2|0,0:0|0:0,0:0:0
247,100,136977,1,0,0:0:0
44,117,137236,2,0,B|92:115|135:140,1,95
143,196,137624,2,0,B|183:221|232:224,1,95,0|2,0:0|0:0,0:0:0
69,306,138141,2,0,B|123:311|168:286,1,95,8|0,0:0|0:0,0:0:0
5,218,138658,6,0,B|52:206|106:225,1,95,2|0,0:0|0:0,0:0:0
126,272,139046,2,0,B|162:311|208:322,1,95
316,324,139563,1,0,0:0:0
362,324,139693,2,0,B|413:320|460:335,1,95,0|2,0:0|0:0,0:0:0
440,215,140210,1,8,0:0:0
332,221,140469,2,0,B|377:237|412:276,1,95,0|2,0:0|0:0,0:0:0
220,227,140986,5,0,0:0:0
268,220,141115,2,0,B|314:200|351:163,1,95
489,217,141632,1,0,0:0:0
462,179,141762,2,0,B|438:135|442:83,1,95,0|2,0:0|0:0,0:0:0
312,73,142279,1,8,0:0:0
263,72,142408,2,0,B|214:95,1,47.5,2|0,0:0|0:0,0:0:0
165,85,142667,1,8,0:0:0
122,128,142796,6,0,B|96:179|52:198,1,95,4|0,0:0|0:0,0:0:0
59,62,143313,2,0,B|28:116|38:167|38:167|57:195,1,142.5,8|0,0:0|0:0,0:0:0
132,244,143831,2,0,B|90:275|26:281,1,95,0|2,0:0|0:0,0:0:0
36,384,144348,2,0,B|40:333|90:309,1,95,8|0,0:0|0:0,0:0:0
122,350,144736,1,0,0:0:0
175,348,144865,6,0,B|222:336|276:355,1,95,2|0,0:0|0:0,0:0:0
340,330,145253,2,0,B|289:318|260:280,1,95
345,230,145770,1,0,0:0:0
397,233,145900,2,0,B|448:229|495:244,1,95,0|2,0:0|0:0,0:0:0
359,125,146417,2,0,B|336:171|300:204,1,95,8|0,0:0|0:0,0:0:0
478,152,146934,6,0,B|449:109|438:61,1,95,2|0,0:0|0:0,0:0:0
401,32,147322,1,0,0:0:0
271,107,147581,1,0,0:0:0
109,69,147839,1,0,0:0:0
148,105,147969,2,0,B|136:156|184:198,1,95,0|2,0:0|0:0,0:0:0
10,170,148486,2,0,B|40:215|97:212,1,95,8|0,0:0|0:0,0:0:0
41,338,149003,6,0,B|87:326|120:288,1,95,2|0,0:0|0:0,0:0:0
174,291,149391,1,0,0:0:0
312,329,149650,2,0,B|348:277|385:261,1,95
428,245,150038,1,0,0:0:0
315,91,150296,1,2,0:0:0
227,144,150555,5,8,0:0:0
256,174,150684,1,2,0:0:0
295,188,150813,1,2,0:0:0
338,185,150943,1,8,0:0:0
376,169,151072,1,4,0:0:0
162,246,158313,6,0,B|209:284|300:272,2,142.5
256,192,159348,12,8,161934,0:0:0
156,219,162451,6,0,B|105:243|32:238,2,106.874996814877
204,75,163486,5,2,0:0:0
242,167,163744,1,0,0:0:0
153,158,164003,1,8,0:0:0
273,98,164262,5,2,0:0:0
376,175,164520,1,0,0:0:0
262,220,164779,1,2,0:0:0
396,104,165038,5,8,0:0:0
492,242,165296,1,0,0:0:0
326,259,165555,1,2,0:0:0
413,281,165813,1,0,0:0:0
201,341,166072,1,8,0:0:0
285,335,166330,1,0,0:0:0
145,248,166589,5,0,0:0:0
69,134,166848,1,2,0:0:0
28,217,167106,1,8,0:0:0
11,61,167365,1,0,0:0:0
156,121,167624,6,0,B|224:132|296:111|296:111|332:71,1,190,4|8,0:0|0:0,0:0:0
463,50,168400,2,0,B|415:75|400:129,1,95,2|0,0:0|0:0,0:0:0
305,224,168917,2,0,B|360:236|400:203,1,95,2|8,0:0|0:0,0:0:0
505,141,169434,1,0,0:0:0
468,283,169693,6,0,B|463:324|479:381,1,95,2|0,0:0|0:0,0:0:0
426,340,170081,2,0,B|369:329,1,47.5,0|8,0:0|0:0,0:0:0
241,351,170469,1,2,0:0:0
170,295,170727,2,0,B|113:292|66:320,1,95,0|2,0:0|0:0,0:0:0
30,267,171115,1,0,0:0:0
35,201,171244,2,0,B|62:241|118:263,1,95,8|0,0:0|0:0,0:0:0
202,201,171762,1,2,0:0:0
109,94,172020,6,0,B|92:84|63:90,1,47.5
134,35,172279,2,0,B|176:69|172:117,1,95,8|2,0:0|0:0,0:0:0
292,66,172796,2,0,B|281:118|239:147,1,95,0|2,0:0|0:0,0:0:0
385,213,173313,2,0,B|334:229|273:199,2,95,8|0|2,0:0|0:0|0:0,0:0:0
480,103,174348,6,0,B|453:69|399:59,1,95,8|2,0:0|0:0,0:0:0
422,172,174865,1,2,0:0:0
439,295,175124,1,2,0:0:0
323,252,175382,2,0,B|312:237|312:206,1,47.5,8|2,0:0|0:0,0:0:0
344,358,175770,2,0,B|312:366|279:357,1,47.5,0|6,0:0|0:0,0:0:0
176,215,176158,5,0,0:0:0
97,274,176417,2,0,B|134:307|188:305,1,95,8|2,0:0|0:0,0:0:0
171,162,176934,1,0,0:0:0
44,97,177193,2,0,B|43:150|77:189,1,95,2|8,0:0|0:0,0:0:0
208,116,177710,1,0,0:0:0
156,36,177969,5,2,0:0:0
324,95,178227,1,0,0:0:0
347,120,178356,1,0,0:0:0
385,132,178486,1,8,0:0:0
435,256,178744,1,2,0:0:0
340,220,179003,2,0,B|289:216|240:232,1,95,0|2,0:0|0:0,0:0:0
140,316,179520,1,8,0:0:0
184,304,179650,1,0,0:0:0
220,272,179779,1,0,0:0:0
252,304,179908,1,0,0:0:0
296,316,180038,1,2,0:0:0
417,329,180296,6,0,B|456:359,1,47.5
504,358,180555,1,8,0:0:0
480,242,180813,2,0,B|423:240|389:195|389:195|351:188,1,142.499995753169,2|2,0:0|0:0,0:0:0
412,116,181589,2,0,B|446:127|446:127|469:156,1,71.2499978765846,8|0,0:0|0:0,0:0:0
456,39,182106,5,2,0:0:0
336,164,182365,1,0,0:0:0
313,131,182495,1,0,0:0:0
278,112,182624,1,8,0:0:0
262,240,182882,1,2,0:0:0
178,114,183141,1,0,0:0:0
105,240,183400,1,2,0:0:0
177,191,183658,1,8,0:0:0
96,153,183917,1,0,0:0:0
96,153,184175,1,6,0:0:0
264,191,186244,6,0,B|301:156|351:144,1,95,0|2,0:0|0:0,0:0:0
392,32,186762,2,0,B|403:81|389:130,1,95,0|2,0:0|0:0,0:0:0
467,222,187279,1,0,0:0:0
467,222,187537,1,0,0:0:0
467,222,187796,2,0,B|418:207|382:170,1,95,2|0,0:0|0:0,0:0:0
248,193,188313,1,0,0:0:0
341,308,188831,6,0,B|295:296|247:302,1,95,0|2,0:0|0:0,0:0:0
248,193,189348,1,0,0:0:0
265,82,189606,2,0,B|217:88|160:73,1,95,0|2,0:0|0:0,0:0:0
16,194,190382,6,0,B|61:183|98:148,1,95,0|2,0:0|0:0,0:0:0
90,277,190900,2,0,B|78:227|90:182,1,95,0|2,0:0|0:0,0:0:0
171,264,191417,2,0,B|245:258|307:312,2,142.5,0|2|2,0:0|0:0|0:0,0:0:0
132,183,192451,1,2,0:0:0
276,240,192969,6,0,B|257:196|274:148,1,95,0|2,0:0|0:0,0:0:0
344,52,193486,2,0,B|363:117|345:194,2,142.5,2|2|0,0:0|0:0|0:0,0:0:0
500,105,194520,2,0,B|491:163|428:177,1,95,0|2,0:0|0:0,0:0:0
438,19,195038,2,0,B|425:69|435:119,1,95,0|2,0:0|0:0,0:0:0
468,227,195555,6,0,B|463:286|503:330|503:330|507:372,2,142.5,2|2|0,0:0|0:0|0:0,0:0:0
414,288,196589,5,2,0:0:0
246,358,196977,1,2,0:0:0
269,197,197365,1,0,0:0:0
310,281,197624,5,2,0:0:0
93,286,198012,1,2,0:0:0
204,114,198400,1,0,0:0:0
199,230,198658,1,2,0:0:0
166,252,199434,5,0,0:0:0
175,342,199693,2,0,B|119:344|84:303|84:303|44:304,2,142.5,2|2|0,0:0|0:0|0:0,0:0:0
266,305,200727,6,0,B|303:270|353:258,1,95,2|2,0:0|0:0,0:0:0
394,146,201245,2,0,B|405:195|391:244,1,95,0|2,0:0|0:0,0:0:0
469,336,201762,1,0,0:0:0
469,336,202020,1,0,0:0:0
469,336,202279,2,0,B|420:321|384:284,1,95,2|0,0:0|0:0,0:0:0
256,192,202796,12,0,204865,0:0:0
