osu file format v9

[General]
AudioFilename: Grenade.mp3
AudioLeadIn: 2000
PreviewTime: 68606
Countdown: 0
SampleSet: Soft
StackLeniency: 0.7
Mode: 0
LetterboxInBreaks: 1

[Editor]
DistanceSpacing: 0.95
BeatDivisor: 2
GridSize: 16

[Metadata]
Title:Grenade
Artist:GhostFinal
Creator:Pokie
Version:Standard
Source:
Tags:DarknessAngel Ghost

[Difficulty]
HPDrainRate:3
CircleSize:4
OverallDifficulty:4
ApproachRate:5
SliderMultiplier:1.12
SliderTickRate:2

[Events]
//Background and Video events
0,0,"BG.jpg"
//Break Periods
2,41051,52712
//Storyboard Layer 0 (Background)
//Storyboard Layer 1 (Fail)
//Storyboard Layer 2 (Pass)
//Storyboard Layer 3 (Foreground)
//Storyboard Sound Samples
//Background Colour Transformations
3,100,163,162,255

[TimingPoints]
35,408.163265306122,4,2,1,50,1,0
14728,-100,4,2,1,60,0,0
39218,-100,4,1,1,30,0,0
39320,-100,4,1,1,32,0,0
39422,-100,4,1,1,34,0,0
39524,-100,4,1,1,37,0,0
39626,-100,4,1,1,39,0,0
39728,-100,4,1,1,41,0,0
39830,-100,4,1,1,43,0,0
39932,-100,4,1,1,45,0,0
40034,-100,4,1,1,47,0,0
40136,-100,4,1,1,50,0,0
40238,-100,4,1,1,52,0,0
40340,-100,4,1,1,54,0,0
40442,-100,4,1,1,56,0,0
40544,-100,4,1,1,58,0,0
40646,-100,4,1,1,61,0,0
40748,-100,4,1,1,63,0,0
40851,-100,4,1,1,65,0,0
53912,-100,4,1,1,30,0,0
54320,-100,4,1,1,35,0,0
54728,-100,4,1,1,40,0,0
55137,-100,4,1,1,45,0,0
56157,-100,4,2,1,45,0,0
57177,-100,4,2,1,40,0,0
57790,-100,4,2,1,45,0,0
58810,-100,4,2,1,40,0,0
59422,-100,4,2,1,45,0,0
60443,-100,4,2,1,40,0,0
61055,-100,4,2,1,45,0,0
62075,-100,4,2,2,55,0,0
66973,-100,4,2,1,65,0,0
68606,-100,4,2,1,65,0,1
87790,-100,4,1,1,65,0,1
87892,-100,4,2,1,65,0,1
88606,-100,4,2,2,65,0,1
91259,-100,4,2,1,65,0,1
94728,-100,4,2,1,65,0,0
96361,-133.333333333333,4,2,1,55,0,0
96463,-133.333333333333,4,2,2,55,0,0
102892,-133.333333333333,4,2,1,55,0,0
102994,-133.333333333333,4,2,2,55,0,0
104524,-133.333333333333,4,2,1,55,0,0
104626,-133.333333333333,4,2,2,55,0,0
105953,-133.333333333333,4,2,1,55,0,0
109218,-100,4,2,1,65,0,0
109422,-100,4,2,2,65,0,1
110239,-100,4,2,1,65,0,1
119014,-100,4,2,1,45,0,1
119218,-100,4,2,1,65,0,1
122075,-133.333333333333,4,2,1,65,0,0
122177,-133.333333333333,4,2,1,50,0,0
122483,-100,4,2,2,65,0,1
122586,-100,4,2,1,65,0,1
134932,-100,4,1,1,5,0,1
135137,-100,4,1,1,65,0,1
135188,-100,4,1,1,5,0,1
135239,-100,4,1,1,65,0,1
135290,-100,4,1,1,5,0,1
135341,-100,4,1,1,65,0,1
135392,-100,4,1,1,5,0,1
135443,-100,4,1,1,65,0,1
135494,-100,4,1,1,5,0,1
135545,-100,4,2,2,65,0,0
160034,-133.333333333333,4,2,2,55,0,0
161667,-133.333333333333,4,2,1,48,0,0

[Colours]
Combo1 : 255,128,64
Combo2 : 0,128,255
Combo3 : 12,235,101
Combo4 : 255,0,128

[HitObjects]
160,112,1667,1,4
352,128,2483,1,8
240,288,3300,1,8
175,217,3708,6,0,B|114:230,2,56,8|0|0
269,202,4524,1,8
327,277,4932,1,8
447,129,5749,1,8
260,92,6565,1,8
206,171,6973,2,0,B|225:231,2,56,8|0|0
171,82,7790,1,8
112,157,8198,6,0,B|79:210|98:266,2,112,4|8|0
180,223,9422,1,8
400,227,10239,2,0,B|433:174|414:118,2,112,8|0|8
332,161,11463,5,8
255,104,11871,1,8
177,159,12279,1,0
255,213,12688,1,8
445,336,13504,1,8
254,337,14320,1,8
158,340,14728,6,0,B|135:227,1,112,4|8
156,137,15545,2,0,B|211:143|211:143|269:114,1,112,0|8
359,280,16769,2,0,B|304:274|304:274|246:303,2,112,8|0|8
442,326,17994,6,0,B|465:213,1,112,0|8
429,127,18811,2,0,B|374:133|374:133|316:104,1,112,0|8
83,257,20034,2,0,B|138:251|138:251|196:280,2,112,8|0|8
54,166,21259,6,0,B|176:158,1,112,4|8
243,104,22075,2,0,B|267:157|267:157|245:213,1,112,0|8
423,135,23300,2,0,B|399:82|399:82|421:26,2,112,8|0|8
494,197,24524,6,0,B|451:316,1,112,0|8
376,355,25341,2,0,B|352:302|352:302|374:246,1,112,0|8
255,41,26565,2,0,B|279:94|279:94|257:150,2,112,8|0|8
176,95,27790,6,0,B|51:105,1,112,4|8
0,175,28606,1,0
64,244,29014,1,8
244,184,29830,2,0,B|369:174,1,112,8|0
434,228,30647,1,8
388,311,31055,6,0,B|276:319,1,112,0|8
192,275,31871,1,0
274,228,32279,1,8
183,60,33096,2,0,B|71:68,1,112,8|0
25,152,33912,1,8
63,239,34320,6,0,B|121:251|180:223,3,112,0|8|0|8
359,188,36361,1,8
321,100,36769,1,0
415,111,37177,1,8
359,188,37586,6,0,B|410:212|468:200,3,112,0|8|0|8
256,192,39218,12,0,40851
256,192,53912,12,4,55545
98,150,56361,6,8,B|90:207|100:262,2,112
414,234,57994,2,8,B|422:177|412:122,2,112
192,164,59626,6,8,B|184:107|194:52,2,112
320,220,61259,2,8,B|328:277|318:332,2,112,8|8|12
389,154,62483,1,8
309,101,62892,6,0,B|191:110,2,112,0|8|0
291,194,64116,1,8
322,283,64524,2,0,B|204:292,2,112,0|8|0
403,232,65749,1,8
343,158,66157,2,0,B|225:167,2,112,0|8|0
384,72,67381,5,8
290,52,67790,1,0
199,79,68198,1,0
109,47,68606,2,0,B|50:84|69:147,1,112,4|2
110,226,69422,5,8
185,168,69830,1,2
256,256,70239,1,0
316,169,70647,1,2
385,233,71055,2,0,B|434:194|416:124,1,112,8|2
363,54,71871,6,0,B|254:71,1,112,0|2
179,133,72688,1,8
265,173,73096,1,2
287,265,73504,1,0
224,336,73912,1,2
128,336,74320,2,0,B|72:298|93:238,1,112,8|2
57,150,75137,6,0,B|170:159,1,112,4|2
212,74,75953,1,8
300,108,76361,1,2
219,183,76769,1,0
308,214,77177,1,2
232,290,77586,2,0,B|270:334|336:318,1,112,8|2
425,293,78402,6,0,B|416:174,1,112,0|2
467,100,79218,1,8
377,67,79626,1,2
296,117,80034,1,0
310,211,80443,1,2
244,280,80851,6,0,B|182:262|122:274,1,112,8|2
46,233,81667,1,4
119,172,82075,6,0,B|74:132,2,56,2|0|8
213,186,82892,1,2
185,94,83300,1,0
277,116,83708,2,0,B|318:153,2,56,2|0|8
185,94,84524,1,2
130,172,84932,6,0,B|88:214|118:291,1,112,0|2
147,310,85545,2,0,B|206:318,1,56,0|8
294,292,86157,1,2
225,226,86565,1,0
307,179,86973,2,0,B|364:170,2,56,2|0|8
236,114,87790,5,0
307,51,88198,2,0,B|362:78|427:54,3,112,4|2|8|2
467,137,89830,2,0,B|440:192|464:257,3,112,12|2|8|2
386,306,91463,6,0,B|331:279|266:303,1,112,4|2
226,218,92279,2,0,B|253:163|229:98,1,112,8|2
146,67,93096,1,8
32,219,93912,1,8
221,237,94728,1,4
442,56,96361,6,0,B|458:149,3,83.999997496605,4|2|8|2
368,133,97994,2,0,B|374:227,3,83.999997496605,0|2|8|2
276,270,99626,6,0,B|282:175,3,83.999997496605,0|2|8|2
194,202,101259,2,0,B|190:107,3,83.999997496605,0|2|8|2
127,56,102892,6,0,B|82:68|29:59,1,83.999997496605,4|2
20,146,103708,1,8
20,146,104116,1,2
70,218,104524,6,0,B|115:230|168:221,1,83.999997496605,4|2
149,311,105341,2,0,B|195:314|245:295,1,83.999997496605,12|2
304,250,106157,6,0,B|319:162,1,83.999997496605,4|4
399,202,106973,2,0,B|414:114,1,83.999997496605,4|4
256,192,107790,12,12,109422
200,271,110239,5,8
163,171,110647,2,0,B|218:173|286:180,1,112,8|0
371,134,111463,2,0,B|369:189|362:257,2,112,8|8|8
457,71,112688,6,0,B|480:194|442:298,1,224,2|8
340,315,113912,1,8
239,279,114320,2,0,B|216:156|254:52,1,224,2|8
146,43,115545,1,8
49,87,115953,6,0,B|68:146|41:199,1,112,4|8
115,273,116769,1,2
115,273,117177,1,8
214,234,117586,6,0,B|195:175|222:122,1,112,4|8
313,73,118402,1,2
313,73,118810,2,0,B|382:88,1,56,8|0
417,67,119218,6,0,B|436:125|410:175,1,112,12|8
312,217,120034,2,0,B|187:204,1,112,2|8
241,303,120851,2,0,B|130:292,1,112,2|8
44,228,121667,6,0,B|25:170|51:120,1,112,12|8
132,50,122483,2,0,B|254:61,2,112,4|8|8
144,155,123708,1,8
208,239,124116,6,0,B|86:250,2,112,0|8|8
196,344,125341,1,8
285,286,125749,6,0,B|238:180|285:68,1,224,2|8
377,120,126973,1,8
467,64,127381,2,0,B|514:170|467:282,1,224,2|8
390,332,128606,1,8
298,277,129014,6,0,B|208:260|124:290,1,168,4|2
99,245,129830,2,0,B|101:134,1,112,8|8
182,64,130647,6,0,B|272:81|356:51,1,168,4|2
390,86,131463,2,0,B|389:159,2,56,4|0|8
311,157,132279,2,0,B|251:143|187:156,2,112,4|8|4
256,192,133504,12,4,135545
173,163,136361,5,2
248,88,136769,1,2
282,188,137177,2,0,B|319:238|310:304,1,112,0|2
410,331,137994,1,8
441,229,138402,2,0,B|454:172,2,56,2|2|8
358,161,139218,5,2
253,179,139626,1,8
148,159,140034,1,2
253,179,140443,5,8
299,83,140851,1,2
400,114,141259,1,8
354,209,141667,2,0,B|422:211,2,56,2|0|12
253,179,142483,6,0,B|232:232|236:288,1,112,2|8
133,319,143300,1,2
127,212,143708,2,0,B|148:159|144:103,1,112,8|2
230,39,144524,1,8
261,140,144932,2,0,B|266:200,2,56,2|2|8
335,64,145749,5,2
369,164,146157,1,8
341,266,146565,1,2
238,294,146973,5,8
223,188,147381,1,2
141,286,147790,1,8
125,178,148198,1,2
33,232,148606,6,0,B|13:179|34:118,2,112,12|2|8
95,318,149830,1,2
144,223,150239,1,8
202,311,150647,1,2
258,221,151055,2,0,B|267:168|251:106,1,112,8|2
345,58,151871,6,0,B|336:111|352:173,2,112,8|2|8
443,98,153096,1,2
511,179,153504,1,8
427,245,153912,1,2
483,335,154320,2,0,B|423:327|366:341,1,112,8|2
280,283,155137,5,12
150,113,155953,1,8
361,93,156769,1,4
280,283,157586,1,4
150,113,158402,1,8
217,195,158810,5,4
261,98,159218,1,12
322,184,159626,1,12
256,192,160034,12,4,161667
