osu file format v9

[General]
AudioFilename: Grenade.mp3
AudioLeadIn: 2000
PreviewTime: 68606
Countdown: 0
SampleSet: Soft
StackLeniency: 0.7
Mode: 0
LetterboxInBreaks: 1

[Editor]
DistanceSpacing: 1.04
BeatDivisor: 4
GridSize: 16

[Metadata]
Title:Grenade
Artist:GhostFinal
Creator:Pokie
Version:Another
Source:
Tags:DarknessAngel Ghost

[Difficulty]
HPDrainRate:6
CircleSize:5
OverallDifficulty:7
ApproachRate:8
SliderMultiplier:1.76
SliderTickRate:2

[Events]
//Background and Video events
0,0,"BG.jpg"
//Break Periods
2,41051,53162
//Storyboard Layer 0 (Background)
//Storyboard Layer 1 (Fail)
//Storyboard Layer 2 (Pass)
//Storyboard Layer 3 (Foreground)
//Storyboard Sound Samples
//Background Colour Transformations
3,100,163,162,255

[TimingPoints]
35,408.163265306122,4,1,1,50,1,0
1259,-100,4,2,1,50,0,0
14320,-133.333333333333,4,2,1,50,0,0
14422,-133.333333333333,4,1,1,5,0,0
14728,-133.333333333333,4,2,1,60,0,0
39218,-100,4,1,1,30,0,0
39320,-100,4,1,1,32,0,0
39422,-100,4,1,1,34,0,0
39524,-100,4,1,1,37,0,0
39626,-100,4,1,1,39,0,0
39728,-100,4,1,1,41,0,0
39830,-100,4,1,1,43,0,0
39932,-100,4,1,1,45,0,0
40034,-100,4,1,1,47,0,0
40136,-100,4,1,1,50,0,0
40238,-100,4,1,1,52,0,0
40340,-100,4,1,1,54,0,0
40442,-100,4,1,1,56,0,0
40544,-100,4,1,1,58,0,0
40646,-100,4,1,1,61,0,0
40748,-100,4,1,1,63,0,0
40851,-100,4,1,1,65,0,0
53912,-100,4,1,1,30,0,0
54320,-100,4,1,1,35,0,0
54728,-100,4,1,1,40,0,0
55137,-100,4,1,1,45,0,0
55953,-100,4,2,1,40,0,0
56157,-100,4,2,1,45,0,0
57177,-100,4,2,1,40,0,0
57381,-100,4,2,1,45,0,0
57586,-100,4,2,1,40,0,0
57790,-100,4,2,1,45,0,0
58810,-100,4,2,1,40,0,0
59116,-100,4,2,1,45,0,0
59218,-100,4,2,1,40,0,0
59422,-100,4,2,1,45,0,0
60443,-100,4,2,1,40,0,0
60749,-100,4,2,1,45,0,0
60851,-100,4,2,1,40,0,0
61055,-100,4,2,1,45,0,0
62075,-100,4,2,2,55,0,0
66973,-100,4,2,1,65,0,0
68606,-100,4,2,1,65,0,1
83708,-100,4,1,1,65,0,1
83810,-100,4,2,1,65,0,1
84524,-100,4,1,1,65,0,1
84626,-100,4,2,1,65,0,1
86973,-100,4,1,1,65,0,1
87075,-100,4,2,1,65,0,1
87381,-100,4,1,1,65,0,1
87586,-100,4,2,1,65,0,1
87790,-100,4,1,1,65,0,1
87892,-100,4,2,1,65,0,1
87994,-100,4,1,1,65,0,1
88096,-100,4,2,1,65,0,1
88606,-100,4,2,2,65,0,1
94728,-100,4,2,1,65,0,0
94830,-100,4,2,1,20,0,0
95851,-100,4,1,1,55,0,0
96361,-133.333333333333,4,2,1,55,0,0
96463,-133.333333333333,4,2,2,55,0,0
102892,-133.333333333333,4,2,1,55,0,0
102994,-133.333333333333,4,2,2,55,0,0
104524,-133.333333333333,4,2,1,55,0,0
104626,-133.333333333333,4,2,2,55,0,0
105953,-133.333333333333,4,2,1,55,0,0
109218,-100,4,2,1,65,0,0
109422,-100,4,2,2,65,0,1
110239,-100,4,2,1,65,0,1
119014,-100,4,2,1,45,0,1
119218,-100,4,2,1,65,0,1
122075,-133.333333333333,4,2,1,65,0,0
122177,-133.333333333333,4,2,1,50,0,0
122483,-100,4,2,2,65,0,1
122586,-100,4,2,1,65,0,1
134932,-100,4,1,1,5,0,1
135137,-100,4,1,1,65,0,1
135188,-100,4,1,1,5,0,1
135239,-100,4,1,1,65,0,1
135290,-100,4,1,1,5,0,1
135341,-100,4,1,1,65,0,1
135392,-100,4,1,1,5,0,1
135443,-100,4,1,1,65,0,1
135494,-100,4,1,1,5,0,1
135545,-133.333333333333,4,2,2,65,0,0
147790,-133.333333333333,4,2,1,65,0,0
148606,-133.333333333333,4,2,2,65,0,0
160137,-133.333333333333,4,2,2,55,0,0
161667,-133.333333333333,4,2,1,48,0,0
161871,-181.818181818181,4,2,2,45,0,0
174728,-181.818181818181,4,2,1,40,0,1
174830,-181.818181818181,4,2,1,40,0,0
187892,-181.818181818181,4,2,1,5,0,0

[Colours]
Combo1 : 255,128,64
Combo2 : 0,128,255
Combo3 : 12,235,101
Combo4 : 255,0,128

[HitObjects]
70,165,1157,5,0
88,195,1259,2,8,B|132:210|176:195,1,88,8|8
257,38,1667,5,4
437,74,2075,1,8
256,160,2483,2,0,B|320:176|400:144,1,132
385,149,2892,2,0,B|368:240,1,88,8|0
248,276,3300,5,0
76,172,3708,1,8
256,160,4116,1,0
304,224,4320,1,0
304,224,4422,1,0
304,224,4524,1,8
256,160,4728,1,0
280,88,4932,5,0
308,304,5341,1,8
352,48,5749,2,0,B|288:64|208:32,1,132
222,37,6157,2,0,B|239:127,1,88,8|0
256,208,6565,5,0
84,228,6973,1,8
152,52,7381,1,0
96,112,7586,1,0
96,112,7688,1,0
96,112,7790,1,8
208,164,7994,1,0
128,176,8198,5,4
368,160,8606,1,8
128,176,9014,1,0
256,312,9422,5,8
256,224,9626,1,0
256,136,9830,1,0
101,96,10239,1,8
400,88,10647,1,0
256,320,11055,5,8
256,232,11259,1,0
256,144,11463,1,0
101,96,11871,1,8
400,88,12279,1,0
256,328,12688,5,8
256,240,12892,1,0
256,152,13096,1,0
101,96,13504,1,8
400,88,13912,1,0
256,160,14116,5,0
256,160,14218,1,0
256,160,14320,2,0,B|252:136|252:136|264:112|264:112|256:48,1,98.9999970495702,10|0
268,40,14728,6,0,B|200:52,1,65.9999980330468,4|2
72,32,15137,2,0,B|140:20,1,65.9999980330468,8|0
352,104,15545,6,0,B|420:92,1,65.9999980330468,0|2
368,176,15953,2,0,B|436:164,1,65.9999980330468,8|0
288,168,16361,6,0,B|220:156,1,65.9999980330468,0|2
272,240,16769,2,0,B|204:228,1,65.9999980330468,8|0
96,304,17177,6,0,B|164:292,1,65.9999980330468,0|2
112,376,17586,2,0,B|180:364,1,65.9999980330468,8|0
208,356,17892,1,0
240,348,17994,6,0,B|308:336,1,65.9999980330468,0|2
436,356,18402,2,0,B|368:368,1,65.9999980330468,8|0
160,280,18810,6,0,B|92:292,1,65.9999980330468,0|2
144,208,19218,2,0,B|76:220,1,65.9999980330468,8|0
224,216,19626,6,0,B|292:228,1,65.9999980330468,0|2
240,144,20035,2,0,B|308:156,1,65.9999980330468,8|0
416,80,20443,6,0,B|348:92,1,65.9999980330468,0|2
400,8,20851,2,0,B|332:20,1,65.9999980330468,8|0
304,28,21157,1,0
268,36,21259,6,0,B|288:104,1,65.9999980330468,4|2
372,208,21667,2,0,B|353:144,1,65.9999980330468,8|0
160,104,22075,6,0,B|141:40,1,65.9999980330468,0|2
92,136,22483,2,0,B|73:72,1,65.9999980330468,8|0
212,176,22892,6,0,B|230:239,1,65.9999980330468,0|2
280,144,23300,2,0,B|298:207,1,65.9999980330468,8|0
444,308,23708,6,0,B|425:244,1,65.9999980330468,0|2
376,340,24116,2,0,B|357:276,1,65.9999980330468,8|0
328,260,24422,1,0
336,228,24524,6,0,B|348:164,1,65.9999980330468,0|2
420,40,24932,2,0,B|408:104,1,65.9999980330468,8|0
156,264,25341,6,0,B|137:328,1,65.9999980330468,0|2
88,232,25749,2,0,B|69:296,1,65.9999980330468,8|0
208,192,26157,6,0,B|226:129,1,65.9999980330468,0|2
276,224,26565,2,0,B|294:161,1,65.9999980330468,8|0
440,60,26973,6,0,B|421:124,1,65.9999980330468,0|2
372,28,27381,2,0,B|353:92,1,65.9999980330468,8|0
344,124,27688,1,0
334,156,27790,1,4
256,68,27994,6,8,B|176:76,1,65.9999980330468,2|8
137,194,28402,1,2
181,265,28606,2,0,B|254:258,1,65.9999980330468,0|2
326,233,29014,2,0,B|334:309,1,65.9999980330468,8|2
332,298,29320,1,0
332,298,29422,1,0
427,194,29626,5,2
373,129,29830,2,0,B|366:60,1,65.9999980330468,8|0
264,168,30239,1,0
182,146,30443,1,2
159,226,30647,2,0,B|166:295,1,65.9999980330468,8|2
24,230,31055,6,0,B|17:164,1,65.9999980330468,0|2
136,63,31463,1,8
200,116,31667,2,0,B|206:181,1,65.9999980330468,2|0
253,251,32075,1,2
318,198,32279,2,0,B|400:190,1,65.9999980330468,8|2
383,191,32586,1,0
383,191,32688,1,0
424,60,32892,5,2
344,36,33096,2,0,B|278:42,1,65.9999980330468,8|0
164,112,33504,1,0
224,172,33708,1,2
176,240,33912,2,0,B|110:246,1,65.9999980330468,8|2
110,245,34218,1,0
110,245,34320,1,4
92,328,34524,5,0
172,356,34728,2,0,B|248:352,1,65.9999980330468,8|0
376,264,35137,2,0,B|310:267,1,65.9999980330468,0|2
256,204,35545,1,8
328,112,35749,5,2
328,112,35851,1,0
328,112,35953,2,0,B|336:32,1,65.9999980330468,0|2
416,36,36361,1,8
476,136,36565,2,0,B|469:201,1,65.9999980330468,0|0
388,216,36973,1,2
308,236,37177,2,0,B|324:312,1,65.9999980330468,8|2
204,236,37586,6,0,B|188:312,1,65.9999980330468,0|2
124,216,37994,1,8
120,132,38198,1,2
376,112,38606,1,2
120,132,39014,1,2
195,66,39218,5,0
205,93,39320,1,0
228,110,39422,1,0
255,121,39524,1,0
284,123,39626,5,0
265,145,39728,1,0
253,172,39830,1,0
250,201,39932,1,0
254,230,40034,5,0
267,256,40137,1,0
287,277,40239,1,0
313,289,40341,1,0
342,287,40443,2,0,B|395:279,4,44,0|0|0|0|4
256,192,53912,12,0,55341
256,192,55545,5,4
166,49,55953,2,0,B|78:44,1,88,8|2
166,49,56565,5,2
334,36,56973,1,2
256,140,57177,1,8
335,168,57381,1,2
335,168,57483,1,0
335,168,57586,1,8
412,68,57790,5,2
80,96,58198,1,2
280,364,58606,1,2
269,248,58810,2,0,B|280:144,1,88,8|0
284,112,59116,2,0,B|334:106,1,44,0|8
284,112,59422,5,2
400,212,59830,1,2
303,329,60239,1,2
184,224,60443,1,8
294,221,60647,5,0
294,221,60749,1,0
294,221,60851,1,8
184,223,61055,1,2
231,153,61259,1,8
112,153,61463,1,8
112,153,61565,1,0
112,153,61667,1,8
231,153,61871,1,0
292,64,62075,5,4
358,115,62279,1,2
438,90,62483,1,8
340,228,62688,5,2
340,228,62790,2,0,B|398:226|398:226|432:246|432:246|460:222,1,132,0|2
320,308,63300,1,8
244,196,63504,5,2
239,176,63606,1,0
234,156,63708,1,0
192,272,63912,1,2
263,72,64116,1,8
158,116,64320,5,2
158,116,64422,2,0,B|100:114|100:114|66:134|66:134|38:110,1,132,0|2
192,41,64932,1,8
290,173,65137,5,2
295,153,65239,1,0
300,133,65341,1,0
236,247,65545,1,2
370,78,65749,1,8
191,159,65953,5,2
398,166,66157,1,0
244,72,66361,5,2
349,254,66565,1,8
342,273,66667,1,2
335,292,66769,1,0
326,310,66871,1,2
316,328,66973,6,0,B|263:334,3,44,4|0|2|0
175,275,67381,6,0,B|228:281,3,44,8|0|2|2
308,197,67790,6,0,B|264:201,2,44,4|0|0
324,172,68045,2,0,B|360:169,2,22,0|8|2
319,141,68198,6,0,B|307:88,1,44,8|2
196,87,68402,2,0,B|208:34,1,44,8|0
210,24,68606,1,4
37,173,69014,1,8
109,150,69218,1,0
109,150,69320,1,2
160,310,69524,2,0,B|205:298,1,44,0|2
239,290,69728,5,0
239,290,69830,2,0,B|255:248|230:206,1,88,8|2
272,108,70239,1,0
320,320,70647,1,8
396,333,70851,1,0
396,333,70953,1,2
456,188,71157,2,2,B|408:179,1,44
389,114,71361,1,2
389,114,71463,2,0,B|344:106,1,44,8|0
316,130,71667,5,2
316,130,71769,1,0
316,130,71871,2,0,B|285:158|292:217,1,88,0|2
224,348,72279,1,8
165,236,72483,2,0,B|175:178,1,44,0|2
103,91,72790,2,0,B|148:128,1,44,0|2
174,114,72994,5,2
174,114,73096,2,0,B|217:133|260:116,1,88,8|2
348,136,73504,1,0
300,215,73708,2,0,B|336:248,1,44,0|2
358,367,74014,2,0,B|368:319,1,44,0|2
463,237,74320,2,0,B|416:251,1,44,2|0
165,262,74626,2,0,B|113:274,1,44,0|10
108,263,74830,5,2
94,254,74932,1,0
79,246,75034,1,2
65,237,75137,2,0,B|46:194|68:144,1,88,4|2
145,47,75545,1,8
192,107,75749,1,0
192,107,75851,1,2
308,60,76055,2,0,B|356:52,1,44,0|2
388,44,76259,5,2
388,44,76361,2,0,B|407:87|385:137,1,88,8|0
441,167,76667,2,0,B|430:212,1,44,2|0
386,342,76973,1,0
386,342,77075,1,2
234,309,77279,1,0
234,309,77381,1,2
256,185,77586,1,0
256,185,77688,2,0,B|208:195,1,44,2|2
148,176,77892,1,2
148,176,77994,2,0,B|99:184,1,44,8|2
69,169,78198,5,0
69,169,78300,1,2
69,169,78402,2,0,B|45:130|59:80,1,88,0|2
161,32,78810,1,8
219,79,79014,2,0,B|236:121,1,44,0|2
276,312,79320,2,0,B|259:271,1,44,0|2
256,192,79626,1,8
256,192,79830,5,2
256,192,79932,1,0
256,192,80034,1,4
317,99,80239,2,8,B|364:106,1,44,0|8
195,285,80545,2,0,B|148:278,1,44,0|8
367,198,80851,2,0,B|384:242,1,44,0|8
144,185,81157,2,0,B|127:141,1,44,0|10
306,291,81463,6,0,B|276:328,1,44,2|0
253,354,81667,1,4
206,93,81871,5,2
218,77,81973,1,0
232,63,82075,2,0,B|262:26,1,44,8|0
420,51,82381,1,2
420,51,82483,1,0
420,51,82586,2,8,B|459:115|404:179,1,132,2|8
331,100,83096,5,2
186,143,83300,1,4
168,153,83402,1,2
153,166,83504,1,0
144,184,83606,1,2
141,204,83708,1,0
144,224,83810,1,2
153,241,83912,1,0
164,257,84014,1,2
180,268,84116,6,0,B|223:266,3,44,0|0|2|2
250,237,84524,2,0,B|293:235,3,44,0|2|0|0
322,248,84932,5,4
458,190,85137,1,2
458,190,85239,1,0
458,190,85341,2,0,B|447:141,1,44,8|0
288,76,85647,1,2
288,76,85749,1,0
288,76,85851,2,0,B|296:124,1,44,2|0
216,272,86157,1,8
256,192,86361,5,2
234,180,86463,1,0
209,178,86565,1,4
185,185,86667,1,2
162,195,86769,1,0
148,215,86871,1,2
136,237,86973,5,0
102,233,87075,1,2
76,210,87177,1,0
67,177,87279,1,2
75,144,87381,6,0,B|86:96,3,44,0|0|2|2
114,92,87790,2,0,B|125:44,3,44,0|2|0|0
161,24,88198,5,4
372,101,88606,1,8
182,198,89014,1,0
227,101,89218,5,2
227,101,89320,1,2
227,101,89422,1,8
287,243,89626,1,0
145,305,89830,1,0
92,159,90239,5,8
400,186,90647,1,0
181,107,90851,1,2
181,107,90953,1,2
181,107,91055,2,0,B|208:140|215:191,1,88,8|2
310,284,91463,1,0
331,107,91871,6,0,B|304:140|297:191,1,88,8|2
202,284,92279,1,0
320,364,92483,1,2
320,364,92586,1,0
320,364,92688,1,8
202,284,92892,1,2
313,189,93096,1,0
241,116,93300,5,2
241,116,93402,1,0
241,116,93504,1,8
336,32,93708,1,2
424,124,93912,1,0
328,208,94116,5,10
328,208,94218,1,0
328,208,94320,1,8
328,208,94422,1,0
328,208,94524,1,0
328,208,94626,1,2
328,208,94728,1,4
256,192,94830,12,0,95851
204,108,95953,5,0
308,266,96157,1,0
204,108,96361,2,0,B|144:126|144:126|100:118,1,98.9999970495702,4|2
108,120,96769,2,0,B|87:184|87:184|103:224,1,98.9999970495702,8|0
99,214,97177,2,0,B|204:241,1,98.9999970495702,8|2
317,238,97586,6,0,B|413:214,1,98.9999970495702,8|2
413,213,97994,2,0,B|425:184|425:184|404:120,1,98.9999970495702,8|0
404,119,98402,2,0,B|368:125|368:125|308:107,1,98.9999970495702,8|2
112,176,98810,6,0,B|147:169|147:169|207:187,1,98.9999970495702,8|2
352,304,99218,2,0,B|316:310|316:310|256:292,1,98.9999970495702,8|2
160,288,99626,6,0,B|64:304,1,98.9999970495702,8|0
64,128,100034,2,0,B|160:144,1,98.9999970495702,8|0
352,288,100443,6,0,B|448:304,1,98.9999970495702,8|0
448,128,100851,2,0,B|352:144,1,98.9999970495702,8|0
350,144,101259,6,0,B|294:131|294:131|282:71,1,98.9999970495702,8|2
162,240,101667,2,0,B|218:253|218:253|230:313,1,98.9999970495702,8|2
257,353,102075,1,8
256,192,102279,5,0
256,192,102381,1,0
256,192,102483,1,8
256,36,102688,1,10
257,112,102892,6,0,B|301:136|301:136|353:128,1,98.9999970495702,4|2
454,70,103300,2,0,B|410:46|410:46|358:54,1,98.9999970495702,8|2
256,256,103708,2,0,B|212:280|212:280|160:272,1,98.9999970495702,8|2
60,212,104116,2,0,B|104:188|104:188|156:196,1,98.9999970495702,8|2
180,200,104524,5,4
340,284,104728,2,0,B|352:248|336:208,1,65.9999980330468,2|8
192,28,105137,1,2
192,28,105239,1,0
192,28,105341,2,0,B|180:64|196:104,1,65.9999980330468,12|2
256,192,105749,1,8
336,136,105953,6,0,B|376:128,1,32.9999990165234,0|8
392,144,106157,1,4
264,289,106361,6,0,B|251:327,1,32.9999990165234,0|8
229,333,106565,1,4
167,150,106769,6,0,B|140:120,1,32.9999990165234,0|8
146,98,106973,1,4
256,192,107177,5,0
256,192,107279,1,0
256,192,107381,2,0,B|244:232,1,32.9999990165234,8|0
264,290,107586,2,0,B|252:330|272:358,1,65.9999980330468,2|4
256,192,107892,12,0,109014
256,100,109218,6,2,B|256:72,3,22
256,140,109422,1,4
255,164,109524,1,0
245,186,109626,1,0
226,202,109728,1,0
202,207,109830,1,8
177,206,109932,1,0
154,196,110034,1,0
138,176,110137,1,0
128,153,110239,6,0,B|78:160,1,44,2|0
70,179,110443,2,0,B|20:186,1,44,2|0
109,241,110647,2,0,B|59:248,1,44,10|0
51,267,110851,2,0,B|1:274,1,44,2|0
14,345,111055,5,2
38,342,111157,1,0
62,339,111259,1,8
86,336,111361,1,0
110,333,111463,1,8
134,330,111565,1,0
158,327,111667,1,0
182,323,111769,1,2
206,319,111871,6,0,B|217:272,1,44,4|0
239,269,112075,2,0,B|250:222,1,44,2|0
326,207,112279,2,0,B|315:160,1,44,10|0
293,157,112483,2,0,B|282:110,1,44,2|0
294,91,112688,5,0
312,63,112790,1,0
341,47,112892,1,2
374,45,112994,1,0
406,52,113096,1,8
432,72,113198,1,0
445,102,113300,1,2
451,134,113402,1,0
422,175,113504,5,8
397,175,113606,1,0
372,175,113708,1,8
347,175,113810,1,0
322,175,113912,1,8
297,175,114014,1,0
271,175,114116,2,0,B|253:216,1,44,2|0
240,248,114320,5,4
215,248,114422,1,0
190,248,114524,1,2
165,248,114626,1,0
140,248,114728,1,8
115,248,114830,1,0
90,248,114932,1,2
65,248,115034,1,0
45,232,115137,5,2
32,200,115239,1,0
40,167,115341,1,8
63,143,115443,1,2
86,119,115545,1,8
93,86,115647,1,0
79,55,115749,2,2,B|63:27,4,22,2|2|2|2|4
145,155,116157,5,0
145,155,116259,1,8
256,73,116463,1,2
256,73,116565,1,8
366,155,116769,1,2
366,155,116871,1,8
320,288,117075,1,8
320,288,117177,1,2
191,292,117381,1,8
256,192,117586,5,4
344,44,117790,1,0
344,44,117892,1,8
168,44,118096,1,2
168,44,118198,1,8
96,208,118402,1,2
96,208,118504,1,8
256,344,118708,1,2
256,344,118810,1,8
416,208,119014,1,4
256,192,119218,5,4
88,104,119422,1,8
88,104,119524,1,2
168,360,119728,1,8
168,360,119830,1,8
424,280,120034,1,8
424,280,120137,1,2
344,24,120341,1,8
344,24,120443,1,2
256,192,120647,1,2
256,192,120851,5,4
148,192,121055,1,0
144,225,121157,1,2
154,256,121259,1,8
177,279,121361,1,2
207,292,121463,1,0
364,192,121667,5,8
368,159,121769,1,2
358,128,121871,1,8
335,105,121973,1,2
305,92,122075,6,0,B|238:92,1,65.9999980330468,4|2
160,46,122483,5,12
147,67,122586,1,2
135,88,122688,1,0
123,109,122790,1,0
110,130,122892,1,8
122,151,122994,1,0
133,172,123096,1,0
137,196,123198,1,0
134,220,123300,6,0,B|181:241,1,44,10|0
196,227,123504,2,0,B|244:243,1,44,2|0
370,138,123708,2,0,B|323:159,1,44,10|0
308,145,123912,2,0,B|260:161,1,44,2|0
241,91,124116,5,8
264,84,124218,1,0
287,77,124320,1,8
310,71,124422,1,0
333,64,124524,1,8
356,57,124626,1,0
380,51,124728,1,2
402,62,124830,1,0
421,76,124932,6,0,B|438:126,1,44,4|0
421,138,125137,2,0,B|438:185,1,44,2|0
375,234,125341,2,0,B|392:284,1,44,10|0
375,296,125545,2,0,B|392:343,1,44,2|0
322,360,125749,5,8
294,340,125851,1,0
262,327,125953,1,8
228,322,126055,1,0
249,296,126157,1,8
267,268,126259,1,0
273,235,126361,1,2
264,202,126463,1,0
229,182,126565,5,8
204,185,126667,1,0
179,189,126769,1,2
154,191,126871,1,0
129,194,126973,1,8
104,197,127075,1,0
79,200,127177,1,2
54,203,127279,1,0
14,208,127381,5,8
2,171,127483,1,0
10,133,127586,1,8
33,103,127688,1,0
67,86,127790,1,8
104,82,127892,1,0
140,93,127994,1,2
171,113,128096,1,0
202,92,128198,5,10
226,88,128300,1,0
250,84,128402,1,2
274,80,128504,1,8
298,76,128606,1,8
322,72,128708,1,0
346,68,128810,1,10
370,65,128912,1,0
394,61,129014,6,0,B|443:52,2,44,4|0|0
368,192,129422,1,8
256,316,129626,1,8
256,316,129728,1,10
132,192,129932,1,8
132,192,130034,1,2
256,68,130239,1,8
118,323,130443,5,2
118,323,130545,1,0
118,323,130647,2,0,B|69:332,2,44,12|0|0
256,192,131055,1,8
394,61,131259,5,2
394,61,131361,1,0
394,61,131463,2,0,B|443:52,2,44,12|0|0
256,84,131871,1,8
118,61,132075,1,2
172,188,132279,5,4
340,188,132483,1,0
340,188,132586,1,0
340,188,132688,1,4
256,332,132892,1,2
256,332,132994,1,0
256,332,133096,2,0,B|256:196,1,132,4|4
256,132,133504,1,8
336,48,133708,5,8
176,48,133912,1,4
256,192,134014,12,4,135545
345,126,135953,5,8
170,268,136157,2,0,B|195:300,2,32.9999990165234,2|2|0
170,268,136565,1,2
178,108,136769,1,8
345,126,137177,5,0
329,282,137586,1,8
256,200,137790,1,0
256,200,137892,1,2
256,200,137994,1,0
191,26,138198,1,0
358,44,138402,1,8
272,36,138606,5,2
272,36,138708,1,2
272,36,138810,1,0
256,200,139014,1,2
244,360,139218,1,8
162,325,139422,6,0,B|148:282,2,32.9999990165234,2|2|0
162,325,139830,1,2
337,326,140034,1,8
256,200,140443,1,0
171,166,140647,1,2
95,208,140851,1,8
104,128,141055,2,0,B|116:84,2,32.9999990165234,2|2|0
104,128,141463,1,2
84,292,141667,1,8
189,300,141871,5,2
189,300,141973,1,2
189,300,142075,1,4
352,192,142483,1,8
256,152,142688,2,0,B|248:112,2,32.9999990165234,2|2|0
256,152,143096,1,2
160,108,143300,1,8
308,32,143708,5,0
196,260,144116,1,8
256,152,144320,1,2
256,152,144422,1,2
256,152,144524,1,0
303,246,144728,1,2
353,339,144932,1,8
416,276,145137,5,2
416,276,145239,1,2
416,276,145341,1,0
320,100,145545,1,2
196,260,145749,1,8
148,192,145953,2,0,B|128:160,2,32.9999990165234,2|2|0
148,192,146361,1,2
136,336,146565,1,8
136,336,146973,5,0
252,328,147177,1,2
252,328,147279,2,0,B|288:340,1,32.9999990165234,2|8
368,304,147586,1,2
500,344,147790,6,0,B|488:300,1,32.9999990165234,0|2
480,208,148096,2,0,B|468:168,1,32.9999990165234,2|8
456,60,148402,1,2
456,60,148606,5,4
336,156,149014,1,8
424,140,149218,2,0,B|428:184,2,32.9999990165234,2|2|0
424,140,149626,1,2
248,176,149830,1,8
248,176,150239,5,0
96,108,150647,1,8
156,188,150851,1,2
156,188,150953,1,2
156,188,151055,1,0
336,156,151259,1,2
276,320,151463,1,8
260,224,151667,5,2
260,224,151769,1,2
260,224,151871,2,0,B|240:192|248:152,1,65.9999980330468,0|2
288,56,152279,1,8
144,104,152483,1,2
144,104,152586,2,0,B|124:152|156:208,1,98.9999970495702,2|2
128,328,153096,1,8
380,276,153504,5,0
151,199,153912,1,8
288,176,154116,1,2
288,176,154218,2,0,B|304:140|296:100,1,65.9999980330468,2|2
272,80,154524,1,2
340,32,154728,1,8
408,76,154932,5,2
408,76,155034,1,2
408,76,155137,1,4
380,276,155545,1,8
176,256,155953,1,0
204,52,156361,1,8
288,176,156565,5,2
288,176,156769,1,4
84,200,157177,1,8
288,176,157586,1,4
228,260,157790,5,2
228,260,157892,2,0,B|200:248|164:264,1,65.9999980330468,2|2
140,308,158198,1,0
232,356,158402,5,4
280,24,158810,1,8
256,192,159014,1,2
160,160,159218,5,12
352,224,159422,1,2
352,224,159524,1,8
160,160,159728,1,2
160,160,159830,1,8
256,192,160034,1,4
256,192,160137,12,4,161667
348,120,161871,21,0
348,120,162279,1,0
272,307,162688,5,2
272,307,163096,1,2
147,148,163504,5,2
147,148,163912,1,2
384,344,164320,5,2
400,336,164422,1,0
416,328,164524,1,8
452,260,164728,1,2
392,216,164932,1,8
420,144,165137,5,2
420,144,165545,1,2
132,73,165953,5,2
132,73,166361,1,2
215,358,166769,5,2
215,358,167177,1,2
384,344,167586,5,2
400,336,167688,1,0
416,328,167790,1,8
432,320,167892,1,0
448,312,167994,1,2
392,248,168198,1,12
439,179,168402,5,2
439,179,168810,1,2
224,136,169218,5,2
224,136,169626,1,2
312,336,170034,5,2
312,336,170443,1,2
224,40,170851,5,2
208,48,170953,1,0
192,56,171055,2,0,B|180:84|188:112,1,48.3999985575676,8|0
256,256,171463,1,8
328,144,171667,1,2
368,272,171871,2,0,B|384:236|376:200,1,72.5999978363515,8|2
392,180,172279,6,2,B|400:148,3,24.1999992787838
420,148,172688,2,2,B|428:116,4,24.1999992787838
256,192,173198,12,0,174524
256,112,174728,6,0,B|308:104,1,48.3999985575676,4|2
376,136,175137,1,8
284,240,175341,1,2
284,240,175443,2,0,B|200:252,1,72.5999978363515,0|2
120,184,175953,5,8
256,40,176157,1,2
380,204,176361,2,0,B|372:256,1,48.3999985575676,0|2
312,304,176769,1,8
188,256,176973,1,2
188,256,177075,2,0,B|200:168,1,72.5999978363515,0|2
256,40,177586,5,8
256,360,177790,1,2
340,216,177994,2,0,B|328:160,1,48.3999985575676,0|2
360,100,178402,1,8
152,120,178606,1,2
152,120,178708,2,0,B|172:200,1,72.5999978363515,0|2
132,264,179218,5,8
372,264,179422,1,2
256,76,179626,2,0,B|208:72,1,48.3999985575676,0|2
152,120,180034,1,8
256,232,180239,1,2
256,232,180341,1,2
360,236,180545,1,2
360,236,180647,1,2
456,240,180851,5,8
360,124,181055,1,2
256,232,181259,2,0,B|200:256,1,48.3999985575676,4|2
197,257,181565,1,0
182,263,181667,1,8
68,148,181871,1,2
68,148,181973,2,0,B|96:120|140:124,1,72.5999978363515,0|2
256,312,182483,2,0,B|256:360,1,48.3999985575676,8|2
348,260,182892,5,0
420,200,183096,1,2
432,192,183198,1,0
444,184,183300,1,8
360,64,183504,1,2
360,64,183606,2,0,B|332:36|288:40,1,72.5999978363515,0|2
256,312,184116,2,0,B|256:360,1,48.3999985575676,0|2
144,288,184524,5,0
96,212,184728,1,2
100,196,184830,1,0
104,180,184932,1,8
200,120,185137,1,2
200,120,185239,2,0,B|212:84|192:36,1,72.5999978363515,0|2
324,256,185749,6,0,B|316:312,1,48.3999985575676,8|2
364,196,186157,2,0,B|319:161,1,48.3999985575676,0|2
392,260,186565,2,0,B|444:238,1,48.3999985575676,8|2
451,237,186871,1,0
465,231,186973,1,8
323,91,187177,1,2
254,284,187381,1,8
347,199,187586,5,0
347,199,187790,1,4
256,192,187892,12,0,191055
