osu file format v9

[General]
AudioFilename: Grenade.mp3
AudioLeadIn: 2000
PreviewTime: 68606
Countdown: 0
SampleSet: Normal
StackLeniency: 0.7
Mode: 0
LetterboxInBreaks: 1

[Editor]
DistanceSpacing: 1.45
BeatDivisor: 4
GridSize: 4

[Metadata]
Title:Grenade
Artist:GhostFinal
Creator:Pokie
Version:Advanced
Source:
Tags:DarknessAngel Ghost

[Difficulty]
HPDrainRate:4
CircleSize:4
OverallDifficulty:6
ApproachRate:7
SliderMultiplier:1.44
SliderTickRate:2

[Events]
//Background and Video events
0,0,"BG.jpg"
//Break Periods
2,41051,52985
//Storyboard Layer 0 (Background)
//Storyboard Layer 1 (Fail)
//Storyboard Layer 2 (Pass)
//Storyboard Layer 3 (Foreground)
//Storyboard Sound Samples
//Background Colour Transformations
3,100,163,162,255

[TimingPoints]
35,408.163265306122,4,1,1,50,1,0
1259,-100,4,2,1,50,0,0
14320,-133.333333333333,4,2,1,50,0,0
14422,-133.333333333333,4,1,1,5,0,0
14728,-133.333333333333,4,2,1,60,0,0
39218,-100,4,1,1,30,0,0
39320,-100,4,1,1,32,0,0
39422,-100,4,1,1,34,0,0
39524,-100,4,1,1,37,0,0
39626,-100,4,1,1,39,0,0
39728,-100,4,1,1,41,0,0
39830,-100,4,1,1,43,0,0
39932,-100,4,1,1,45,0,0
40034,-100,4,1,1,47,0,0
40136,-100,4,1,1,50,0,0
40238,-100,4,1,1,52,0,0
40340,-100,4,1,1,54,0,0
40442,-100,4,1,1,56,0,0
40544,-100,4,1,1,58,0,0
40646,-100,4,1,1,61,0,0
40748,-100,4,1,1,63,0,0
40851,-100,4,1,1,65,0,0
53912,-100,4,1,1,30,0,0
54320,-100,4,1,1,35,0,0
54728,-100,4,1,1,40,0,0
55137,-100,4,1,1,45,0,0
56157,-100,4,2,1,45,0,0
57177,-100,4,2,1,40,0,0
57790,-100,4,2,1,45,0,0
58810,-100,4,2,1,40,0,0
59422,-100,4,2,1,45,0,0
60443,-100,4,2,1,40,0,0
61055,-100,4,2,1,45,0,0
62075,-100,4,2,2,55,0,0
66973,-100,4,2,1,65,0,0
68606,-100,4,2,1,65,0,1
87381,-100,4,1,1,65,0,1
87586,-100,4,2,1,65,0,1
87790,-100,4,1,1,65,0,1
88606,-100,4,2,2,65,0,1
91259,-100,4,2,1,65,0,1
94728,-100,4,2,1,65,0,0
94830,-100,4,2,1,20,0,0
95851,-100,4,1,1,55,0,0
96361,-133.333333333333,4,2,1,55,0,0
96463,-133.333333333333,4,2,2,55,0,0
102892,-133.333333333333,4,2,1,55,0,0
102994,-133.333333333333,4,2,2,55,0,0
104524,-133.333333333333,4,2,1,55,0,0
104626,-133.333333333333,4,2,2,55,0,0
105953,-133.333333333333,4,2,1,55,0,0
109218,-100,4,2,1,65,0,0
109422,-100,4,2,2,65,0,1
110239,-100,4,2,1,65,0,1
122075,-100,4,2,1,65,0,0
122483,-100,4,2,1,65,0,1
134932,-100,4,1,1,5,0,1
135137,-100,4,1,1,65,0,1
135188,-100,4,1,1,5,0,1
135239,-100,4,1,1,65,0,1
135290,-100,4,1,1,5,0,1
135341,-100,4,1,1,65,0,1
135392,-100,4,1,1,5,0,1
135443,-100,4,1,1,65,0,1
135494,-100,4,1,1,5,0,1
135545,-133.333333333333,4,2,2,65,0,0
147790,-133.333333333333,4,2,1,65,0,0
148606,-133.333333333333,4,2,2,65,0,0
160137,-133.333333333333,4,2,2,55,0,0
161667,-133.333333333333,4,2,1,48,0,0

[Colours]
Combo1 : 255,128,64
Combo2 : 0,128,255
Combo3 : 12,235,101
Combo4 : 255,0,128

[HitObjects]
220,169,1157,1,0
220,169,1259,2,0,B|258:167|293:169,1,72,8|8
361,224,1667,5,4
198,255,2075,1,8
158,94,2483,1,0
321,65,2892,1,8
341,145,3096,1,0
260,164,3300,5,0
95,147,3708,1,8
77,311,4116,1,0
241,331,4524,1,8
251,248,4728,1,0
168,246,4932,5,0
329,206,5341,1,8
173,149,5749,1,0
333,108,6157,1,8
255,79,6361,1,0
177,50,6565,6,0,B|93:58|75:136,1,144,0|8
155,280,7381,2,0,B|239:272|257:194,1,144,0|8
173,190,7994,1,0
257,194,8198,6,0,B|275:272|359:280,1,144,4|8
439,136,9014,2,0,B|421:58|337:50,1,144,0|8
346,132,9626,1,0
256,128,9830,5,0
215,288,10239,1,8
91,177,10647,1,0
256,128,11055,1,8
336,146,11259,1,0
414,172,11463,5,0
298,290,11871,1,8
256,128,12279,1,0
215,288,12688,1,8
135,263,12892,1,0
55,239,13096,6,0,B|17:161|73:92,1,144,0|8
219,45,13912,2,0,B|246:105|209:156,1,108,0|2
214,148,14320,6,0,B|234:229,1,80.999997586012,8|0
244,264,14728,2,0,B|296:253,1,53.9999983906746,4|2
424,196,15137,2,0,B|372:207,1,53.9999983906746,8|0
346,132,15545,2,0,B|294:143,1,53.9999983906746,0|2
218,118,15953,1,8
213,196,16157,6,0,B|243:253|202:305,1,107.999996781349,0|2
135,329,16769,1,8
65,292,16973,2,0,B|35:235|76:183,1,107.999996781349,0|2
140,154,17586,1,8
77,107,17790,1,0
148,74,17994,6,0,B|207:66,1,53.9999983906746,0|2
360,85,18402,2,0,B|306:92,1,53.9999983906746,8|0
315,170,18810,2,0,B|368:162,1,53.9999983906746,0|2
446,155,19218,1,8
459,232,19422,6,0,B|483:292|433:344,1,107.999996781349,0|2
365,348,20034,1,8
298,306,20239,2,0,B|274:246|324:194,1,107.999996781349,0|2
390,188,20851,1,8
339,127,21055,1,0
262,142,21259,6,0,B|234:190,1,53.9999983906746,4|2
135,293,21667,2,0,B|162:246,1,53.9999983906746,8|0
52,276,22075,2,0,B|79:229,1,53.9999983906746,0|2
118,161,22483,1,8
162,96,22688,6,0,B|113:65|52:80,1,107.999996781349,0|2
8,139,23300,1,8
29,214,23504,2,0,B|78:245|139:230,1,107.999996781349,0|2
199,191,24116,2,0,B|253:204,1,53.9999983906746,8|0
251,203,24524,6,0,B|262:262,1,53.9999983906746,0|2
341,369,24932,2,0,B|331:315,1,53.9999983906746,8|0
425,373,25341,2,0,B|415:319,1,53.9999983906746,0|2
460,256,25749,1,8
429,183,25953,6,0,B|378:154|320:169,1,107.999996781349,0|2
256,129,26565,1,8
202,185,26769,2,0,B|151:214|93:199,1,107.999996781349,0|2
42,144,27381,1,8
84,77,27586,2,0,B|95:45,2,26.9999991953373,0|0|4
156,107,27994,6,0,B|211:97,1,53.9999983906746,0|8
256,159,28402,2,0,B|367:142,1,107.999996781349,0|2
440,130,29014,1,8
440,130,29218,1,0
335,246,29626,5,2
256,248,29830,2,0,B|264:300,1,53.9999983906746,8|0
164,152,30443,1,2
88,140,30647,2,0,B|96:192,1,53.9999983906746,8|0
108,304,31055,6,0,B|164:296,1,53.9999983906746,0|2
228,252,31463,1,8
228,252,31667,2,0,B|344:240,1,107.999996781349,0|2
412,228,32279,1,8
412,228,32483,1,0
324,96,32892,5,2
248,88,33096,2,0,B|252:36,1,53.9999983906746,8|0
156,212,33708,1,2
232,220,33912,2,0,B|228:272,1,53.9999983906746,8|0
180,336,34320,6,0,B|112:332,1,53.9999983906746,4|2
60,240,34728,2,0,B|64:188,1,53.9999983906746,8|0
240,92,35341,1,2
284,156,35545,2,0,B|280:208,1,53.9999983906746,8|0
316,280,35953,6,0,B|380:288,1,53.9999983906746,0|2
484,232,36361,2,0,B|430:225,1,53.9999983906746,8|0
320,88,36973,1,2
284,156,37177,2,0,B|216:144,1,53.9999983906746,8|0
152,132,37586,6,0,B|140:200,1,53.9999983906746,0|2
164,328,37994,2,0,B|173:274,1,53.9999983906746,8|0
348,328,38606,2,0,B|338:274,2,53.9999983906746,2|8|0
420,252,39218,6,0,B|412:212,3,36
381,199,39626,2,0,B|373:151,3,36
416,116,40034,6,0,B|408:68,3,36
380,60,40443,2,0,B|372:16,4,36,0|0|0|0|4
256,192,53912,12,0,55545
168,100,56157,6,0,B|240:92|312:92,2,144,8|8|0
120,176,57177,1,8
244,300,57586,5,8
188,228,57790,2,0,B|116:220|44:220,2,144,8|8|0
276,220,58810,2,0,B|360:224,1,72,8|0
412,164,59218,1,8
352,96,59422,6,0,B|420:80|500:88,2,144,8|8|0
268,68,60443,1,8
216,296,60851,1,8
180,212,61055,1,0
180,212,61157,1,0
180,212,61259,2,0,B|132:244|124:304,1,108,8|8
124,300,61667,2,0,B|48:296,1,72,8|8
20,212,62075,5,4
96,164,62279,1,0
16,124,62483,1,8
176,44,62892,2,0,B|208:64|248:60,1,72
288,140,63300,1,8
244,60,63504,6,0,B|308:24|392:48,1,144
456,100,64116,1,8
404,172,64320,1,0
320,332,64728,1,0
236,296,64932,2,0,B|232:260|248:216,1,72,8|0
304,156,65341,5,0
220,128,65545,1,0
292,76,65749,1,8
112,72,66157,2,0,B|92:112|96:152,1,72
156,208,66565,1,8
95,141,66769,6,0,B|136:216|88:280,1,144,0|0
152,344,67381,2,0,B|224:340,1,72,8|0
368,292,67790,2,0,B|296:296,1,72,8|0
252,180,68198,5,8
252,180,68300,1,0
252,180,68402,2,0,B|208:180,2,36,0|0|4
456,48,69014,2,0,B|464:84|460:128,1,72,8|0
424,144,69320,2,0,B|432:200|432:256,1,108
368,312,69830,1,8
204,232,70239,5,0
348,124,70647,1,8
284,64,70851,1,0
284,64,70953,2,0,B|240:96|172:100,1,108
104,56,71463,1,8
40,224,71871,5,0
176,344,72279,2,0,B|184:304|184:264,1,72,8|0
228,284,72586,2,0,B|240:228|232:164,1,108,0|0
200,92,73096,2,0,B|244:88|284:88,1,72,8|0
336,148,73504,5,0
488,52,73912,1,8
484,140,74116,1,0
484,140,74218,2,0,B|448:184|448:240,1,108
408,320,74728,1,8
344,256,74932,6,0,B|304:252,2,36,8|0|4
304,336,75341,1,0
220,304,75545,2,0,B|208:264|212:228,1,72,8|0
168,248,75851,2,0,B|148:200|168:136,1,108
104,80,76361,1,8
280,44,76769,6,0,B|316:60|360:64,1,72
428,108,77177,1,8
368,176,77381,1,0
368,176,77483,2,0,B|316:156|260:168,1,108
204,236,77994,1,8
92,96,78402,6,0,B|76:136|76:168,1,72
100,252,78810,2,0,B|140:268|172:268,1,72,8|0
152,312,79116,2,0,B|208:328|272:316,1,108
336,268,79626,1,8
412,316,79830,1,0
452,236,80034,6,0,B|444:88,2,144,8|8|0
368,204,81055,1,0
368,204,81157,1,0
368,204,81259,2,0,B|368:156|364:124,1,72,8|0
305,64,81667,1,4
222,100,81871,6,0,B|222:148|226:180,1,72,0|8
163,237,82279,1,0
163,237,82381,2,0,B|111:237|51:241,1,108
59,331,82892,1,8
147,331,83096,1,0
232,304,83300,6,0,B|308:300,1,72
288,384,83708,2,0,B|364:380,1,72,8|0
460,228,84320,1,0
408,156,84524,2,0,B|336:159,1,72,8|0
256,120,84932,5,4
176,76,85137,2,0,B|136:72|96:80,1,72,0|8
72,164,85545,1,0
72,164,85647,2,0,B|132:176|192:156,1,108
256,208,86157,2,0,B|244:280,1,72,8|0
196,356,86565,6,0,B|124:344,1,72,0|0
152,264,86973,2,0,B|80:252,1,72,8|0
196,112,87586,1,0
196,112,87688,1,0
196,112,87790,2,0,B|268:120,1,72
356,100,88198,6,0,B|372:176|344:248,2,144,4|8|0
240,240,89422,1,8
180,176,89626,1,0
140,256,89830,2,0,B|124:180|152:108,2,144,0|8|0
200,323,90851,5,0
200,323,90953,1,0
200,323,91055,2,0,B|236:315|284:319,1,72,8|0
308,236,91463,2,0,B|384:252|456:232,2,144,0|8|0
212,84,92688,1,8
144,144,92892,1,0
224,184,93096,2,0,B|148:200|76:180,2,144,0|8|0
372,84,94320,5,8
460,104,94524,1,0
400,168,94728,1,4
256,192,94830,12,4,96361
412,96,96769,5,8
276,84,97177,1,0
332,208,97586,1,8
197,195,97994,5,0
140,317,98402,1,8
197,195,98810,1,0
140,317,99218,1,8
263,261,99626,5,0
399,245,100034,1,8
387,109,100443,1,0
251,117,100851,1,8
123,161,101259,5,0
94,292,101667,1,8
225,320,102075,1,0
258,189,102483,1,8
313,150,102688,1,0
313,150,102892,6,0,B|369:166|433:154,1,107.999996781349,4|8
460,284,103708,2,0,B|404:268|340:280,1,107.999996781349,0|8
176,272,104524,2,0,B|120:288|56:276,1,107.999996781349,4|8
104,148,105341,2,0,B|160:132|224:144,1,107.999996781349,12|8
340,108,106157,5,4
224,44,106565,1,12
340,108,106973,2,0,B|324:152|332:200,1,80.999997586012,4|0
360,200,107381,2,0,B|356:236|356:264,1,53.9999983906746,0|0
256,192,107790,12,4,109422
200,252,109830,5,8
80,116,110239,2,0,B|80:80|68:44,2,72,0|0|8
40,196,110851,1,0
128,184,111055,2,0,B|176:156|232:168,1,108
252,128,111463,2,0,B|320:160|404:152,1,144,8|0
464,100,112075,1,0
464,100,112279,1,8
292,44,112688,5,0
192,196,113096,1,8
328,312,113504,1,0
192,196,113912,1,8
280,188,114116,1,0
192,196,114320,6,0,B|200:140|184:88,1,108
144,68,114728,2,0,B|64:72,1,72,8|0
20,144,115137,5,0
108,160,115341,1,0
92,248,115545,1,8
4,232,115749,1,0
28,320,115953,6,0,B|136:344,2,108,4|0|0
200,268,116973,2,0,B|280:256,1,72,0|8
484,64,117586,6,0,B|376:40,2,108,4|0|0
312,116,118606,2,0,B|232:128,1,72,0|8
72,192,119218,6,0,B|40:144|56:80,2,108,4|0|0
144,248,120034,2,0,B|224:216,1,72,0|8
301,221,120443,2,0,B|368:248,1,72,8|0
440,192,120851,6,0,B|472:144|456:80,2,108,4|0|0
376,128,121667,2,0,B|292:128,1,72,8|0
136,88,122075,2,0,B|220:88,1,72,8|0
184,176,122483,6,0,B|112:160|40:176,1,144,4|8
16,356,123300,2,0,B|52:360|92:356,2,72,0|0|8
48,272,123912,1,0
136,292,124116,2,0,B|188:312|248:292,1,108
268,256,124524,2,0,B|348:236|420:260,1,144,8|0
476,320,125137,1,0
476,320,125341,1,8
500,140,125749,6,0,B|452:152|388:144,1,108,4|0
352,124,126157,2,8,B|344:48,1,72,8|0
260,88,126565,2,0,B|256:160,1,72
168,140,126973,2,0,B|156:68,1,72,8|0
76,112,127381,6,0,B|48:160|76:224,1,108
64,260,127790,2,0,B|136:256,1,72,8|0
224,252,128198,1,0
264,332,128402,2,0,B|352:348,1,72,0|8
396,280,128810,1,0
476,320,129014,6,0,B|508:244|476:168,2,144,4|8|0
316,232,130239,1,8
380,172,130443,1,0
296,144,130647,5,4
152,248,131055,1,8
128,68,131463,2,0,B|172:56|236:68,1,108,4|0
260,32,131871,2,0,B|296:40|340:32,1,72,8|0
400,92,132279,5,4
364,268,132688,1,8
188,240,133096,1,4
212,152,133300,1,0
212,152,133402,1,0
212,152,133504,1,12
300,168,133708,1,0
272,84,133912,5,12
256,192,134014,12,0,135545
256,120,135953,5,8
324,160,136157,1,2
324,160,136259,2,0,B|336:196|336:240,1,80.999997586012,2|2
396,292,136769,2,0,B|420:240|408:176,1,107.999996781349,8|0
256,224,137586,6,0,B|244:256|252:292,1,53.9999983906746,8|2
232,312,137892,2,0,B|192:304|152:304,1,80.999997586012,2|2
108,240,138402,2,0,B|97:186|121:134,1,107.999996781349,8|0
276,140,139218,5,8
324,80,139422,1,2
324,80,139524,2,0,B|368:88|408:80,1,80.999997586012,2|2
460,136,140034,2,0,B|408:160|352:160,1,107.999996781349,8|0
368,316,140851,6,0,B|335:312|306:318,1,53.9999983906746,8|2
275,322,141157,2,0,B|290:280|279:240,1,80.999997586012,2|0
207,272,141667,2,0,B|196:234|211:192,1,80.999997586012,8|0
179,169,142075,6,0,B|123:177,1,53.9999983906746,4|2
61,130,142483,1,8
98,60,142688,1,2
98,60,142790,2,0,B|138:60|182:52,1,80.999997586012,2|2
255,40,143300,2,0,B|271:92|263:156,1,107.999996781349,8|0
332,284,144116,5,8
404,256,144320,1,2
404,256,144422,2,0,B|406:226|390:191,1,53.9999983906746,2|0
377,168,144728,2,0,B|405:156|438:158,1,53.9999983906746,2|8
456,83,145137,1,2
395,33,145341,6,0,B|367:45|335:41,1,53.9999983906746,0|2
272,80,145749,2,0,B|235:88|200:75,1,53.9999983906746,8|2
184,60,146055,2,0,B|176:92|176:148,1,80.999997586012,2|2
220,205,146565,1,8
360,272,146973,6,0,B|376:212|368:156,2,107.999996781349,8|8|8
295,316,147994,1,0
295,316,148096,1,2
295,316,148198,2,0,B|243:308,1,53.9999983906746,8|2
165,291,148606,6,0,B|101:287|49:303,2,107.999996781349,4|8|8
294,203,149830,1,8
242,143,150034,2,0,B|306:147|358:131,2,107.999996781349,2|2|2
164,152,151055,1,8
276,40,151463,1,8
340,184,151871,6,0,B|312:236|320:304,2,107.999996781349,8|8|8
200,112,153096,1,8
128,144,153300,2,0,B|156:92|148:24,2,107.999996781349,2|2|2
60,180,154320,2,0,B|56:216|60:244,1,53.9999983906746,8|2
112,292,154728,2,0,B|112:328|112:356,1,53.9999983906746,8|2
188,320,155137,6,0,B|192:272|184:208,2,107.999996781349,4|8|8
316,232,156361,1,8
292,160,156565,1,2
368,172,156769,2,0,B|364:124|372:60,2,107.999996781349,12|8|4
384,328,157994,6,0,B|316:344,1,53.9999983906746,8|2
256,316,158402,1,12
192,172,158810,1,12
320,84,159218,2,0,B|276:65|234:66,1,80.999997586012,12|2
203,56,159626,5,10
146,109,159830,1,8
192,172,160034,1,12
256,192,160137,12,4,161667
