osu file format v5

[General]
AudioFilename: I-A-M-H-E-A-V-Y-W-E-A-P-O-N-S-G-U-Y.mp3
AudioLeadIn: 1985
PreviewTime: -1
Countdown: 1
SampleSet: Soft
StackLeniency: 0.7
Mode: 0
LetterboxInBreaks: 1
EditorDistanceSpacing: 0.800000011920929

[Metadata]
Title:I-A-M-H-E-A-V-Y-W-E-A-P-O-N-S-G-U-Y
Artist:Gezzles
Creator:lukewarmholiday
Version:Brank
Source:
Tags:

[Difficulty]
HPDrainRate:5
CircleSize:4
OverallDifficulty:6
SliderMultiplier:1.2
SliderTickRate:1

[Events]
//Background and Video events
1,-200,"I-A-M-H-E-A-V-Y-W-E-A-P-O-N-S-G-U-Y.avi"
0,0,"124009874467.png"
//Break Periods
2,14283,15726
2,43902,48038
2,54667,58766
//Storyboard Layer 0 (Background)
//Storyboard Layer 1 (Failing)
//Storyboard Layer 2 (Passing)
//Storyboard Layer 3 (Foreground)
//Storyboard Sound Samples
//Background Colour Transformations
3,100,163,162,255

[TimingPoints]
623,336.587007741501,4,2,1,70,1,0
8698,-100,4,2,1,0,0,0
11390,-100,4,2,1,70,0,0
13999,-100,4,2,1,0,0,0
16692,-100,4,2,1,70,0,0
22077,-100,4,2,1,0,0,0
24685,-100,4,2,1,70,0,0
32848,-100,4,2,1,0,0,0
35456,-100,4,2,1,70,0,0
40505,-100,4,2,1,0,0,0
41166,-100,4,2,1,70,0,0
59354,-100,4,2,1,70,0,0

[Colours]
Combo1 : 161,82,31
Combo2 : 239,52,37
Combo3 : 225,225,225
Combo4 : 84,58,41
Combo5 : 225,214,62

[HitObjects]
80,168,623,2,0,B|80:96|160:96,2,120
80,264,1632,2,0,B|152:264,1,60
184,264,1969,6,0,B|328:264,2,120
112,192,2979,2,0,B|128:152|176:160,1,60
208,160,3315,6,0,B|296:160|296:64,2,120
208,64,4325,2,0,B|296:64,1,60
312,64,4662,6,0,B|384:64|384:144,2,120
312,160,5671,2,0,B|312:248,1,60
256,192,6008,12,0,8701
256,80,9710,6,0,B|256:168,1,60
176,200,10215,2,0,B|216:280,1,60
304,248,10720,2,0,B|368:184,2,60
256,192,11393,12,0,14086
440,72,16779,6,0,B|344:72|344:192|208:192,1,240
144,192,17788,2,0,B|40:192|24:136,2,120
240,192,18798,2,0,B|312:200|360:240,1,120
424,296,19471,1,8
424,296,19808,1,8
424,200,20145,6,2,B|424:112|344:128,1,120
256,120,20818,2,2,B|152:120|152:200|32:200,2,240
256,192,22248,12,2,24352
200,96,24857,6,0,B|336:96,3,120
328,192,26203,2,0,B|184:192,1,120
200,288,26876,2,0,B|336:288,1,120
320,192,27549,6,2,B|320:72|192:72|192:192,1,240
192,280,28559,2,2,B|256:264|256:312|312:296,3,120,2|2|0|0
256,216,29906,1,0
256,120,30242,5,8
256,120,30579,1,8
192,192,30915,6,2,B|336:192,2,120
48,64,32262,1,2
56,256,32935,2,2,B|232:256|232:264|232:272|232:352|240:352|248:352|448:352|448:336|448:320|448:88|448:72|448:64|160:64,1,840
160,160,35628,6,0,B|160:304,1,120
208,280,36132,2,0,B|208:144,1,120
256,160,36637,2,0,B|256:296,1,120
304,280,37142,2,0,B|304:144,1,120
352,160,37647,2,0,B|352:296,1,120
256,288,38320,6,2,B|256:40,1,240
160,48,39330,2,2,B|72:48|72:128,1,120
224,296,40634,6,0,B|288:304|288:344|368:328,1,135
352,232,41392,5,2
256,152,41686,1,2
168,232,42023,1,2
168,136,42359,6,2,B|200:56|256:64|312:56|352:136,2,240
112,136,49091,6,2,B|248:136|272:136|240:280|264:280|408:280,1,360
400,184,50437,2,2,B|400:48|128:56|40:64|48:232,1,480
128,256,52120,6,2,B|240:176,1,120
216,280,52793,2,2,B|328:192,1,120
472,96,53803,1,2
472,288,54476,1,2
256,72,59525,6,2,B|256:216,1,120
256,288,60198,1,4
256,144,60703,1,4
256,288,61208,1,4
352,288,61545,6,2,B|432:288,2,60,2|6|2
352,192,62218,2,2,B|264:192|256:288|120:280,1,240,2|6
135,280,63059,1,0
136,184,63396,5,4
256,104,63901,5,4
368,192,64406,5,4
256,280,64911,5,4
352,280,65247,6,2,B|464:280|464:168|464:64|352:64|144:64,1,480,2|6
104,128,66930,6,2,B|16:128,2,60,2|6|2
168,192,67603,6,2,B|304:192,1,120
384,192,68276,1,4
384,192,68445,1,4
384,104,68739,5,4
256,160,69244,5,4
256,304,69749,5,4
128,232,70254,5,4
256,192,70633,12,4,73325
256,128,74672,6,0,B|256:256,3,120
256,248,75850,1,0
