osu file format v5

[General]
AudioFilename: I-A-M-H-E-A-V-Y-W-E-A-P-O-N-S-G-U-Y.mp3
AudioLeadIn: 1985
PreviewTime: -1
Countdown: 1
SampleSet: Soft
StackLeniency: 0.7
Mode: 0
LetterboxInBreaks: 1
EditorDistanceSpacing: 0.800000011920929

[Metadata]
Title:I-A-M-H-E-A-V-Y-W-E-A-P-O-N-S-G-U-Y
Artist:Gezzles
Creator:lukewarmholiday
Version:Bonk
Source:
Tags:

[Difficulty]
HPDrainRate:5
CircleSize:5
OverallDifficulty:8
SliderMultiplier:1.4
SliderTickRate:1

[Events]
//Background and Video events
1,-200,"I-A-M-H-E-A-V-Y-W-E-A-P-O-N-S-G-U-Y.avi"
0,0,"scoutbonk.jpg"
//Break Periods
2,54667,58766
//Storyboard Layer 0 (Background)
//Storyboard Layer 1 (Failing)
//Storyboard Layer 2 (Passing)
//Storyboard Layer 3 (Foreground)
//Storyboard Sound Samples
//Background Colour Transformations
3,100,163,162,255

[TimingPoints]
623,336.587007741501,4,2,1,70,1,0
8698,-100,4,2,1,0,0,0
11390,-100,4,2,1,70,0,0
13999,-100,4,2,1,0,0,0
16692,-100,4,2,1,70,0,0
22077,-100,4,2,1,0,0,0
24685,-100,4,2,1,70,0,0
32848,-100,4,2,1,0,0,0
35456,-100,4,2,1,70,0,0
40505,-100,4,2,1,0,0,0
41166,-100,4,2,1,70,0,0
45975,-100,4,2,1,0,0,0
46395,-100,4,2,1,70,0,0
51276,-100,4,2,1,0,0,0
51865,-100,4,2,1,70,0,0

[Colours]
Combo1 : 161,82,31
Combo2 : 239,52,37
Combo3 : 225,225,225
Combo4 : 84,58,41
Combo5 : 225,214,62

[HitObjects]
40,88,623,2,0,B|40:184,1,70
96,160,959,2,0,B|96:264,1,70
40,224,1296,2,0,B|40:304,1,70
96,296,1632,5,2
96,296,1801,1,2
152,296,1969,6,0,B|152:200,1,70
208,224,2305,2,0,B|208:120,1,70
152,160,2642,2,0,B|152:80,1,70
208,88,2979,5,2
208,88,3147,1,2
264,88,3315,6,0,B|264:184,1,70
320,160,3652,2,0,B|320:264,1,70
264,224,3988,2,0,B|264:304,1,70
320,296,4325,5,2
320,296,4493,1,2
376,296,4662,6,0,B|376:200,1,70
432,224,4998,2,0,B|432:120,1,70
376,160,5335,2,0,B|376:80,1,70
432,88,5671,5,2
432,88,5840,1,2
384,48,6008,5,0
344,88,6176,1,0
304,48,6344,1,0
264,88,6513,1,0
224,48,6681,2,0,B|184:32|152:96,1,70
136,120,7018,1,0
104,168,7186,1,0
96,224,7354,6,2,B|104:288|144:288,1,70
160,240,7691,2,2,B|192:272|192:312,1,70
136,328,8027,2,2,B|168:376|224:360,1,70
240,336,8364,2,2,B|280:304|272:264,1,70
256,192,8701,5,0
256,192,8785,1,0
256,192,8869,1,0
256,192,8953,1,0
256,192,9037,1,0
48,32,9710,5,0
144,88,9879,1,4
24,280,10215,1,0
128,328,10384,1,4
224,128,10720,1,0
320,184,10888,1,0
360,288,11057,1,4
256,192,11393,12,0,12571
256,192,12740,12,0,13918
256,192,14086,5,0
256,192,14170,1,0
256,192,14254,1,0
256,192,14338,1,0
256,192,14423,1,0
88,192,14927,5,0
88,192,15012,1,0
88,192,15096,1,0
88,192,15180,1,0
416,192,15601,5,0
416,192,15685,1,0
416,192,15769,1,0
416,192,15853,1,0
416,192,15937,1,0
360,192,16106,5,0
360,192,16190,1,0
360,192,16274,1,0
360,192,16358,1,0
360,192,16442,1,0
360,80,16779,6,2,B|272:40|160:48|72:88,1,280
40,184,17788,2,2,B|24:264|88:328,2,140
88,80,18798,2,2,B|160:32|256:48,1,140
256,192,19471,5,8
256,192,19808,1,8
256,304,20145,2,2,B|344:304|344:208,1,140
256,80,20818,2,2,B|88:80|96:264,2,280
256,80,22248,1,0
256,80,22332,1,0
256,320,22669,1,0
256,320,22753,1,0
256,320,22837,1,0
128,192,23679,5,0
128,192,23763,1,0
128,192,23847,1,0
384,192,24184,1,0
384,192,24268,1,0
384,192,24352,1,0
352,56,24857,6,0,B|256:56,1,70
224,56,25193,2,0,B|136:56,1,70
136,112,25530,2,0,B|224:112,1,70
264,112,25867,2,0,B|360:112,1,70
352,168,26203,2,0,B|256:168,1,70
224,168,26540,2,0,B|120:168,1,70
136,224,26876,2,0,B|216:224,1,70
264,224,27213,2,0,B|336:224,1,70
392,224,27549,6,2,B|432:224|432:368|256:368|112:368|112:224|152:224,1,420
256,192,28896,6,2,B|376:192|376:0|56:0|56:112,1,420
112,192,30242,5,8
112,192,30579,1,8
144,80,30915,2,2,B|232:80|232:168,1,140
232,280,31589,2,2,B|232:376|448:376|440:280,2,280
232,280,33019,1,0
232,280,33103,1,0
256,168,33440,1,0
256,168,33524,1,0
256,168,33608,1,0
128,192,34449,5,0
128,192,34534,1,0
128,192,34618,1,0
384,192,34954,1,0
384,192,35039,1,0
384,192,35123,1,0
320,72,35628,6,2,B|256:32|184:72,1,140,2|2
240,96,36132,6,2,B|280:160|240:232,1,140
192,192,36637,6,2,B|256:152|328:192,1,140
288,232,37142,6,10,B|248:168|288:96,1,140,2|2
256,144,37647,5,8
256,144,37984,1,8
368,144,38320,6,2,B|368:216|256:216|152:216|152:136,1,280
256,96,39330,6,2,B|256:264,1,140
256,192,40634,5,0
256,192,40718,1,0
256,192,40803,1,0
256,192,40887,1,0
256,192,40971,1,0
224,72,41350,2,2,B|136:72|136:160,2,140
360,136,42359,6,2,B|360:312|184:312,2,280
256,192,43790,12,4,45725
256,192,46020,5,0
256,192,46104,1,0
256,192,46188,1,0
256,192,46272,1,0
256,192,46356,2,0,B|352:192,1,87.5
368,152,46735,6,0,B|368:72,1,70
328,48,47072,2,0,B|240:48,1,70
216,88,47408,2,0,B|216:168,1,70
160,160,47745,2,0,B|64:160,1,70
80,216,48081,2,0,B|168:216,1,70
160,272,48418,2,0,B|80:272,1,70
88,328,48754,2,0,B|160:328,1,70
216,328,49091,6,2,B|344:328|352:168|216:168,1,280
120,224,50101,6,2,B|72:224|72:112|120:112,1,140
256,192,51489,5,0
256,192,51573,1,0
256,192,51657,1,0
256,192,51742,1,0
256,192,51826,1,0
344,120,52120,6,2,B|408:152|360:200|432:224,2,140
232,88,53130,2,2,B|120:88|48:160|48:264,2,280
168,88,59525,5,0
168,88,59609,1,0
168,88,59694,1,0
168,88,59778,1,0
168,88,59862,2,0,B|240:88,1,70
248,144,60198,5,4
256,200,60367,6,0,B|256:280,1,70
304,240,60703,5,4
344,200,60872,6,0,B|344:280,1,70
304,240,61208,5,4
248,240,61376,5,0
192,240,61545,6,0,B|144:240|96:272,2,70,0|4|0
304,240,62218,2,0,B|368:240|368:152|304:152,1,140,4|0
200,152,62891,5,4
200,152,63059,1,4
272,64,63396,5,4
240,112,63564,6,0,B|328:112,1,70
344,160,63901,5,4
288,160,64069,6,0,B|192:160,1,70
192,208,64406,5,4
248,208,64574,6,0,B|328:208,1,70
376,208,64911,5,4
408,256,65079,5,0
352,256,65247,6,0,B|184:256,1,140,0|4
152,256,65752,6,0,B|96:192,1,70
104,144,66089,5,4
152,112,66257,6,0,B|152:200,1,70
192,144,66594,5,4
232,112,66762,6,0,B|232:208,3,70,0|0|4|0
232,296,67603,6,0,B|336:296|336:192,1,140,4|0
336,104,68276,1,4
336,104,68445,1,4
240,104,68739,5,4
112,216,69244,5,4
240,320,69749,5,4
368,216,70254,5,4
240,216,70633,5,4
256,192,71137,12,2,73325
256,128,74672,5,0
208,152,74840,1,0
208,208,75008,1,0
256,240,75177,1,0
304,208,75345,1,0
304,152,75513,1,0
256,184,75681,5,2
256,184,75850,1,2
