osu file format v14

[General]
AudioFilename: Ops-Code -Rapture-.mp3
AudioLeadIn: 0
PreviewTime: 69100
Countdown: 0
SampleSet: Soft
StackLeniency: 0.7
Mode: 3
LetterboxInBreaks: 0
SpecialStyle: 0
WidescreenStoryboard: 0

[Editor]
DistanceSpacing: 0.8
BeatDivisor: 4
GridSize: 32
TimelineZoom: 1.9

[Metadata]
Title:Ops:Code-Rapture-
TitleUnicode:Ops:Code-Rapture-
Artist:Getty vs. DJ DiA
ArtistUnicode:Getty vs. DJ DiA
Creator:Fresh Chicken
Version:EXHAUST
Source:SOUND VOLTEX III GRAVITY WARS
Tags:PiraTom guineaQ Shirou SDVX konami bemani GRAVITATIONAL RADER EPISODE 05 grace
BeatmapID:784840
BeatmapSetID:356681

[Difficulty]
HPDrainRate:8
CircleSize:4
OverallDifficulty:8
ApproachRate:5
SliderMultiplier:1.4
SliderTickRate:1

[Events]
//Background and Video events
0,0,"443432432432.png",0,0
//Break Periods
//Storyboard Layer 0 (Background)
//Storyboard Layer 1 (Fail)
//Storyboard Layer 2 (Pass)
//Storyboard Layer 3 (Foreground)
//Storyboard Sound Samples

[TimingPoints]
1410,615.384615384615,4,2,1,40,1,0
1410,-50,4,2,1,40,0,0
10025,307.692307692308,4,2,1,40,1,0
29717,1230.76923076923,4,2,1,40,1,0
29717,-25,4,2,1,40,0,0
30947,307.692307692308,4,2,1,40,1,0
70331,-100,4,2,1,40,0,1
90023,-100,4,2,1,40,0,0

[HitObjects]
448,192,1410,5,2,0:0:0:0:
64,192,1410,128,8,2025:0:0:0:0:
320,192,1410,1,0,0:0:0:0:
192,192,2025,128,0,2486:0:0:0:0:
320,192,2486,128,0,2640:0:0:0:0:
448,192,2640,128,0,2948:0:0:0:0:
320,192,2948,128,0,3256:0:0:0:0:
448,192,3256,1,0,0:0:0:0:
320,192,3409,1,0,0:0:0:0:
192,192,3563,1,0,0:0:0:0:
64,192,3717,1,0,0:0:0:0:
448,192,3871,128,0,4179:0:0:0:0:
320,192,4179,128,0,4486:0:0:0:0:
64,192,4486,1,0,0:0:0:0:
192,192,4640,1,0,0:0:0:0:
320,192,4794,1,0,0:0:0:0:
448,192,4948,128,0,5409:0:0:0:0:
192,192,5409,1,0,0:0:0:0:
320,192,5563,1,0,0:0:0:0:
448,192,5717,1,0,0:0:0:0:
320,192,5871,1,0,0:0:0:0:
192,192,6025,1,0,0:0:0:0:
64,192,6179,1,0,0:0:0:0:
192,192,6333,128,0,6948:0:0:0:0:
320,192,6948,128,0,7409:0:0:0:0:
64,192,7409,128,0,7563:0:0:0:0:
192,192,7563,128,0,7871:0:0:0:0:
448,192,7871,128,0,8025:0:0:0:0:
320,192,8025,128,0,8179:0:0:0:0:
64,192,8179,1,0,0:0:0:0:
192,192,8333,1,0,0:0:0:0:
320,192,8486,1,0,0:0:0:0:
448,192,8640,1,0,0:0:0:0:
64,192,8794,128,0,10025:0:0:0:0:
448,192,10025,1,0,0:0:0:0:
448,192,10948,1,8,0:0:0:0:
320,192,10948,1,2,0:0:0:0:
64,192,10948,1,0,0:0:0:0:
192,192,11101,1,8,0:0:0:0:
64,192,11101,1,2,0:0:0:0:
448,192,11101,1,0,0:0:0:0:
448,192,11255,128,8,11409:0:0:0:0:
192,192,11255,1,0,0:0:0:0:
320,192,11255,1,0,0:0:0:0:
64,192,11563,1,8,0:0:0:0:
320,192,11563,128,0,11717:0:0:0:0:
192,192,11563,1,0,0:0:0:0:
192,192,11871,128,8,12025:0:0:0:0:
320,192,11871,1,0,0:0:0:0:
448,192,11871,1,0,0:0:0:0:
64,192,12178,128,8,12332:0:0:0:0:
320,192,12178,1,0,0:0:0:0:
192,192,12178,1,0,0:0:0:0:
448,192,12332,1,0,0:0:0:0:
64,192,12486,128,8,12640:0:0:0:0:
320,192,12486,1,0,0:0:0:0:
448,192,12486,1,0,0:0:0:0:
192,192,12794,128,8,12948:0:0:0:0:
448,192,12794,1,0,0:0:0:0:
64,192,12794,1,0,0:0:0:0:
448,192,13101,1,8,0:0:0:0:
320,192,13101,128,0,13255:0:0:0:0:
64,192,13101,1,0,0:0:0:0:
448,192,13409,128,8,13563:0:0:0:0:
192,192,13409,1,0,0:0:0:0:
64,192,13409,1,0,0:0:0:0:
320,192,13563,1,0,0:0:0:0:
64,192,13717,1,8,0:0:0:0:
448,192,13717,1,0,0:0:0:0:
192,192,13717,128,0,13871:0:0:0:0:
448,192,14025,1,8,0:0:0:0:
192,192,14025,1,0,0:0:0:0:
64,192,14025,128,0,14159:0:0:0:0:
448,192,14332,1,8,0:0:0:0:
64,192,14332,1,0,0:0:0:0:
320,192,14332,128,0,14486:0:0:0:0:
320,192,14640,1,8,0:0:0:0:
64,192,14640,1,0,0:0:0:0:
448,192,14640,128,0,14794:0:0:0:0:
192,192,14794,1,0,0:0:0:0:
192,192,14948,1,8,0:0:0:0:
320,192,14948,1,0,0:0:0:0:
64,192,14948,128,0,15082:0:0:0:0:
320,192,15255,1,8,0:0:0:0:
64,192,15255,1,0,0:0:0:0:
192,192,15255,128,0,15409:0:0:0:0:
192,192,15563,1,8,0:0:0:0:
320,192,15563,1,0,0:0:0:0:
448,192,15563,128,0,15717:0:0:0:0:
64,192,15717,1,0,0:0:0:0:
320,192,15871,128,8,16025:0:0:0:0:
448,192,15871,1,0,0:0:0:0:
192,192,15871,1,0,0:0:0:0:
64,192,16025,1,0,0:0:0:0:
448,192,16178,128,8,16332:0:0:0:0:
320,192,16178,1,0,0:0:0:0:
192,192,16178,1,0,0:0:0:0:
448,192,16486,128,8,16640:0:0:0:0:
192,192,16486,1,0,0:0:0:0:
64,192,16486,1,0,0:0:0:0:
448,192,16794,128,8,16948:0:0:0:0:
320,192,16794,1,0,0:0:0:0:
192,192,16794,1,0,0:0:0:0:
448,192,17101,128,8,17255:0:0:0:0:
192,192,17101,1,0,0:0:0:0:
64,192,17101,1,0,0:0:0:0:
320,192,17255,1,0,0:0:0:0:
64,192,17409,128,8,17563:0:0:0:0:
192,192,17409,1,0,0:0:0:0:
320,192,17409,1,0,0:0:0:0:
64,192,17717,128,8,17871:0:0:0:0:
320,192,17717,1,0,0:0:0:0:
448,192,17717,1,0,0:0:0:0:
64,192,18025,128,8,18178:0:0:0:0:
320,192,18025,1,0,0:0:0:0:
192,192,18025,1,0,0:0:0:0:
64,192,18332,128,8,18486:0:0:0:0:
320,192,18332,1,0,0:0:0:0:
448,192,18332,1,0,0:0:0:0:
192,192,18486,1,0,0:0:0:0:
448,192,18640,128,8,18794:0:0:0:0:
64,192,18640,1,0,0:0:0:0:
192,192,18640,1,0,0:0:0:0:
320,192,18794,1,0,0:0:0:0:
192,192,18794,1,0,0:0:0:0:
448,192,18948,1,8,0:0:0:0:
320,192,18948,1,0,0:0:0:0:
64,192,18948,128,0,19101:0:0:0:0:
192,192,19101,1,0,0:0:0:0:
320,192,19101,1,0,0:0:0:0:
192,192,19255,1,8,0:0:0:0:
320,192,19332,1,0,0:0:0:0:
64,192,19409,1,0,0:0:0:0:
448,192,19486,1,0,0:0:0:0:
192,192,19563,1,8,0:0:0:0:
320,192,19640,1,0,0:0:0:0:
64,192,19717,1,0,0:0:0:0:
448,192,19794,1,0,0:0:0:0:
320,192,19871,1,8,0:0:0:0:
192,192,19871,1,0,0:0:0:0:
448,192,19948,1,0,0:0:0:0:
64,192,20025,1,0,0:0:0:0:
448,192,20101,1,0,0:0:0:0:
192,192,20178,1,0,0:0:0:0:
320,192,20255,1,0,0:0:0:0:
192,192,20332,1,0,0:0:0:0:
320,192,20409,1,0,0:0:0:0:
64,192,20486,1,0,0:0:0:0:
448,192,20563,1,0,0:0:0:0:
64,192,20640,1,0,0:0:0:0:
448,192,20717,1,0,0:0:0:0:
320,192,20794,1,8,0:0:0:0:
192,192,20794,1,2,0:0:0:0:
320,192,20948,1,2,0:0:0:0:
192,192,20948,1,8,0:0:0:0:
448,192,21101,1,0,0:0:0:0:
64,192,21101,1,0,0:0:0:0:
320,192,21255,1,0,0:0:0:0:
192,192,21409,1,0,0:0:0:0:
64,192,21563,1,0,0:0:0:0:
192,192,21640,1,0,0:0:0:0:
320,192,21717,1,0,0:0:0:0:
192,192,21794,1,0,0:0:0:0:
64,192,21871,1,0,0:0:0:0:
448,192,22025,1,0,0:0:0:0:
320,192,22178,1,0,0:0:0:0:
448,192,22332,1,0,0:0:0:0:
64,192,22332,1,0,0:0:0:0:
192,192,22486,1,0,0:0:0:0:
320,192,22640,1,0,0:0:0:0:
448,192,22794,1,0,0:0:0:0:
320,192,22871,1,0,0:0:0:0:
192,192,22948,1,0,0:0:0:0:
320,192,23025,1,0,0:0:0:0:
448,192,23101,1,0,0:0:0:0:
64,192,23255,1,0,0:0:0:0:
192,192,23409,1,0,0:0:0:0:
448,192,23563,1,0,0:0:0:0:
64,192,23563,1,0,0:0:0:0:
192,192,23717,1,0,0:0:0:0:
448,192,23871,1,0,0:0:0:0:
192,192,24025,1,0,0:0:0:0:
320,192,24101,1,0,0:0:0:0:
192,192,24178,1,0,0:0:0:0:
320,192,24255,1,0,0:0:0:0:
192,192,24332,1,0,0:0:0:0:
448,192,24486,1,0,0:0:0:0:
320,192,24640,1,0,0:0:0:0:
448,192,24794,1,0,0:0:0:0:
64,192,24794,1,0,0:0:0:0:
320,192,24948,1,0,0:0:0:0:
448,192,25101,1,0,0:0:0:0:
320,192,25255,1,0,0:0:0:0:
192,192,25332,1,0,0:0:0:0:
320,192,25409,1,0,0:0:0:0:
192,192,25486,1,0,0:0:0:0:
320,192,25563,1,0,0:0:0:0:
448,192,25717,1,0,0:0:0:0:
192,192,25871,1,0,0:0:0:0:
448,192,26025,1,0,0:0:0:0:
64,192,26025,1,0,0:0:0:0:
320,192,26178,1,0,0:0:0:0:
192,192,26332,1,0,0:0:0:0:
64,192,26486,1,0,0:0:0:0:
192,192,26563,1,0,0:0:0:0:
320,192,26640,1,0,0:0:0:0:
448,192,26640,1,0,0:0:0:0:
192,192,26794,1,0,0:0:0:0:
320,192,26948,1,0,0:0:0:0:
448,192,27101,1,0,0:0:0:0:
320,192,27178,1,0,0:0:0:0:
192,192,27255,1,0,0:0:0:0:
64,192,27255,1,0,0:0:0:0:
320,192,27409,1,0,0:0:0:0:
192,192,27563,1,0,0:0:0:0:
320,192,27717,1,0,0:0:0:0:
192,192,27794,1,0,0:0:0:0:
448,192,27871,1,0,0:0:0:0:
64,192,27871,1,0,0:0:0:0:
192,192,28025,1,0,0:0:0:0:
320,192,28178,1,0,0:0:0:0:
192,192,28332,1,0,0:0:0:0:
448,192,28409,1,0,0:0:0:0:
320,192,28486,1,0,0:0:0:0:
192,192,28563,1,0,0:0:0:0:
448,192,28640,1,0,0:0:0:0:
64,192,28717,1,0,0:0:0:0:
320,192,28794,1,0,0:0:0:0:
192,192,28871,1,0,0:0:0:0:
448,192,28948,1,0,0:0:0:0:
64,192,29025,1,0,0:0:0:0:
192,192,29101,1,0,0:0:0:0:
320,192,29178,1,0,0:0:0:0:
64,192,29255,1,0,0:0:0:0:
448,192,29332,1,0,0:0:0:0:
192,192,29409,1,0,0:0:0:0:
320,192,29486,1,0,0:0:0:0:
192,192,29563,1,0,0:0:0:0:
320,192,29640,1,0,0:0:0:0:
448,192,29717,1,8,0:0:0:0:
64,192,29717,1,0,0:0:0:0:
448,192,30640,1,8,0:0:0:0:
320,192,30640,1,2,0:0:0:0:
64,192,30640,1,0,0:0:0:0:
192,192,30793,1,2,0:0:0:0:
64,192,30793,1,8,0:0:0:0:
448,192,30793,1,0,0:0:0:0:
64,192,30947,128,8,31562:0:0:0:0:
320,192,30947,1,0,0:0:0:0:
448,192,30947,1,0,0:0:0:0:
320,192,31562,1,8,0:0:0:0:
448,192,31562,128,0,31793:0:0:0:0:
192,192,31793,1,8,0:0:0:0:
64,192,31793,1,0,0:0:0:0:
320,192,31870,1,8,0:0:0:0:
448,192,31870,1,0,0:0:0:0:
448,192,32023,1,0,0:0:0:0:
64,192,32023,1,0,0:0:0:0:
192,192,32177,1,8,0:0:0:0:
64,192,32177,1,0,0:0:0:0:
192,192,32331,1,0,0:0:0:0:
320,192,32485,1,8,0:0:0:0:
448,192,32485,1,0,0:0:0:0:
448,192,32639,1,0,0:0:0:0:
320,192,32793,1,8,0:0:0:0:
192,192,32793,1,0,0:0:0:0:
64,192,32947,1,0,0:0:0:0:
320,192,33023,1,8,0:0:0:0:
192,192,33023,1,0,0:0:0:0:
448,192,33100,1,8,0:0:0:0:
64,192,33100,1,0,0:0:0:0:
320,192,33254,1,8,0:0:0:0:
192,192,33408,1,8,0:0:0:0:
64,192,33408,1,0,0:0:0:0:
448,192,33408,128,0,34023:0:0:0:0:
320,192,34023,1,8,0:0:0:0:
64,192,34023,128,0,34254:0:0:0:0:
192,192,34254,1,8,0:0:0:0:
448,192,34254,1,0,0:0:0:0:
320,192,34331,1,8,0:0:0:0:
64,192,34331,1,0,0:0:0:0:
320,192,34485,1,0,0:0:0:0:
448,192,34485,1,0,0:0:0:0:
448,192,34639,1,8,0:0:0:0:
64,192,34639,1,0,0:0:0:0:
192,192,34793,1,0,0:0:0:0:
448,192,34947,1,8,0:0:0:0:
64,192,34947,1,0,0:0:0:0:
320,192,35100,1,0,0:0:0:0:
192,192,35254,1,8,0:0:0:0:
64,192,35254,1,0,0:0:0:0:
320,192,35408,1,0,0:0:0:0:
192,192,35485,1,8,0:0:0:0:
448,192,35485,1,0,0:0:0:0:
320,192,35562,1,8,0:0:0:0:
64,192,35562,1,0,0:0:0:0:
192,192,35716,1,8,0:0:0:0:
448,192,35870,128,8,36177:0:0:0:0:
64,192,35870,1,0,0:0:0:0:
320,192,36023,128,0,36177:0:0:0:0:
192,192,36177,128,8,36485:0:0:0:0:
64,192,36177,1,0,0:0:0:0:
448,192,36485,128,8,36716:0:0:0:0:
64,192,36485,1,0,0:0:0:0:
320,192,36716,1,8,0:0:0:0:
192,192,36716,1,0,0:0:0:0:
448,192,36793,1,8,0:0:0:0:
64,192,36793,1,0,0:0:0:0:
192,192,36947,1,0,0:0:0:0:
320,192,37100,1,8,0:0:0:0:
64,192,37100,1,0,0:0:0:0:
448,192,37254,1,0,0:0:0:0:
192,192,37408,1,8,0:0:0:0:
448,192,37408,1,0,0:0:0:0:
64,192,37562,1,0,0:0:0:0:
192,192,37716,1,8,0:0:0:0:
320,192,37716,1,0,0:0:0:0:
64,192,37870,1,0,0:0:0:0:
448,192,37947,1,8,0:0:0:0:
320,192,37947,1,0,0:0:0:0:
192,192,38023,1,8,0:0:0:0:
64,192,38023,1,0,0:0:0:0:
448,192,38177,1,0,0:0:0:0:
64,192,38331,1,8,0:0:0:0:
320,192,38331,1,0,0:0:0:0:
64,192,38485,128,0,38639:0:0:0:0:
192,192,38639,1,8,0:0:0:0:
448,192,38639,1,0,0:0:0:0:
320,192,38793,1,0,0:0:0:0:
320,192,38870,1,0,0:0:0:0:
64,192,38947,1,8,0:0:0:0:
448,192,38947,1,0,0:0:0:0:
192,192,39023,1,0,0:0:0:0:
64,192,39100,1,0,0:0:0:0:
192,192,39177,1,8,0:0:0:0:
448,192,39177,1,0,0:0:0:0:
64,192,39254,1,8,0:0:0:0:
320,192,39254,1,0,0:0:0:0:
448,192,39331,1,0,0:0:0:0:
320,192,39408,1,0,0:0:0:0:
192,192,39485,1,0,0:0:0:0:
448,192,39562,128,0,40177:0:0:0:0:
64,192,39562,1,0,0:0:0:0:
320,192,40177,1,8,0:0:0:0:
64,192,40177,1,0,0:0:0:0:
192,192,40177,128,0,40485:0:0:0:0:
448,192,40485,1,8,0:0:0:0:
64,192,40485,1,0,0:0:0:0:
320,192,40485,128,0,40793:0:0:0:0:
64,192,40793,128,8,41408:0:0:0:0:
192,192,40793,1,0,0:0:0:0:
448,192,40793,1,0,0:0:0:0:
320,192,41100,1,8,0:0:0:0:
448,192,41100,1,0,0:0:0:0:
192,192,41100,1,0,0:0:0:0:
448,192,41408,1,8,0:0:0:0:
320,192,41408,1,0,0:0:0:0:
192,192,41408,128,0,41639:0:0:0:0:
320,192,41639,1,8,0:0:0:0:
64,192,41639,1,0,0:0:0:0:
192,192,41716,1,8,0:0:0:0:
448,192,41716,1,0,0:0:0:0:
64,192,41870,1,0,0:0:0:0:
448,192,41870,1,0,0:0:0:0:
192,192,42023,1,8,0:0:0:0:
320,192,42023,1,0,0:0:0:0:
448,192,42023,1,0,0:0:0:0:
320,192,42177,1,0,0:0:0:0:
320,192,42331,1,8,0:0:0:0:
192,192,42331,1,0,0:0:0:0:
64,192,42331,1,0,0:0:0:0:
192,192,42485,1,0,0:0:0:0:
320,192,42639,1,8,0:0:0:0:
448,192,42639,1,0,0:0:0:0:
64,192,42639,1,0,0:0:0:0:
320,192,42793,1,0,0:0:0:0:
192,192,42870,1,8,0:0:0:0:
64,192,42870,1,0,0:0:0:0:
320,192,42947,1,8,0:0:0:0:
448,192,42947,1,0,0:0:0:0:
64,192,43100,1,0,0:0:0:0:
448,192,43100,1,0,0:0:0:0:
448,192,43254,128,8,43870:0:0:0:0:
320,192,43254,1,0,0:0:0:0:
64,192,43254,1,0,0:0:0:0:
320,192,43562,1,8,0:0:0:0:
192,192,43562,1,0,0:0:0:0:
64,192,43562,1,0,0:0:0:0:
64,192,43870,1,8,0:0:0:0:
192,192,43870,1,0,0:0:0:0:
320,192,43870,128,0,44100:0:0:0:0:
448,192,44100,1,8,0:0:0:0:
192,192,44100,1,0,0:0:0:0:
320,192,44177,1,8,0:0:0:0:
64,192,44177,1,0,0:0:0:0:
448,192,44331,1,0,0:0:0:0:
64,192,44331,1,0,0:0:0:0:
448,192,44485,1,8,0:0:0:0:
64,192,44485,1,0,0:0:0:0:
192,192,44485,1,0,0:0:0:0:
320,192,44639,1,0,0:0:0:0:
64,192,44793,1,8,0:0:0:0:
448,192,44793,1,0,0:0:0:0:
320,192,44793,1,0,0:0:0:0:
192,192,44947,1,0,0:0:0:0:
320,192,45100,1,8,0:0:0:0:
448,192,45100,1,0,0:0:0:0:
192,192,45100,1,0,0:0:0:0:
320,192,45254,1,0,0:0:0:0:
64,192,45331,1,8,0:0:0:0:
448,192,45331,1,0,0:0:0:0:
320,192,45408,1,8,0:0:0:0:
192,192,45408,1,0,0:0:0:0:
448,192,45562,1,0,0:0:0:0:
64,192,45562,1,0,0:0:0:0:
448,192,45716,1,8,0:0:0:0:
64,192,45716,1,0,0:0:0:0:
192,192,45716,1,0,0:0:0:0:
320,192,45870,1,8,0:0:0:0:
448,192,45870,1,0,0:0:0:0:
64,192,45870,1,0,0:0:0:0:
448,192,46023,1,8,0:0:0:0:
192,192,46023,128,0,46331:0:0:0:0:
64,192,46023,1,0,0:0:0:0:
64,192,46331,1,8,0:0:0:0:
448,192,46331,128,0,46562:0:0:0:0:
320,192,46562,1,8,0:0:0:0:
192,192,46562,1,0,0:0:0:0:
448,192,46639,1,8,0:0:0:0:
64,192,46639,1,0,0:0:0:0:
192,192,46793,1,0,0:0:0:0:
448,192,46793,1,0,0:0:0:0:
64,192,46947,1,8,0:0:0:0:
448,192,46947,1,0,0:0:0:0:
320,192,46947,1,0,0:0:0:0:
192,192,47100,1,0,0:0:0:0:
192,192,47254,1,8,0:0:0:0:
64,192,47254,1,0,0:0:0:0:
448,192,47254,1,0,0:0:0:0:
320,192,47408,1,0,0:0:0:0:
320,192,47562,1,8,0:0:0:0:
64,192,47562,1,0,0:0:0:0:
192,192,47562,1,0,0:0:0:0:
64,192,47716,1,0,0:0:0:0:
448,192,47793,1,8,0:0:0:0:
192,192,47793,1,0,0:0:0:0:
320,192,47870,1,8,0:0:0:0:
64,192,47870,1,0,0:0:0:0:
192,192,48023,1,0,0:0:0:0:
320,192,48023,1,0,0:0:0:0:
448,192,48023,1,0,0:0:0:0:
192,192,48177,1,8,0:0:0:0:
64,192,48177,128,0,48331:0:0:0:0:
320,192,48177,1,0,0:0:0:0:
448,192,48331,1,0,0:0:0:0:
320,192,48485,1,0,0:0:0:0:
192,192,48485,1,8,0:0:0:0:
448,192,48485,128,0,48639:0:0:0:0:
64,192,48639,1,0,0:0:0:0:
64,192,48793,128,8,48947:0:0:0:0:
320,192,48793,1,0,0:0:0:0:
448,192,48793,1,0,0:0:0:0:
192,192,48947,1,0,0:0:0:0:
192,192,49023,1,8,0:0:0:0:
448,192,49100,1,8,0:0:0:0:
320,192,49100,1,0,0:0:0:0:
64,192,49177,1,0,0:0:0:0:
192,192,49254,1,0,0:0:0:0:
320,192,49331,1,0,0:0:0:0:
448,192,49408,1,8,0:0:0:0:
64,192,49408,1,0,0:0:0:0:
192,192,49562,1,0,0:0:0:0:
320,192,49639,1,0,0:0:0:0:
64,192,49716,1,0,0:0:0:0:
192,192,49716,1,0,0:0:0:0:
448,192,49870,1,0,0:0:0:0:
320,192,49947,1,0,0:0:0:0:
192,192,50023,1,0,0:0:0:0:
64,192,50100,1,0,0:0:0:0:
448,192,50177,1,0,0:0:0:0:
448,192,50331,1,2,0:0:0:0:
320,192,50331,1,8,0:0:0:0:
64,192,50331,1,0,0:0:0:0:
192,192,50331,1,0,0:0:0:0:
448,192,50485,1,8,0:0:0:0:
320,192,50485,1,2,0:0:0:0:
192,192,50485,1,0,0:0:0:0:
64,192,50485,1,0,0:0:0:0:
320,192,50639,1,0,0:0:0:0:
64,192,50639,1,0,0:0:0:0:
192,192,50793,1,0,0:0:0:0:
320,192,50947,1,0,0:0:0:0:
448,192,51100,1,0,0:0:0:0:
192,192,51100,1,0,0:0:0:0:
64,192,51254,1,0,0:0:0:0:
448,192,51408,1,0,0:0:0:0:
192,192,51562,1,0,0:0:0:0:
320,192,51716,1,0,0:0:0:0:
448,192,51870,1,0,0:0:0:0:
320,192,52023,1,0,0:0:0:0:
192,192,52177,1,0,0:0:0:0:
64,192,52331,1,0,0:0:0:0:
192,192,52485,1,0,0:0:0:0:
320,192,52639,1,0,0:0:0:0:
64,192,52793,1,0,0:0:0:0:
448,192,52947,1,0,0:0:0:0:
192,192,53100,1,0,0:0:0:0:
320,192,53100,1,0,0:0:0:0:
448,192,53254,1,0,0:0:0:0:
64,192,53408,1,0,0:0:0:0:
320,192,53562,1,0,0:0:0:0:
192,192,53562,1,0,0:0:0:0:
448,192,53716,1,0,0:0:0:0:
192,192,53870,1,0,0:0:0:0:
64,192,54023,1,0,0:0:0:0:
320,192,54177,1,0,0:0:0:0:
192,192,54331,1,0,0:0:0:0:
448,192,54485,1,0,0:0:0:0:
320,192,54639,1,0,0:0:0:0:
192,192,54793,1,0,0:0:0:0:
64,192,54947,1,0,0:0:0:0:
192,192,55100,1,0,0:0:0:0:
320,192,55254,1,0,0:0:0:0:
448,192,55408,1,0,0:0:0:0:
64,192,55562,1,0,0:0:0:0:
320,192,55562,1,0,0:0:0:0:
192,192,55716,1,0,0:0:0:0:
320,192,55870,1,0,0:0:0:0:
448,192,56023,1,0,0:0:0:0:
64,192,56023,1,0,0:0:0:0:
192,192,56177,1,0,0:0:0:0:
320,192,56331,1,0,0:0:0:0:
448,192,56485,1,0,0:0:0:0:
64,192,56639,1,0,0:0:0:0:
192,192,56793,1,0,0:0:0:0:
448,192,56947,1,0,0:0:0:0:
64,192,57100,1,0,0:0:0:0:
320,192,57254,1,0,0:0:0:0:
192,192,57408,1,0,0:0:0:0:
448,192,57562,1,0,0:0:0:0:
320,192,57716,1,0,0:0:0:0:
64,192,57870,1,0,0:0:0:0:
448,192,58023,1,0,0:0:0:0:
192,192,58023,1,0,0:0:0:0:
320,192,58177,1,0,0:0:0:0:
192,192,58331,1,0,0:0:0:0:
64,192,58485,1,0,0:0:0:0:
448,192,58485,1,0,0:0:0:0:
320,192,58639,1,0,0:0:0:0:
192,192,58793,1,0,0:0:0:0:
64,192,58947,1,0,0:0:0:0:
448,192,59100,1,0,0:0:0:0:
320,192,59254,1,8,0:0:0:0:
192,192,59254,128,0,60177:0:0:0:0:
64,192,59408,1,0,0:0:0:0:
448,192,59562,1,0,0:0:0:0:
64,192,59716,1,0,0:0:0:0:
448,192,59870,1,0,0:0:0:0:
320,192,60023,1,0,0:0:0:0:
320,192,60177,1,2,0:0:0:0:
448,192,60177,1,8,0:0:0:0:
64,192,60177,1,0,0:0:0:0:
192,192,60331,1,2,0:0:0:0:
64,192,60331,1,8,0:0:0:0:
448,192,60331,1,0,0:0:0:0:
64,192,60485,128,8,61408:0:0:0:0:
320,192,60485,1,0,0:0:0:0:
448,192,60485,1,0,0:0:0:0:
320,192,60793,1,8,0:0:0:0:
448,192,60793,1,0,0:0:0:0:
320,192,61100,1,8,0:0:0:0:
448,192,61100,1,0,0:0:0:0:
192,192,61408,1,8,0:0:0:0:
448,192,61408,1,0,0:0:0:0:
320,192,61485,1,0,0:0:0:0:
192,192,61562,1,0,0:0:0:0:
320,192,61639,1,0,0:0:0:0:
448,192,61716,128,8,62639:0:0:0:0:
192,192,61716,1,0,0:0:0:0:
64,192,61716,1,0,0:0:0:0:
192,192,62023,1,8,0:0:0:0:
64,192,62023,1,0,0:0:0:0:
192,192,62331,1,8,0:0:0:0:
64,192,62331,1,0,0:0:0:0:
320,192,62639,1,8,0:0:0:0:
64,192,62639,1,0,0:0:0:0:
192,192,62716,1,0,0:0:0:0:
320,192,62793,1,0,0:0:0:0:
192,192,62870,1,0,0:0:0:0:
320,192,62947,128,8,63408:0:0:0:0:
448,192,62947,1,0,0:0:0:0:
64,192,62947,1,0,0:0:0:0:
192,192,63254,1,8,0:0:0:0:
64,192,63254,1,0,0:0:0:0:
448,192,63408,1,0,0:0:0:0:
192,192,63485,1,0,0:0:0:0:
448,192,63562,1,8,0:0:0:0:
64,192,63562,1,0,0:0:0:0:
320,192,63562,128,0,64023:0:0:0:0:
448,192,63870,1,8,0:0:0:0:
64,192,63870,1,0,0:0:0:0:
192,192,64023,1,0,0:0:0:0:
320,192,64100,1,0,0:0:0:0:
64,192,64177,1,8,0:0:0:0:
192,192,64177,128,0,64485:0:0:0:0:
448,192,64177,1,0,0:0:0:0:
320,192,64331,1,0,0:0:0:0:
448,192,64485,1,8,0:0:0:0:
64,192,64485,1,0,0:0:0:0:
192,192,64562,1,0,0:0:0:0:
320,192,64639,1,0,0:0:0:0:
192,192,64716,1,0,0:0:0:0:
448,192,64793,1,8,0:0:0:0:
320,192,64793,1,0,0:0:0:0:
64,192,64870,1,0,0:0:0:0:
192,192,64947,1,0,0:0:0:0:
320,192,65023,1,0,0:0:0:0:
192,192,65100,1,8,0:0:0:0:
64,192,65100,1,0,0:0:0:0:
448,192,65177,1,0,0:0:0:0:
320,192,65254,1,0,0:0:0:0:
192,192,65331,1,0,0:0:0:0:
320,192,65408,1,8,0:0:0:0:
448,192,65408,1,0,0:0:0:0:
64,192,65408,1,0,0:0:0:0:
320,192,65562,1,8,0:0:0:0:
192,192,65562,1,0,0:0:0:0:
192,192,65716,1,8,0:0:0:0:
64,192,65716,1,0,0:0:0:0:
448,192,65870,1,8,0:0:0:0:
64,192,65870,1,0,0:0:0:0:
192,192,66023,1,8,0:0:0:0:
64,192,66023,1,0,0:0:0:0:
448,192,66023,1,0,0:0:0:0:
192,192,66177,1,8,0:0:0:0:
320,192,66177,1,0,0:0:0:0:
320,192,66331,1,8,0:0:0:0:
448,192,66331,1,0,0:0:0:0:
448,192,66485,1,8,0:0:0:0:
64,192,66485,1,0,0:0:0:0:
320,192,66639,1,8,0:0:0:0:
192,192,66639,1,0,0:0:0:0:
64,192,66639,1,0,0:0:0:0:
320,192,66793,1,8,0:0:0:0:
448,192,66793,1,0,0:0:0:0:
448,192,66947,1,8,0:0:0:0:
64,192,66947,1,0,0:0:0:0:
192,192,67100,1,8,0:0:0:0:
64,192,67100,1,0,0:0:0:0:
192,192,67254,1,8,0:0:0:0:
320,192,67254,1,0,0:0:0:0:
448,192,67254,1,0,0:0:0:0:
448,192,67408,1,8,0:0:0:0:
320,192,67408,1,0,0:0:0:0:
64,192,67562,1,8,0:0:0:0:
192,192,67562,1,0,0:0:0:0:
192,192,67716,1,8,0:0:0:0:
320,192,67716,1,0,0:0:0:0:
320,192,67870,1,8,0:0:0:0:
192,192,67947,1,8,0:0:0:0:
448,192,68023,1,8,0:0:0:0:
64,192,68100,1,8,0:0:0:0:
320,192,68177,1,8,0:0:0:0:
192,192,68254,1,8,0:0:0:0:
448,192,68331,1,8,0:0:0:0:
64,192,68408,1,8,0:0:0:0:
448,192,68485,1,8,0:0:0:0:
320,192,68485,1,0,0:0:0:0:
192,192,68562,1,8,0:0:0:0:
64,192,68562,1,0,0:0:0:0:
320,192,68639,1,8,0:0:0:0:
448,192,68639,1,0,0:0:0:0:
192,192,68716,1,8,0:0:0:0:
64,192,68716,1,0,0:0:0:0:
320,192,68793,1,8,0:0:0:0:
448,192,68793,1,0,0:0:0:0:
192,192,68870,1,8,0:0:0:0:
64,192,68870,1,0,0:0:0:0:
448,192,68947,1,8,0:0:0:0:
320,192,68947,1,0,0:0:0:0:
64,192,69023,1,8,0:0:0:0:
192,192,69023,1,0,0:0:0:0:
320,192,69100,1,8,0:0:0:0:
448,192,69100,128,0,69716:0:0:0:0:
192,192,69716,1,2,0:0:0:0:
320,192,69716,1,8,0:0:0:0:
64,192,69716,1,0,0:0:0:0:
192,192,69947,1,8,0:0:0:0:
320,192,69947,1,2,0:0:0:0:
448,192,69947,1,0,0:0:0:0:
192,192,70177,1,8,0:0:0:0:
320,192,70177,1,2,0:0:0:0:
64,192,70177,1,0,0:0:0:0:
448,192,70331,1,2,0:0:0:0:
64,192,70331,1,8,0:0:0:0:
192,192,70408,1,0,0:0:0:0:
320,192,70485,1,0,0:0:0:0:
64,192,70562,1,0,0:0:0:0:
320,192,70639,1,10,0:0:0:0:
448,192,70639,1,0,0:0:0:0:
192,192,70716,1,0,0:0:0:0:
448,192,70793,1,0,0:0:0:0:
320,192,70870,1,0,0:0:0:0:
448,192,70947,1,8,0:0:0:0:
192,192,70947,1,0,0:0:0:0:
64,192,71023,1,0,0:0:0:0:
192,192,71100,1,0,0:0:0:0:
320,192,71177,1,0,0:0:0:0:
448,192,71254,1,10,0:0:0:0:
64,192,71254,1,0,0:0:0:0:
320,192,71331,1,0,0:0:0:0:
192,192,71408,1,0,0:0:0:0:
64,192,71485,1,0,0:0:0:0:
320,192,71562,1,8,0:0:0:0:
448,192,71562,1,0,0:0:0:0:
64,192,71639,1,0,0:0:0:0:
192,192,71716,1,0,0:0:0:0:
320,192,71793,1,0,0:0:0:0:
448,192,71870,1,10,0:0:0:0:
64,192,71870,1,0,0:0:0:0:
192,192,71947,1,0,0:0:0:0:
320,192,72023,1,0,0:0:0:0:
448,192,72100,1,0,0:0:0:0:
320,192,72177,1,8,0:0:0:0:
64,192,72177,1,0,0:0:0:0:
448,192,72254,1,0,0:0:0:0:
320,192,72331,1,0,0:0:0:0:
64,192,72408,1,0,0:0:0:0:
192,192,72485,1,10,0:0:0:0:
448,192,72485,1,0,0:0:0:0:
64,192,72562,1,0,0:0:0:0:
192,192,72639,1,0,0:0:0:0:
448,192,72716,1,0,0:0:0:0:
320,192,72793,1,8,0:0:0:0:
64,192,72793,1,0,0:0:0:0:
448,192,72870,1,0,0:0:0:0:
192,192,72947,1,0,0:0:0:0:
64,192,73023,1,0,0:0:0:0:
448,192,73100,1,10,0:0:0:0:
192,192,73100,1,0,0:0:0:0:
320,192,73177,1,0,0:0:0:0:
64,192,73254,1,0,0:0:0:0:
448,192,73331,1,0,0:0:0:0:
64,192,73408,1,8,0:0:0:0:
320,192,73408,1,0,0:0:0:0:
192,192,73485,1,0,0:0:0:0:
448,192,73562,1,0,0:0:0:0:
192,192,73639,1,0,0:0:0:0:
448,192,73716,1,10,0:0:0:0:
64,192,73716,1,0,0:0:0:0:
192,192,73793,1,0,0:0:0:0:
320,192,73870,1,0,0:0:0:0:
448,192,73947,1,0,0:0:0:0:
192,192,74023,1,8,0:0:0:0:
64,192,74023,1,0,0:0:0:0:
320,192,74100,1,0,0:0:0:0:
448,192,74177,1,0,0:0:0:0:
192,192,74254,1,0,0:0:0:0:
448,192,74331,1,10,0:0:0:0:
64,192,74331,1,0,0:0:0:0:
320,192,74408,1,0,0:0:0:0:
192,192,74485,1,0,0:0:0:0:
64,192,74562,1,0,0:0:0:0:
192,192,74639,1,8,0:0:0:0:
320,192,74639,1,0,0:0:0:0:
448,192,74716,1,0,0:0:0:0:
64,192,74793,1,0,0:0:0:0:
320,192,74870,1,8,0:0:0:0:
192,192,74870,1,0,0:0:0:0:
448,192,74947,1,8,0:0:0:0:
64,192,74947,1,0,0:0:0:0:
192,192,75023,1,0,0:0:0:0:
448,192,75100,1,8,0:0:0:0:
64,192,75100,1,0,0:0:0:0:
320,192,75177,1,0,0:0:0:0:
448,192,75254,1,8,0:0:0:0:
64,192,75254,1,0,0:0:0:0:
320,192,75331,1,0,0:0:0:0:
192,192,75408,1,0,0:0:0:0:
64,192,75485,1,0,0:0:0:0:
192,192,75562,1,10,0:0:0:0:
320,192,75562,1,0,0:0:0:0:
64,192,75639,1,0,0:0:0:0:
448,192,75716,1,0,0:0:0:0:
192,192,75793,1,0,0:0:0:0:
320,192,75870,1,8,0:0:0:0:
64,192,75870,1,0,0:0:0:0:
448,192,75947,1,0,0:0:0:0:
192,192,76023,1,0,0:0:0:0:
320,192,76100,1,0,0:0:0:0:
64,192,76177,1,10,0:0:0:0:
192,192,76177,1,0,0:0:0:0:
448,192,76254,1,0,0:0:0:0:
192,192,76331,1,0,0:0:0:0:
448,192,76408,1,0,0:0:0:0:
320,192,76485,1,8,0:0:0:0:
64,192,76485,1,0,0:0:0:0:
192,192,76562,1,0,0:0:0:0:
448,192,76639,1,0,0:0:0:0:
320,192,76716,1,0,0:0:0:0:
448,192,76793,1,10,0:0:0:0:
64,192,76793,1,0,0:0:0:0:
192,192,76870,1,0,0:0:0:0:
448,192,76947,1,0,0:0:0:0:
320,192,77023,1,0,0:0:0:0:
192,192,77100,1,8,0:0:0:0:
64,192,77100,1,0,0:0:0:0:
448,192,77177,1,0,0:0:0:0:
192,192,77254,1,0,0:0:0:0:
64,192,77331,1,0,0:0:0:0:
320,192,77408,1,10,0:0:0:0:
448,192,77408,1,0,0:0:0:0:
192,192,77485,1,0,0:0:0:0:
64,192,77562,1,0,0:0:0:0:
448,192,77639,1,0,0:0:0:0:
192,192,77716,1,8,0:0:0:0:
320,192,77716,1,0,0:0:0:0:
64,192,77793,1,0,0:0:0:0:
448,192,77870,1,0,0:0:0:0:
192,192,77947,1,0,0:0:0:0:
320,192,78023,1,10,0:0:0:0:
64,192,78023,1,0,0:0:0:0:
192,192,78100,1,0,0:0:0:0:
448,192,78177,1,0,0:0:0:0:
320,192,78254,1,0,0:0:0:0:
192,192,78331,1,8,0:0:0:0:
64,192,78331,1,0,0:0:0:0:
320,192,78408,1,0,0:0:0:0:
448,192,78485,1,8,0:0:0:0:
192,192,78485,1,0,0:0:0:0:
64,192,78562,1,0,0:0:0:0:
320,192,78639,1,10,0:0:0:0:
448,192,78639,1,0,0:0:0:0:
192,192,78716,1,0,0:0:0:0:
320,192,78793,1,8,0:0:0:0:
64,192,78793,1,0,0:0:0:0:
192,192,78870,1,8,0:0:0:0:
448,192,78870,1,0,0:0:0:0:
320,192,78947,1,8,0:0:0:0:
64,192,78947,1,2,0:0:0:0:
192,192,79254,1,8,0:0:0:0:
320,192,79254,1,0,0:0:0:0:
192,192,79562,1,8,0:0:0:0:
448,192,79562,1,0,0:0:0:0:
320,192,79639,1,0,0:0:0:0:
192,192,79716,1,0,0:0:0:0:
320,192,79793,1,0,0:0:0:0:
448,192,79870,1,2,0:0:0:0:
64,192,79870,1,8,0:0:0:0:
192,192,79870,1,0,0:0:0:0:
320,192,80023,1,2,0:0:0:0:
448,192,80023,1,8,0:0:0:0:
64,192,80023,1,0,0:0:0:0:
320,192,80177,1,10,0:0:0:0:
192,192,80177,1,0,0:0:0:0:
64,192,80177,1,0,0:0:0:0:
448,192,80254,1,0,0:0:0:0:
320,192,80331,1,0,0:0:0:0:
64,192,80408,1,0,0:0:0:0:
320,192,80485,1,10,0:0:0:0:
448,192,80485,1,0,0:0:0:0:
192,192,80562,1,0,0:0:0:0:
64,192,80639,1,0,0:0:0:0:
448,192,80716,1,0,0:0:0:0:
320,192,80793,1,8,0:0:0:0:
64,192,80793,1,0,0:0:0:0:
192,192,80870,1,0,0:0:0:0:
448,192,80947,1,0,0:0:0:0:
192,192,81023,1,0,0:0:0:0:
448,192,81100,1,10,0:0:0:0:
64,192,81100,1,0,0:0:0:0:
320,192,81177,1,0,0:0:0:0:
192,192,81254,1,0,0:0:0:0:
64,192,81331,1,0,0:0:0:0:
448,192,81408,1,8,0:0:0:0:
320,192,81408,1,0,0:0:0:0:
192,192,81485,1,0,0:0:0:0:
64,192,81562,1,0,0:0:0:0:
448,192,81639,1,0,0:0:0:0:
320,192,81716,1,10,0:0:0:0:
192,192,81716,1,0,0:0:0:0:
448,192,81793,1,0,0:0:0:0:
320,192,81870,1,0,0:0:0:0:
192,192,81947,1,0,0:0:0:0:
448,192,82023,1,8,0:0:0:0:
64,192,82023,1,0,0:0:0:0:
192,192,82100,1,0,0:0:0:0:
448,192,82177,1,0,0:0:0:0:
64,192,82254,1,0,0:0:0:0:
320,192,82331,1,10,0:0:0:0:
192,192,82331,1,0,0:0:0:0:
448,192,82408,1,0,0:0:0:0:
192,192,82485,1,0,0:0:0:0:
64,192,82562,1,0,0:0:0:0:
320,192,82639,1,8,0:0:0:0:
448,192,82639,1,0,0:0:0:0:
64,192,82716,1,0,0:0:0:0:
448,192,82793,1,0,0:0:0:0:
320,192,82870,1,0,0:0:0:0:
192,192,82947,1,10,0:0:0:0:
64,192,82947,1,0,0:0:0:0:
320,192,83023,1,0,0:0:0:0:
448,192,83100,1,0,0:0:0:0:
320,192,83177,1,0,0:0:0:0:
192,192,83254,1,8,0:0:0:0:
64,192,83254,1,0,0:0:0:0:
448,192,83331,1,0,0:0:0:0:
64,192,83408,1,0,0:0:0:0:
192,192,83485,1,0,0:0:0:0:
320,192,83562,1,10,0:0:0:0:
448,192,83562,1,0,0:0:0:0:
192,192,83639,1,0,0:0:0:0:
448,192,83716,1,0,0:0:0:0:
64,192,83793,1,0,0:0:0:0:
192,192,83870,1,8,0:0:0:0:
448,192,83870,1,0,0:0:0:0:
320,192,83947,1,0,0:0:0:0:
64,192,84023,1,0,0:0:0:0:
192,192,84100,1,0,0:0:0:0:
320,192,84177,1,10,0:0:0:0:
448,192,84177,1,0,0:0:0:0:
64,192,84254,1,0,0:0:0:0:
448,192,84331,1,0,0:0:0:0:
192,192,84408,1,0,0:0:0:0:
320,192,84485,1,8,0:0:0:0:
64,192,84485,1,0,0:0:0:0:
192,192,84562,1,0,0:0:0:0:
320,192,84639,1,0,0:0:0:0:
448,192,84716,1,8,0:0:0:0:
192,192,84716,1,0,0:0:0:0:
320,192,84793,1,10,0:0:0:0:
64,192,84793,1,0,0:0:0:0:
448,192,84870,1,0,0:0:0:0:
64,192,84947,1,8,0:0:0:0:
192,192,84947,1,0,0:0:0:0:
320,192,85023,1,0,0:0:0:0:
448,192,85100,1,8,0:0:0:0:
192,192,85100,1,0,0:0:0:0:
64,192,85177,1,0,0:0:0:0:
448,192,85254,1,0,0:0:0:0:
320,192,85331,1,0,0:0:0:0:
192,192,85408,1,10,0:0:0:0:
64,192,85408,1,0,0:0:0:0:
320,192,85485,1,0,0:0:0:0:
448,192,85562,1,0,0:0:0:0:
64,192,85639,1,0,0:0:0:0:
320,192,85716,1,8,0:0:0:0:
448,192,85716,1,0,0:0:0:0:
192,192,85793,1,0,0:0:0:0:
320,192,85870,1,0,0:0:0:0:
448,192,85947,1,0,0:0:0:0:
64,192,86023,1,10,0:0:0:0:
320,192,86023,1,0,0:0:0:0:
192,192,86100,1,0,0:0:0:0:
320,192,86177,1,0,0:0:0:0:
448,192,86254,1,0,0:0:0:0:
192,192,86331,1,8,0:0:0:0:
64,192,86331,1,0,0:0:0:0:
320,192,86408,1,0,0:0:0:0:
448,192,86485,1,0,0:0:0:0:
192,192,86562,1,0,0:0:0:0:
448,192,86639,1,10,0:0:0:0:
64,192,86639,1,0,0:0:0:0:
320,192,86716,1,0,0:0:0:0:
192,192,86793,1,0,0:0:0:0:
448,192,86870,1,0,0:0:0:0:
320,192,86947,1,8,0:0:0:0:
64,192,86947,1,0,0:0:0:0:
448,192,87023,1,0,0:0:0:0:
320,192,87100,1,0,0:0:0:0:
64,192,87177,1,0,0:0:0:0:
192,192,87254,1,10,0:0:0:0:
448,192,87254,1,0,0:0:0:0:
320,192,87331,1,0,0:0:0:0:
64,192,87408,1,0,0:0:0:0:
192,192,87485,1,0,0:0:0:0:
320,192,87562,1,8,0:0:0:0:
448,192,87562,1,0,0:0:0:0:
64,192,87639,1,0,0:0:0:0:
192,192,87716,1,0,0:0:0:0:
320,192,87793,1,0,0:0:0:0:
64,192,87870,1,10,0:0:0:0:
192,192,87870,1,0,0:0:0:0:
320,192,87947,1,0,0:0:0:0:
448,192,88023,1,0,0:0:0:0:
192,192,88100,1,0,0:0:0:0:
64,192,88177,1,8,0:0:0:0:
320,192,88177,1,0,0:0:0:0:
448,192,88254,1,0,0:0:0:0:
192,192,88331,1,0,0:0:0:0:
64,192,88408,1,8,0:0:0:0:
448,192,88408,1,0,0:0:0:0:
320,192,88485,1,8,0:0:0:0:
192,192,88485,1,0,0:0:0:0:
448,192,88639,1,8,0:0:0:0:
64,192,88639,1,0,0:0:0:0:
320,192,88793,1,8,0:0:0:0:
192,192,88793,1,0,0:0:0:0:
64,192,88793,1,0,0:0:0:0:
448,192,88870,1,0,0:0:0:0:
320,192,88947,1,0,0:0:0:0:
192,192,89023,1,0,0:0:0:0:
64,192,89100,1,0,0:0:0:0:
192,192,89177,1,0,0:0:0:0:
320,192,89254,1,0,0:0:0:0:
448,192,89331,1,0,0:0:0:0:
320,192,89408,1,10,0:0:0:0:
192,192,89408,1,0,0:0:0:0:
64,192,89408,1,0,0:0:0:0:
448,192,89485,1,0,0:0:0:0:
320,192,89562,1,0,0:0:0:0:
192,192,89639,1,0,0:0:0:0:
320,192,89716,1,10,0:0:0:0:
448,192,89716,1,0,0:0:0:0:
64,192,89716,1,0,0:0:0:0:
192,192,89793,1,0,0:0:0:0:
320,192,89870,1,0,0:0:0:0:
192,192,89947,1,0,0:0:0:0:
320,192,90023,1,8,0:0:0:0:
448,192,90023,1,0,0:0:0:0:
64,192,90100,1,0,0:0:0:0:
192,192,90177,1,0,0:0:0:0:
64,192,90254,1,0,0:0:0:0:
320,192,90331,1,8,0:0:0:0:
448,192,90331,1,0,0:0:0:0:
64,192,90408,1,0,0:0:0:0:
320,192,90485,1,0,0:0:0:0:
448,192,90562,1,0,0:0:0:0:
320,192,90639,1,8,0:0:0:0:
192,192,90639,1,0,0:0:0:0:
64,192,90716,1,0,0:0:0:0:
448,192,90793,1,0,0:0:0:0:
192,192,90870,1,2,0:0:0:0:
64,192,90870,1,0,0:0:0:0:
320,192,90947,1,8,0:0:0:0:
448,192,90947,1,0,0:0:0:0:
64,192,91023,1,0,0:0:0:0:
320,192,91100,1,8,0:0:0:0:
192,192,91100,1,0,0:0:0:0:
448,192,91177,1,0,0:0:0:0:
192,192,91254,1,8,0:0:0:0:
64,192,91254,1,0,0:0:0:0:
448,192,91331,1,0,0:0:0:0:
320,192,91408,1,0,0:0:0:0:
448,192,91485,1,0,0:0:0:0:
64,192,91562,1,8,0:0:0:0:
192,192,91562,1,0,0:0:0:0:
448,192,91639,1,0,0:0:0:0:
192,192,91716,1,0,0:0:0:0:
64,192,91793,1,0,0:0:0:0:
320,192,91870,1,8,0:0:0:0:
192,192,91870,1,0,0:0:0:0:
448,192,91947,1,0,0:0:0:0:
64,192,92023,1,0,0:0:0:0:
448,192,92100,1,2,0:0:0:0:
320,192,92100,1,0,0:0:0:0:
64,192,92177,1,8,0:0:0:0:
192,192,92177,1,0,0:0:0:0:
448,192,92254,1,0,0:0:0:0:
192,192,92331,1,8,0:0:0:0:
320,192,92331,1,0,0:0:0:0:
320,192,92485,1,8,0:0:0:0:
64,192,92485,1,0,0:0:0:0:
192,192,92562,1,0,0:0:0:0:
448,192,92639,1,0,0:0:0:0:
192,192,92716,1,0,0:0:0:0:
320,192,92793,1,8,0:0:0:0:
64,192,92793,1,0,0:0:0:0:
448,192,92870,1,0,0:0:0:0:
192,192,92947,1,0,0:0:0:0:
448,192,93023,1,0,0:0:0:0:
320,192,93100,1,8,0:0:0:0:
64,192,93100,1,0,0:0:0:0:
192,192,93177,1,0,0:0:0:0:
448,192,93254,1,0,0:0:0:0:
320,192,93331,1,2,0:0:0:0:
192,192,93331,1,0,0:0:0:0:
448,192,93408,1,8,0:0:0:0:
64,192,93408,1,0,0:0:0:0:
320,192,93485,1,0,0:0:0:0:
192,192,93562,1,8,0:0:0:0:
448,192,93562,1,0,0:0:0:0:
320,192,93639,1,0,0:0:0:0:
448,192,93716,1,8,0:0:0:0:
192,192,93716,1,0,0:0:0:0:
320,192,93793,1,0,0:0:0:0:
64,192,93870,1,0,0:0:0:0:
320,192,93947,1,0,0:0:0:0:
448,192,94023,1,8,0:0:0:0:
192,192,94023,1,0,0:0:0:0:
64,192,94100,1,0,0:0:0:0:
320,192,94177,1,0,0:0:0:0:
64,192,94254,1,0,0:0:0:0:
192,192,94331,1,8,0:0:0:0:
448,192,94331,1,0,0:0:0:0:
320,192,94408,1,0,0:0:0:0:
64,192,94485,1,0,0:0:0:0:
320,192,94562,1,2,0:0:0:0:
192,192,94562,1,0,0:0:0:0:
64,192,94639,1,8,0:0:0:0:
448,192,94639,1,0,0:0:0:0:
192,192,94716,1,0,0:0:0:0:
64,192,94793,1,8,0:0:0:0:
320,192,94793,1,0,0:0:0:0:
192,192,94870,1,0,0:0:0:0:
448,192,94947,1,8,0:0:0:0:
64,192,94947,1,0,0:0:0:0:
320,192,95023,1,0,0:0:0:0:
192,192,95100,1,0,0:0:0:0:
320,192,95177,1,0,0:0:0:0:
448,192,95254,1,8,0:0:0:0:
64,192,95254,1,0,0:0:0:0:
192,192,95331,1,0,0:0:0:0:
320,192,95408,1,0,0:0:0:0:
192,192,95485,1,0,0:0:0:0:
448,192,95562,1,8,0:0:0:0:
64,192,95562,1,0,0:0:0:0:
320,192,95639,1,0,0:0:0:0:
192,192,95716,1,0,0:0:0:0:
448,192,95793,1,2,0:0:0:0:
64,192,95793,1,0,0:0:0:0:
320,192,95870,1,8,0:0:0:0:
192,192,95870,1,0,0:0:0:0:
448,192,95947,1,0,0:0:0:0:
192,192,96023,1,8,0:0:0:0:
64,192,96023,1,0,0:0:0:0:
320,192,96100,1,0,0:0:0:0:
64,192,96177,1,8,0:0:0:0:
448,192,96177,1,0,0:0:0:0:
192,192,96254,1,0,0:0:0:0:
320,192,96331,1,0,0:0:0:0:
192,192,96408,1,0,0:0:0:0:
64,192,96485,1,8,0:0:0:0:
448,192,96485,1,0,0:0:0:0:
320,192,96562,1,0,0:0:0:0:
192,192,96639,1,0,0:0:0:0:
320,192,96716,1,0,0:0:0:0:
64,192,96793,1,8,0:0:0:0:
448,192,96793,1,0,0:0:0:0:
192,192,96870,1,0,0:0:0:0:
448,192,96947,1,0,0:0:0:0:
320,192,97023,1,2,0:0:0:0:
192,192,97023,1,0,0:0:0:0:
448,192,97100,1,8,0:0:0:0:
64,192,97100,1,0,0:0:0:0:
320,192,97177,1,0,0:0:0:0:
192,192,97254,1,8,0:0:0:0:
448,192,97254,1,0,0:0:0:0:
64,192,97331,1,0,0:0:0:0:
320,192,97408,1,8,0:0:0:0:
192,192,97408,1,0,0:0:0:0:
448,192,97485,1,0,0:0:0:0:
320,192,97562,1,0,0:0:0:0:
64,192,97639,1,0,0:0:0:0:
192,192,97716,1,8,0:0:0:0:
448,192,97716,1,0,0:0:0:0:
320,192,97793,1,0,0:0:0:0:
448,192,97870,1,0,0:0:0:0:
192,192,97870,1,0,0:0:0:0:
64,192,97947,1,0,0:0:0:0:
320,192,98023,1,8,0:0:0:0:
192,192,98023,1,0,0:0:0:0:
448,192,98100,1,0,0:0:0:0:
320,192,98177,1,0,0:0:0:0:
192,192,98254,1,2,0:0:0:0:
64,192,98254,1,0,0:0:0:0:
320,192,98331,1,8,0:0:0:0:
448,192,98331,1,0,0:0:0:0:
192,192,98408,1,0,0:0:0:0:
448,192,98485,1,8,0:0:0:0:
64,192,98485,1,0,0:0:0:0:
320,192,98562,1,0,0:0:0:0:
64,192,98639,128,10,98947:0:0:0:0:
192,192,98639,1,0,0:0:0:0:
448,192,98639,1,0,0:0:0:0:
448,192,98947,128,10,99100:0:0:0:0:
192,192,98947,1,0,0:0:0:0:
64,192,99100,128,10,99254:0:0:0:0:
320,192,99100,1,0,0:0:0:0:
448,192,99254,128,10,99408:0:0:0:0:
192,192,99254,1,0,0:0:0:0:
320,192,99408,128,10,99562:0:0:0:0:
64,192,99408,1,0,0:0:0:0:
192,192,99562,128,10,99716:0:0:0:0:
448,192,99562,1,0,0:0:0:0:
64,192,99716,128,10,99870:0:0:0:0:
320,192,99716,1,0,0:0:0:0:
192,192,99870,128,8,100485:0:0:0:0:
448,192,99870,1,0,0:0:0:0:
320,192,100023,1,0,0:0:0:0:
448,192,100177,1,8,0:0:0:0:
64,192,100177,1,0,0:0:0:0:
320,192,100331,1,0,0:0:0:0:
320,192,100485,128,8,100947:0:0:0:0:
448,192,100485,1,0,0:0:0:0:
64,192,100639,1,0,0:0:0:0:
192,192,100716,1,2,0:0:0:0:
448,192,100793,1,8,0:0:0:0:
64,192,100793,1,0,0:0:0:0:
192,192,100947,128,0,101100:0:0:0:0:
448,192,100947,1,0,0:0:0:0:
64,192,101100,128,8,101408:0:0:0:0:
320,192,101100,1,0,0:0:0:0:
448,192,101254,1,0,0:0:0:0:
192,192,101408,128,8,101716:0:0:0:0:
320,192,101408,1,0,0:0:0:0:
448,192,101562,1,0,0:0:0:0:
320,192,101716,128,8,101870:0:0:0:0:
64,192,101716,1,0,0:0:0:0:
448,192,101870,128,0,102023:0:0:0:0:
192,192,101870,1,0,0:0:0:0:
64,192,101947,1,2,0:0:0:0:
320,192,102023,128,8,102177:0:0:0:0:
192,192,102023,1,0,0:0:0:0:
192,192,102177,128,8,102331:0:0:0:0:
448,192,102177,1,0,0:0:0:0:
64,192,102331,128,8,102639:0:0:0:0:
320,192,102331,1,0,0:0:0:0:
192,192,102485,1,0,0:0:0:0:
448,192,102639,128,8,102947:0:0:0:0:
320,192,102639,1,0,0:0:0:0:
192,192,102793,1,0,0:0:0:0:
64,192,102947,128,8,103100:0:0:0:0:
320,192,102947,1,0,0:0:0:0:
192,192,103100,128,0,103254:0:0:0:0:
448,192,103100,1,0,0:0:0:0:
64,192,103177,1,2,0:0:0:0:
320,192,103254,128,8,103408:0:0:0:0:
448,192,103254,1,0,0:0:0:0:
64,192,103331,1,0,0:0:0:0:
448,192,103408,128,8,103870:0:0:0:0:
192,192,103408,1,0,0:0:0:0:
320,192,103562,1,8,0:0:0:0:
64,192,103716,1,0,0:0:0:0:
320,192,103870,128,8,104177:0:0:0:0:
192,192,103870,1,0,0:0:0:0:
64,192,104023,1,0,0:0:0:0:
192,192,104177,128,8,104485:0:0:0:0:
448,192,104177,1,0,0:0:0:0:
64,192,104331,1,0,0:0:0:0:
320,192,104408,1,2,0:0:0:0:
64,192,104485,128,8,104793:0:0:0:0:
448,192,104485,1,0,0:0:0:0:
320,192,104562,1,0,0:0:0:0:
192,192,104639,1,8,0:0:0:0:
320,192,104716,1,0,0:0:0:0:
448,192,104793,128,8,105408:0:0:0:0:
192,192,104793,1,0,0:0:0:0:
320,192,104947,1,0,0:0:0:0:
192,192,105100,1,8,0:0:0:0:
64,192,105100,1,0,0:0:0:0:
320,192,105254,1,0,0:0:0:0:
192,192,105408,128,8,105870:0:0:0:0:
64,192,105408,1,0,0:0:0:0:
320,192,105562,1,0,0:0:0:0:
448,192,105639,1,2,0:0:0:0:
320,192,105716,1,8,0:0:0:0:
64,192,105716,1,0,0:0:0:0:
320,192,105870,128,8,106023:0:0:0:0:
64,192,105870,1,0,0:0:0:0:
448,192,106023,128,8,106331:0:0:0:0:
192,192,106023,1,0,0:0:0:0:
64,192,106177,1,0,0:0:0:0:
64,192,106331,128,8,106485:0:0:0:0:
320,192,106331,1,0,0:0:0:0:
192,192,106485,128,0,106639:0:0:0:0:
448,192,106485,1,0,0:0:0:0:
448,192,106639,128,8,106793:0:0:0:0:
320,192,106639,1,0,0:0:0:0:
320,192,106793,128,0,106947:0:0:0:0:
192,192,106793,1,0,0:0:0:0:
64,192,106870,1,2,0:0:0:0:
192,192,106947,128,8,107100:0:0:0:0:
448,192,106947,1,0,0:0:0:0:
64,192,107100,128,8,107254:0:0:0:0:
320,192,107100,1,0,0:0:0:0:
448,192,107254,128,8,108485:0:0:0:0:
192,192,107254,1,0,0:0:0:0:
320,192,107254,1,0,0:0:0:0:
192,192,107408,1,0,0:0:0:0:
320,192,107562,1,8,0:0:0:0:
64,192,107562,1,0,0:0:0:0:
192,192,107716,1,8,0:0:0:0:
320,192,107870,1,8,0:0:0:0:
64,192,107870,1,0,0:0:0:0:
192,192,108023,1,0,0:0:0:0:
320,192,108100,1,2,0:0:0:0:
192,192,108177,1,8,0:0:0:0:
64,192,108177,1,0,0:0:0:0:
64,192,108331,1,0,0:0:0:0:
320,192,108408,1,0,0:0:0:0:
192,192,108485,1,10,0:0:0:0:
64,192,108485,128,0,108639:0:0:0:0:
320,192,108562,1,0,0:0:0:0:
448,192,108639,1,10,0:0:0:0:
192,192,108639,128,0,108793:0:0:0:0:
320,192,108716,1,0,0:0:0:0:
64,192,108793,1,10,0:0:0:0:
448,192,108793,128,0,108947:0:0:0:0:
192,192,108870,1,0,0:0:0:0:
64,192,108947,1,10,0:0:0:0:
320,192,108947,128,0,109100:0:0:0:0:
448,192,109023,1,0,0:0:0:0:
64,192,109100,1,10,0:0:0:0:
192,192,109100,128,0,109408:0:0:0:0:
448,192,109177,1,0,0:0:0:0:
320,192,109254,1,10,0:0:0:0:
64,192,109331,1,0,0:0:0:0:
320,192,109408,1,10,0:0:0:0:
448,192,109408,1,0,0:0:0:0:
192,192,109562,1,10,0:0:0:0:
64,192,109562,1,0,0:0:0:0:
448,192,109716,1,10,0:0:0:0:
320,192,109716,1,10,0:0:0:0:
192,192,109716,1,0,0:0:0:0:
64,192,109716,1,0,0:0:0:0:
