osu file format v14

[General]
AudioFilename: audio.mp3
AudioLeadIn: 0
PreviewTime: 77616
Countdown: 0
SampleSet: Soft
StackLeniency: 0.7
Mode: 3
LetterboxInBreaks: 0
SpecialStyle: 0
WidescreenStoryboard: 0

[Editor]
Bookmarks: 80030
DistanceSpacing: 0.8
BeatDivisor: 4
GridSize: 32
TimelineZoom: 2

[Metadata]
Title:Fox4-Raize-
TitleUnicode:Fox4-Raize-
Artist:Getty vs. DJ DiA
ArtistUnicode:Getty vs. DJ DiA
Creator:Fresh Chicken
Version:ADVANCED
Source:SOUND VOLTEX III GRAVITY WARS
Tags:The 4th KAC Original Song Contest オリジナル楽曲コンテスト PSYCHO†HOLIC Pumpcore SDVX
BeatmapID:937378
BeatmapSetID:434405

[Difficulty]
HPDrainRate:7.5
CircleSize:4
OverallDifficulty:7.5
ApproachRate:5
SliderMultiplier:1.4
SliderTickRate:1

[Events]
//Background and Video events
0,0,"But I cant.png",0,0
//Break Periods
//Storyboard Layer 0 (Background)
//Storyboard Layer 1 (Fail)
//Storyboard Layer 2 (Pass)
//Storyboard Layer 3 (Foreground)
//Storyboard Sound Samples
Sample,95016,0,"Snare.wav",50
Sample,95091,0,"BaSS.wav",50
Sample,95166,0,"BaSS.wav",50
Sample,95241,0,"BaSS.wav",50
Sample,95316,0,"Snare.wav",50
Sample,95391,0,"BaSS.wav",50
Sample,95466,0,"Snare.wav",50
Sample,95541,0,"BaSS.wav",50
Sample,113466,0,"BaSS.wav",50
Sample,114441,0,"Snare.wav",50

[TimingPoints]
816,300,4,2,0,20,1,0
18816,1200,4,2,0,20,1,0
18816,-25,4,2,0,20,0,0
20016,300,4,2,0,20,1,0
58416,600,4,2,0,20,1,0
58416,-50,4,2,0,20,0,0
77616,300,4,2,0,20,1,1
96816,-100,4,2,0,20,0,0

[HitObjects]
64,192,816,5,0,0:0:0:50:BaSS.wav
448,192,816,1,0,0:0:0:0:
64,192,1041,1,0,0:0:0:0:
64,192,1266,1,0,0:0:0:0:
192,192,1491,1,0,0:0:0:0:
320,192,1566,1,0,0:0:0:0:
64,192,1716,1,0,0:0:0:0:
192,192,1791,1,0,0:0:0:0:
320,192,1866,1,0,0:0:0:0:
448,192,1941,1,0,0:0:0:0:
192,192,2016,1,0,0:0:0:0:
192,192,2241,1,0,0:0:0:0:
192,192,2466,1,0,0:0:0:0:
192,192,2691,1,0,0:0:0:0:
320,192,2766,1,0,0:0:0:0:
448,192,2916,1,0,0:0:0:0:
320,192,2991,1,0,0:0:0:0:
192,192,3066,1,0,0:0:0:0:
64,192,3141,1,0,0:0:0:0:
448,192,3216,1,0,0:0:0:0:
448,192,3441,1,0,0:0:0:0:
448,192,3666,1,0,0:0:0:0:
320,192,3891,1,0,0:0:0:0:
192,192,3966,1,0,0:0:0:0:
448,192,4116,1,0,0:0:0:0:
320,192,4191,1,0,0:0:0:0:
192,192,4266,1,0,0:0:0:0:
64,192,4341,1,0,0:0:0:0:
192,192,4416,1,0,0:0:0:0:
448,192,4491,1,0,0:0:0:0:
64,192,4566,1,0,0:0:0:0:
320,192,4641,1,0,0:0:0:0:
192,192,4716,1,0,0:0:0:0:
320,192,4866,1,0,0:0:0:0:
448,192,5016,128,0,5616:0:0:0:0:
64,192,5616,1,0,0:0:0:0:
64,192,5841,1,0,0:0:0:0:
64,192,6066,1,0,0:0:0:0:
192,192,6291,1,0,0:0:0:0:
64,192,6366,1,0,0:0:0:0:
448,192,6516,1,0,0:0:0:0:
320,192,6591,1,0,0:0:0:0:
192,192,6666,1,0,0:0:0:0:
64,192,6741,1,0,0:0:0:0:
448,192,6816,1,0,0:0:0:0:
448,192,7041,1,0,0:0:0:0:
448,192,7266,1,0,0:0:0:0:
320,192,7491,1,0,0:0:0:0:
448,192,7566,1,0,0:0:0:0:
64,192,7716,1,0,0:0:0:0:
192,192,7791,1,0,0:0:0:0:
320,192,7866,1,0,0:0:0:0:
448,192,7941,1,0,0:0:0:0:
192,192,8016,1,0,0:0:0:0:
192,192,8241,1,0,0:0:0:0:
192,192,8466,1,0,0:0:0:0:
320,192,8691,1,0,0:0:0:0:
192,192,8766,1,0,0:0:0:0:
448,192,8916,1,0,0:0:0:0:
320,192,8991,1,0,0:0:0:0:
192,192,9066,1,0,0:0:0:0:
64,192,9141,1,0,0:0:0:0:
448,192,9216,1,0,0:0:0:0:
192,192,9291,1,0,0:0:0:0:
320,192,9366,1,0,0:0:0:0:
64,192,9441,1,0,0:0:0:0:
448,192,9516,1,0,0:0:0:0:
192,192,9666,1,0,0:0:0:0:
64,192,9816,128,0,10416:0:0:0:0:
192,192,10416,1,0,0:0:0:50:BaSS.wav
448,192,10416,1,0,0:0:0:0:
320,192,10491,1,0,0:0:0:0:
64,192,10566,1,0,0:0:0:0:
448,192,10641,1,0,0:0:0:0:
64,192,10716,1,0,0:0:0:50:Snare.wav
192,192,10716,1,0,0:0:0:0:
448,192,10791,1,0,0:0:0:0:
320,192,10866,1,0,0:0:0:0:
192,192,10941,1,0,0:0:0:0:
64,192,11016,1,0,0:0:0:0:
192,192,11091,1,0,0:0:0:0:
320,192,11166,1,0,0:0:0:50:BaSS.wav
448,192,11241,1,0,0:0:0:0:
192,192,11316,1,0,0:0:0:50:Snare.wav
64,192,11316,1,0,0:0:0:0:
448,192,11391,1,0,0:0:0:0:
320,192,11466,1,0,0:0:0:0:
192,192,11541,1,0,0:0:0:0:
448,192,11616,1,0,0:0:0:50:BaSS.wav
64,192,11691,1,0,0:0:0:0:
192,192,11766,1,0,0:0:0:0:
320,192,11841,1,0,0:0:0:0:
64,192,11916,1,0,0:0:0:50:Snare.wav
448,192,11916,1,0,0:0:0:0:
320,192,11991,1,0,0:0:0:0:
192,192,12066,1,0,0:0:0:0:
448,192,12141,1,0,0:0:0:50:Snare.wav
64,192,12141,1,0,0:0:0:0:
192,192,12216,1,0,0:0:0:0:
320,192,12291,1,0,0:0:0:0:
64,192,12366,1,0,0:0:0:50:BaSS.wav
448,192,12441,1,0,0:0:0:0:
192,192,12516,1,0,0:0:0:50:Snare.wav
320,192,12516,1,0,0:0:0:0:
64,192,12591,1,0,0:0:0:0:
448,192,12666,1,0,0:0:0:0:
64,192,12741,1,0,0:0:0:0:
448,192,12816,1,0,0:0:0:50:BaSS.wav
320,192,12891,1,0,0:0:0:0:
192,192,12966,1,0,0:0:0:0:
64,192,13041,1,0,0:0:0:0:
320,192,13116,1,0,0:0:0:50:Snare.wav
448,192,13116,1,0,0:0:0:0:
192,192,13191,1,0,0:0:0:0:
64,192,13266,1,0,0:0:0:0:
448,192,13341,1,0,0:0:0:0:
192,192,13416,1,0,0:0:0:0:
320,192,13491,1,0,0:0:0:0:
64,192,13566,1,0,0:0:0:50:BaSS.wav
448,192,13641,1,0,0:0:0:0:
192,192,13716,1,0,0:0:0:50:Snare.wav
64,192,13716,1,0,0:0:0:0:
448,192,13791,1,0,0:0:0:0:
320,192,13866,1,0,0:0:0:0:
192,192,13941,1,0,0:0:0:0:
64,192,14016,1,0,0:0:0:50:BaSS.wav
192,192,14091,1,0,0:0:0:0:
320,192,14166,1,0,0:0:0:0:
192,192,14241,1,0,0:0:0:0:
448,192,14316,1,0,0:0:0:50:Snare.wav
64,192,14316,1,0,0:0:0:0:
320,192,14391,1,0,0:0:0:0:
192,192,14466,1,0,0:0:0:50:BaSS.wav
320,192,14541,1,0,0:0:0:0:
448,192,14616,1,0,0:0:0:50:Snare.wav
64,192,14616,1,0,0:0:0:0:
192,192,14691,1,0,0:0:0:0:
320,192,14766,1,0,0:0:0:50:BaSS.wav
448,192,14841,1,0,0:0:0:0:
64,192,14916,128,0,15216:0:0:0:0:
192,192,14916,1,0,0:0:0:0:
192,192,15216,1,0,0:0:0:50:Snare.wav
448,192,15216,1,0,0:0:0:0:
320,192,15291,1,0,0:0:0:0:
192,192,15366,1,0,0:0:0:0:
64,192,15441,1,0,0:0:0:0:
448,192,15516,1,0,0:0:0:50:Snare.wav
320,192,15591,1,0,0:0:0:0:
192,192,15666,1,0,0:0:0:0:
64,192,15741,1,0,0:0:0:0:
448,192,15816,1,0,0:0:0:50:Snare.wav
320,192,15891,1,0,0:0:0:0:
192,192,15966,1,0,0:0:0:0:
64,192,16041,1,0,0:0:0:0:
320,192,16116,1,0,0:0:0:50:Snare.wav
448,192,16116,1,0,0:0:0:0:
320,192,16266,1,0,0:0:0:50:Snare.wav
192,192,16341,1,0,0:0:0:50:Snare.wav
64,192,16416,1,0,0:0:0:50:Snare.wav
448,192,16416,1,0,0:0:0:0:
192,192,16491,1,0,0:0:0:0:
320,192,16566,1,0,0:0:0:0:
448,192,16641,1,0,0:0:0:0:
64,192,16716,1,0,0:0:0:50:Snare.wav
192,192,16791,1,0,0:0:0:0:
320,192,16866,1,0,0:0:0:0:
448,192,16941,1,0,0:0:0:0:
64,192,17016,1,0,0:0:0:50:Snare.wav
448,192,17166,1,0,0:0:0:50:Snare.wav
320,192,17241,1,0,0:0:0:50:Snare.wav
192,192,17316,128,0,17466:0:0:0:50:Snare.wav
448,192,17466,1,0,0:0:0:50:Snare.wav
320,192,17541,1,0,0:0:0:50:Snare.wav
64,192,17616,1,0,0:0:0:50:Snare.wav
448,192,17691,1,0,0:0:0:50:Snare.wav
192,192,17766,1,0,0:0:0:50:Snare.wav
320,192,17841,1,0,0:0:0:50:Snare.wav
64,192,17916,1,0,0:0:0:50:Snare.wav
448,192,17991,1,0,0:0:0:50:Snare.wav
192,192,18066,1,0,0:0:0:50:Snare.wav
320,192,18141,1,0,0:0:0:50:Snare.wav
192,192,18216,1,0,0:0:0:50:Snare.wav
448,192,18291,1,0,0:0:0:50:Snare.wav
64,192,18366,1,0,0:0:0:50:Snare.wav
320,192,18441,1,0,0:0:0:50:Snare.wav
192,192,18516,1,0,0:0:0:50:Snare.wav
448,192,18591,1,0,0:0:0:50:Snare.wav
64,192,18666,1,0,0:0:0:50:Snare.wav
320,192,18741,1,0,0:0:0:50:Snare.wav
192,192,18816,1,0,0:0:0:50:BaSS.wav
64,192,18816,1,0,0:0:0:0:
320,192,19716,1,0,0:0:0:50:Snare.wav
448,192,19716,1,0,0:0:0:50:BaSS.wav
192,192,19866,1,0,0:0:0:50:BaSS.wav
64,192,19866,1,0,0:0:0:50:Snare.wav
320,192,20016,128,0,20316:0:0:0:50:BaSS.wav
448,192,20016,128,0,20316:0:0:0:0:
192,192,20316,1,0,0:0:0:50:BaSS.wav
64,192,20316,1,0,0:0:0:0:
448,192,20466,128,0,20616:0:0:0:0:
320,192,20616,1,0,0:0:0:50:BaSS.wav
64,192,20616,1,0,0:0:0:0:
192,192,20766,1,0,0:0:0:0:
448,192,20916,1,0,0:0:0:50:BaSS.wav
64,192,20916,1,0,0:0:0:0:
320,192,21066,128,0,21216:0:0:0:0:
192,192,21216,1,0,0:0:0:50:BaSS.wav
448,192,21216,1,0,0:0:0:0:
64,192,21366,1,0,0:0:0:0:
320,192,21516,1,0,0:0:0:50:BaSS.wav
448,192,21516,1,0,0:0:0:0:
192,192,21666,128,0,21816:0:0:0:0:
448,192,21816,1,0,0:0:0:50:BaSS.wav
64,192,21816,1,0,0:0:0:0:
320,192,21916,1,0,0:0:0:0:
192,192,22016,1,0,0:0:0:0:
448,192,22116,1,0,0:0:0:0:
64,192,22116,1,0,0:0:0:50:BaSS.wav
448,192,22266,1,0,0:0:0:50:BaSS.wav
64,192,22266,1,0,0:0:0:0:
320,192,22416,128,0,22716:0:0:0:50:BaSS.wav
192,192,22416,128,0,22716:0:0:0:0:
448,192,22716,1,0,0:0:0:50:BaSS.wav
64,192,22716,1,0,0:0:0:0:
320,192,22866,128,0,23016:0:0:0:0:
448,192,23016,1,0,0:0:0:50:BaSS.wav
64,192,23016,1,0,0:0:0:0:
192,192,23166,1,0,0:0:0:0:
448,192,23316,1,0,0:0:0:50:BaSS.wav
64,192,23316,1,0,0:0:0:0:
192,192,23466,128,0,23616:0:0:0:0:
320,192,23616,1,0,0:0:0:50:BaSS.wav
64,192,23616,1,0,0:0:0:0:
448,192,23691,1,0,0:0:0:0:
320,192,23766,1,0,0:0:0:0:
192,192,23841,1,0,0:0:0:0:
448,192,23916,1,0,0:0:0:50:BaSS.wav
64,192,23916,1,0,0:0:0:0:
320,192,23991,1,0,0:0:0:0:
192,192,24066,1,0,0:0:0:50:BaSS.wav
64,192,24141,1,0,0:0:0:0:
320,192,24216,1,0,0:0:0:50:BaSS.wav
192,192,24291,1,0,0:0:0:0:
320,192,24366,1,0,0:0:0:50:BaSS.wav
192,192,24441,1,0,0:0:0:50:BaSS.wav
320,192,24516,1,0,0:0:0:50:BaSS.wav
320,192,24666,1,0,0:0:0:50:BaSS.wav
192,192,24816,128,0,25116:0:0:0:50:BaSS.wav
64,192,24816,128,0,25116:0:0:0:0:
448,192,25116,1,0,0:0:0:50:BaSS.wav
320,192,25116,1,0,0:0:0:0:
64,192,25266,128,0,25416:0:0:0:0:
448,192,25416,1,0,0:0:0:50:BaSS.wav
192,192,25416,1,0,0:0:0:0:
320,192,25566,1,0,0:0:0:0:
448,192,25716,1,0,0:0:0:50:BaSS.wav
64,192,25716,1,0,0:0:0:0:
192,192,25866,128,0,26016:0:0:0:0:
64,192,26016,1,0,0:0:0:50:BaSS.wav
320,192,26016,1,0,0:0:0:0:
448,192,26166,1,0,0:0:0:0:
192,192,26316,1,0,0:0:0:50:BaSS.wav
64,192,26316,1,0,0:0:0:0:
320,192,26466,128,0,26616:0:0:0:0:
64,192,26616,1,0,0:0:0:50:BaSS.wav
448,192,26616,1,0,0:0:0:0:
192,192,26716,1,0,0:0:0:0:
320,192,26816,1,0,0:0:0:0:
64,192,26916,1,0,0:0:0:0:
448,192,26916,1,0,0:0:0:50:BaSS.wav
64,192,27066,1,0,0:0:0:50:BaSS.wav
448,192,27066,1,0,0:0:0:0:
192,192,27216,128,0,27516:0:0:0:50:BaSS.wav
320,192,27216,128,0,27516:0:0:0:0:
448,192,27516,1,0,0:0:0:50:BaSS.wav
64,192,27516,1,0,0:0:0:0:
192,192,27666,1,0,0:0:0:50:BaSS.wav
320,192,27666,1,0,0:0:0:0:
64,192,27816,1,0,0:0:0:50:BaSS.wav
448,192,27816,1,0,0:0:0:0:
320,192,27966,1,0,0:0:0:0:
192,192,28041,1,0,0:0:0:50:BaSS.wav
448,192,28116,1,0,0:0:0:50:BaSS.wav
64,192,28116,1,0,0:0:0:0:
64,192,28266,1,0,0:0:0:0:
448,192,28266,1,0,0:0:0:50:BaSS.wav
192,192,28416,1,0,0:0:0:0:
320,192,28491,1,0,0:0:0:0:
64,192,28566,1,0,0:0:0:0:
448,192,28641,1,0,0:0:0:0:
64,192,28716,1,0,0:0:0:0:
448,192,28791,1,0,0:0:0:0:
192,192,28866,1,0,0:0:0:0:
320,192,28941,1,0,0:0:0:0:
64,192,29016,1,0,0:0:0:0:
448,192,29091,1,0,0:0:0:0:
192,192,29166,1,0,0:0:0:0:
320,192,29241,1,0,0:0:0:0:
448,192,29316,1,0,0:0:0:50:BaSS.wav
64,192,29316,1,0,0:0:0:50:Snare.wav
320,192,29616,128,0,29916:0:0:0:50:BaSS.wav
448,192,29616,128,0,29916:0:0:0:0:
192,192,29916,1,0,0:0:0:50:BaSS.wav
64,192,29916,1,0,0:0:0:0:
448,192,30066,1,0,0:0:0:0:
320,192,30216,1,0,0:0:0:50:BaSS.wav
64,192,30216,1,0,0:0:0:0:
192,192,30366,1,0,0:0:0:0:
448,192,30516,1,0,0:0:0:50:BaSS.wav
64,192,30516,1,0,0:0:0:0:
320,192,30666,1,0,0:0:0:0:
192,192,30816,1,0,0:0:0:50:BaSS.wav
64,192,30816,1,0,0:0:0:0:
448,192,30966,1,0,0:0:0:0:
320,192,31116,1,0,0:0:0:50:BaSS.wav
192,192,31116,1,0,0:0:0:0:
64,192,31266,1,0,0:0:0:0:
192,192,31416,1,0,0:0:0:50:BaSS.wav
448,192,31416,1,0,0:0:0:0:
320,192,31491,1,0,0:0:0:0:
320,192,31641,1,0,0:0:0:0:
64,192,31716,128,0,31866:0:0:0:50:BaSS.wav
448,192,31716,1,0,0:0:0:0:
320,192,31866,1,0,0:0:0:50:BaSS.wav
192,192,31866,1,0,0:0:0:0:
448,192,32016,1,0,0:0:0:50:BaSS.wav
64,192,32016,1,0,0:0:0:0:
320,192,32166,1,0,0:0:0:0:
192,192,32316,1,0,0:0:0:50:BaSS.wav
64,192,32316,1,0,0:0:0:0:
448,192,32466,1,0,0:0:0:0:
320,192,32616,1,0,0:0:0:50:BaSS.wav
192,192,32616,1,0,0:0:0:0:
64,192,32766,1,0,0:0:0:0:
192,192,32916,1,0,0:0:0:50:BaSS.wav
448,192,32916,1,0,0:0:0:0:
64,192,33066,1,0,0:0:0:0:
320,192,33216,128,0,33366:0:0:0:50:BaSS.wav
192,192,33216,1,0,0:0:0:0:
448,192,33366,1,0,0:0:0:0:
192,192,33516,128,0,33666:0:0:0:50:BaSS.wav
320,192,33516,1,0,0:0:0:0:
64,192,33666,1,0,0:0:0:50:BaSS.wav
320,192,33816,1,0,0:0:0:50:BaSS.wav
448,192,33816,1,0,0:0:0:0:
192,192,33966,1,0,0:0:0:50:BaSS.wav
320,192,34041,1,0,0:0:0:50:BaSS.wav
448,192,34116,1,0,0:0:0:50:BaSS.wav
64,192,34116,1,0,0:0:0:0:
192,192,34266,1,0,0:0:0:50:BaSS.wav
320,192,34266,1,0,0:0:0:0:
64,192,34416,128,0,34716:0:0:0:50:BaSS.wav
448,192,34416,128,0,34716:0:0:0:0:
320,192,34716,1,0,0:0:0:50:BaSS.wav
192,192,34716,1,0,0:0:0:0:
448,192,34866,1,0,0:0:0:0:
320,192,35016,1,0,0:0:0:50:BaSS.wav
192,192,35016,1,0,0:0:0:0:
64,192,35166,1,0,0:0:0:0:
320,192,35316,1,0,0:0:0:50:BaSS.wav
192,192,35316,1,0,0:0:0:0:
448,192,35466,1,0,0:0:0:0:
192,192,35616,128,0,35916:0:0:0:50:BaSS.wav
320,192,35616,128,0,35916:0:0:0:0:
448,192,35916,1,0,0:0:0:50:BaSS.wav
64,192,35916,1,0,0:0:0:0:
320,192,36066,1,0,0:0:0:0:
448,192,36216,1,0,0:0:0:50:BaSS.wav
64,192,36216,1,0,0:0:0:0:
192,192,36366,1,0,0:0:0:0:
448,192,36516,1,0,0:0:0:50:BaSS.wav
64,192,36516,1,0,0:0:0:0:
320,192,36666,1,0,0:0:0:50:BaSS.wav
192,192,36666,1,0,0:0:0:0:
64,192,36816,1,0,0:0:0:50:BaSS.wav
192,192,36891,1,0,0:0:0:0:
320,192,36966,1,0,0:0:0:0:
448,192,37041,1,0,0:0:0:0:
64,192,37116,1,0,0:0:0:50:BaSS.wav
192,192,37191,1,0,0:0:0:0:
320,192,37266,1,0,0:0:0:50:BaSS.wav
448,192,37341,1,0,0:0:0:0:
192,192,37416,1,0,0:0:0:50:BaSS.wav
320,192,37491,1,0,0:0:0:0:
64,192,37566,1,0,0:0:0:0:
448,192,37641,1,0,0:0:0:50:BaSS.wav
192,192,37716,1,0,0:0:0:50:BaSS.wav
320,192,37791,1,0,0:0:0:0:
64,192,37866,1,0,0:0:0:50:BaSS.wav
448,192,37941,1,0,0:0:0:0:
192,192,38016,128,0,38316:0:0:0:0:
320,192,38316,1,0,0:0:0:0:
192,192,38541,1,0,0:0:0:50:Snare.wav
320,192,38616,1,0,0:0:0:50:Snare.wav
64,192,38691,1,0,0:0:0:50:Snare.wav
448,192,38766,1,0,0:0:0:50:Snare.wav
320,192,38916,1,0,0:0:0:50:BaSS.wav
64,192,38916,1,0,0:0:0:0:
448,192,39216,128,0,39816:0:0:0:50:BaSS.wav
320,192,39216,1,0,0:0:0:0:
192,192,39291,1,0,0:0:0:0:
64,192,39366,1,0,0:0:0:0:
320,192,39441,1,0,0:0:0:0:
192,192,39516,128,0,39816:0:0:0:0:
320,192,39816,1,0,0:0:0:50:Snare.wav
64,192,39816,1,0,0:0:0:0:
448,192,39966,1,0,0:0:0:0:
320,192,40041,1,0,0:0:0:0:
192,192,40116,1,0,0:0:0:0:
192,192,40266,1,0,0:0:0:0:
448,192,40416,1,0,0:0:0:50:BaSS.wav
64,192,40416,1,0,0:0:0:0:
320,192,40566,1,0,0:0:0:0:
320,192,40716,1,0,0:0:0:0:
192,192,40866,1,0,0:0:0:0:
448,192,41016,1,0,0:0:0:50:Snare.wav
320,192,41016,1,0,0:0:0:0:
64,192,41166,1,0,0:0:0:50:BaSS.wav
192,192,41166,1,0,0:0:0:0:
448,192,41316,128,0,41616:0:0:0:50:BaSS.wav
320,192,41316,1,0,0:0:0:0:
64,192,41616,128,0,42216:0:0:0:50:BaSS.wav
192,192,41616,1,0,0:0:0:0:
320,192,41691,1,0,0:0:0:0:
448,192,41766,1,0,0:0:0:0:
192,192,41841,1,0,0:0:0:0:
320,192,41916,1,0,0:0:0:0:
448,192,41991,1,0,0:0:0:0:
192,192,42066,1,0,0:0:0:0:
320,192,42141,1,0,0:0:0:0:
192,192,42216,1,0,0:0:0:50:Snare.wav
448,192,42216,1,0,0:0:0:0:
64,192,42366,1,0,0:0:0:0:
192,192,42441,1,0,0:0:0:0:
320,192,42516,1,0,0:0:0:0:
320,192,42666,1,0,0:0:0:0:
448,192,42816,1,0,0:0:0:50:BaSS.wav
64,192,42816,1,0,0:0:0:0:
192,192,42966,1,0,0:0:0:0:
320,192,43041,1,0,0:0:0:0:
448,192,43116,1,0,0:0:0:0:
192,192,43266,1,0,0:0:0:50:BaSS.wav
64,192,43266,1,0,0:0:0:0:
448,192,43416,1,0,0:0:0:50:Snare.wav
64,192,43416,1,0,0:0:0:0:
320,192,43491,1,0,0:0:0:0:
192,192,43566,1,0,0:0:0:50:BaSS.wav
320,192,43716,1,0,0:0:0:50:BaSS.wav
448,192,43716,128,0,44016:0:0:0:0:
64,192,44016,128,0,44316:0:0:0:50:BaSS.wav
192,192,44016,1,0,0:0:0:0:
320,192,44316,128,0,44616:0:0:0:50:BaSS.wav
448,192,44316,1,0,0:0:0:0:
192,192,44616,1,0,0:0:0:50:Snare.wav
64,192,44616,1,0,0:0:0:0:
320,192,44766,1,0,0:0:0:0:
192,192,44841,1,0,0:0:0:0:
64,192,44916,1,0,0:0:0:0:
64,192,45066,1,0,0:0:0:0:
320,192,45216,1,0,0:0:0:50:BaSS.wav
448,192,45216,1,0,0:0:0:0:
64,192,45366,1,0,0:0:0:0:
192,192,45441,1,0,0:0:0:0:
320,192,45516,1,0,0:0:0:0:
320,192,45666,1,0,0:0:0:50:BaSS.wav
192,192,45816,1,0,0:0:0:50:Snare.wav
64,192,45816,1,0,0:0:0:0:
192,192,45966,1,0,0:0:0:50:BaSS.wav
320,192,45966,1,0,0:0:0:0:
320,192,46116,1,0,0:0:0:50:Snare.wav
448,192,46116,1,0,0:0:0:0:
192,192,46266,1,0,0:0:0:50:Snare.wav
64,192,46266,1,0,0:0:0:0:
448,192,46416,1,0,0:0:0:50:BaSS.wav
64,192,46416,1,0,0:0:0:0:
320,192,46566,1,0,0:0:0:0:
192,192,46716,1,0,0:0:0:50:Snare.wav
448,192,46866,1,0,0:0:0:50:BaSS.wav
64,192,46866,1,0,0:0:0:0:
192,192,47016,1,0,0:0:0:0:
320,192,47166,1,0,0:0:0:50:Snare.wav
448,192,47316,1,0,0:0:0:50:BaSS.wav
64,192,47316,1,0,0:0:0:0:
320,192,47466,1,0,0:0:0:0:
192,192,47616,1,0,0:0:0:50:Snare.wav
448,192,47766,1,0,0:0:0:50:BaSS.wav
64,192,47766,1,0,0:0:0:0:
192,192,47916,1,0,0:0:0:0:
320,192,48066,1,0,0:0:0:50:Snare.wav
448,192,48216,1,0,0:0:0:50:BaSS.wav
64,192,48216,1,0,0:0:0:0:
320,192,48366,1,0,0:0:0:0:
192,192,48516,1,0,0:0:0:50:BaSS.wav
192,192,48666,1,0,0:0:0:50:BaSS.wav
64,192,48816,128,0,49116:0:0:0:50:BaSS.wav
448,192,48816,1,0,0:0:0:0:
192,192,48966,128,0,49116:0:0:0:0:
448,192,49116,1,0,0:0:0:50:Snare.wav
320,192,49116,1,0,0:0:0:0:
192,192,49266,1,0,0:0:0:0:
64,192,49416,1,0,0:0:0:0:
448,192,49566,1,0,0:0:0:50:BaSS.wav
320,192,49566,1,0,0:0:0:0:
192,192,49716,1,0,0:0:0:50:Snare.wav
64,192,49716,1,0,0:0:0:0:
448,192,49866,1,0,0:0:0:0:
320,192,50016,1,0,0:0:0:50:BaSS.wav
192,192,50016,1,0,0:0:0:0:
64,192,50166,1,0,0:0:0:0:
320,192,50316,1,0,0:0:0:50:Snare.wav
448,192,50316,1,0,0:0:0:0:
192,192,50466,1,0,0:0:0:0:
64,192,50616,1,0,0:0:0:0:
192,192,50766,1,0,0:0:0:50:BaSS.wav
320,192,50766,1,0,0:0:0:0:
448,192,50916,1,0,0:0:0:50:Snare.wav
64,192,50916,1,0,0:0:0:0:
192,192,51066,1,0,0:0:0:50:BaSS.wav
320,192,51066,1,0,0:0:0:0:
448,192,51216,1,0,0:0:0:50:BaSS.wav
64,192,51216,1,0,0:0:0:0:
192,192,51366,1,0,0:0:0:0:
320,192,51516,1,0,0:0:0:50:Snare.wav
64,192,51516,1,0,0:0:0:0:
448,192,51666,1,0,0:0:0:0:
192,192,51816,1,0,0:0:0:0:
448,192,51966,1,0,0:0:0:50:BaSS.wav
64,192,51966,1,0,0:0:0:0:
320,192,52116,1,0,0:0:0:50:Snare.wav
192,192,52116,1,0,0:0:0:0:
64,192,52266,1,0,0:0:0:0:
320,192,52416,1,0,0:0:0:50:BaSS.wav
448,192,52416,1,0,0:0:0:0:
192,192,52566,1,0,0:0:0:0:
320,192,52716,1,0,0:0:0:50:Snare.wav
64,192,52716,1,0,0:0:0:0:
192,192,52866,1,0,0:0:0:50:BaSS.wav
448,192,52866,1,0,0:0:0:0:
320,192,53016,1,0,0:0:0:0:
64,192,53016,1,0,0:0:0:0:
192,192,53166,1,0,0:0:0:50:BaSS.wav
448,192,53166,1,0,0:0:0:0:
64,192,53316,128,0,53616:0:0:0:50:BaSS.wav
320,192,53316,1,0,0:0:0:50:Snare.wav
320,192,53616,1,0,0:0:0:50:BaSS.wav
448,192,53616,1,0,0:0:0:0:
448,192,53766,1,0,0:0:0:50:BaSS.wav
192,192,53766,1,0,0:0:0:0:
320,192,53916,1,0,0:0:0:50:BaSS.wav
192,192,53916,1,0,0:0:0:0:
320,192,54066,1,0,0:0:0:50:BaSS.wav
64,192,54066,1,0,0:0:0:0:
192,192,54216,1,0,0:0:0:50:BaSS.wav
64,192,54216,1,0,0:0:0:0:
320,192,54366,1,0,0:0:0:50:BaSS.wav
448,192,54366,1,0,0:0:0:0:
192,192,54516,1,0,0:0:0:0:
320,192,54666,1,0,0:0:0:50:BaSS.wav
448,192,54741,1,0,0:0:0:50:BaSS.wav
64,192,54816,1,0,0:0:0:50:BaSS.wav
192,192,54816,1,0,0:0:0:0:
320,192,54966,1,0,0:0:0:50:BaSS.wav
64,192,54966,1,0,0:0:0:0:
320,192,55116,1,0,0:0:0:50:BaSS.wav
192,192,55116,1,0,0:0:0:0:
192,192,55266,1,0,0:0:0:50:BaSS.wav
448,192,55266,1,0,0:0:0:0:
320,192,55416,1,0,0:0:0:50:BaSS.wav
448,192,55416,1,0,0:0:0:0:
192,192,55566,1,0,0:0:0:50:BaSS.wav
64,192,55566,1,0,0:0:0:0:
320,192,55716,128,0,56016:0:0:0:0:
64,192,56016,1,0,0:0:0:50:BaSS.wav
448,192,56091,1,0,0:0:0:50:BaSS.wav
192,192,56166,1,0,0:0:0:50:BaSS.wav
320,192,56241,1,0,0:0:0:50:BaSS.wav
64,192,56316,1,0,0:0:0:50:BaSS.wav
448,192,56391,1,0,0:0:0:50:BaSS.wav
192,192,56466,1,0,0:0:0:50:BaSS.wav
320,192,56541,1,0,0:0:0:50:BaSS.wav
192,192,56616,1,0,0:0:0:50:BaSS.wav
448,192,56691,1,0,0:0:0:50:BaSS.wav
64,192,56766,1,0,0:0:0:50:BaSS.wav
320,192,56841,1,0,0:0:0:50:BaSS.wav
192,192,56916,1,0,0:0:0:50:BaSS.wav
448,192,56991,1,0,0:0:0:50:BaSS.wav
64,192,57066,1,0,0:0:0:50:BaSS.wav
320,192,57141,1,0,0:0:0:50:BaSS.wav
192,192,57216,128,0,58416:0:0:0:0:
320,192,58416,1,0,0:0:0:0:
64,192,58716,1,0,0:0:0:0:
192,192,59016,1,0,0:0:0:0:
320,192,59316,1,0,0:0:0:0:
64,192,59616,1,0,0:0:0:0:
448,192,59916,1,0,0:0:0:0:
320,192,60216,1,0,0:0:0:0:
192,192,60516,1,0,0:0:0:0:
448,192,60816,1,0,0:0:0:0:
64,192,61116,1,0,0:0:0:0:
192,192,61416,1,0,0:0:0:0:
320,192,61716,1,0,0:0:0:0:
64,192,62016,1,0,0:0:0:0:
448,192,62316,1,0,0:0:0:0:
320,192,62616,1,0,0:0:0:0:
192,192,62916,1,0,0:0:0:0:
64,192,63216,128,0,63366:0:0:0:0:
64,192,63666,128,0,63816:0:0:0:0:
192,192,64116,1,0,0:0:0:0:
448,192,64416,128,0,64566:0:0:0:0:
448,192,64866,128,0,65016:0:0:0:0:
320,192,65316,1,0,0:0:0:0:
192,192,65616,128,0,65766:0:0:0:0:
192,192,66066,128,0,66216:0:0:0:0:
192,192,66516,1,0,0:0:0:0:
320,192,66816,128,0,66966:0:0:0:0:
320,192,67266,128,0,67416:0:0:0:0:
320,192,67716,1,0,0:0:0:50:BaSS.wav
448,192,67716,1,0,0:0:0:50:Snare.wav
192,192,67866,1,0,0:0:0:50:BaSS.wav
64,192,67866,1,0,0:0:0:50:Snare.wav
448,192,68016,1,0,0:0:0:50:BaSS.wav
320,192,68016,1,0,0:0:0:0:
192,192,68091,1,0,0:0:0:0:
448,192,68166,1,0,0:0:0:0:
64,192,68241,1,0,0:0:0:0:
448,192,68316,1,0,0:0:0:50:Snare.wav
192,192,68316,1,0,0:0:0:0:
320,192,68391,1,0,0:0:0:0:
192,192,68466,1,0,0:0:0:0:
64,192,68541,1,0,0:0:0:0:
448,192,68616,1,0,0:0:0:0:
320,192,68691,1,0,0:0:0:0:
192,192,68766,1,0,0:0:0:50:BaSS.wav
64,192,68841,1,0,0:0:0:0:
448,192,68916,1,0,0:0:0:50:Snare.wav
320,192,68916,1,0,0:0:0:0:
64,192,68991,1,0,0:0:0:0:
192,192,69066,1,0,0:0:0:0:
320,192,69141,1,0,0:0:0:0:
64,192,69216,1,0,0:0:0:50:BaSS.wav
192,192,69291,1,0,0:0:0:0:
448,192,69366,1,0,0:0:0:0:
320,192,69441,1,0,0:0:0:0:
64,192,69516,1,0,0:0:0:50:Snare.wav
192,192,69516,1,0,0:0:0:0:
448,192,69591,1,0,0:0:0:0:
320,192,69666,1,0,0:0:0:0:
192,192,69741,1,0,0:0:0:50:Snare.wav
448,192,69741,1,0,0:0:0:0:
64,192,69816,1,0,0:0:0:0:
320,192,69891,1,0,0:0:0:0:
192,192,69966,1,0,0:0:0:50:BaSS.wav
448,192,70041,1,0,0:0:0:0:
64,192,70116,1,0,0:0:0:50:BaSS.wav
192,192,70116,1,0,0:0:0:0:
320,192,70191,1,0,0:0:0:0:
448,192,70266,128,0,70416:0:0:0:0:
64,192,70416,1,0,0:0:0:50:BaSS.wav
192,192,70491,1,0,0:0:0:0:
320,192,70566,1,0,0:0:0:0:
448,192,70641,1,0,0:0:0:0:
192,192,70716,1,0,0:0:0:50:Snare.wav
64,192,70716,1,0,0:0:0:0:
320,192,70791,1,0,0:0:0:0:
64,192,70866,1,0,0:0:0:0:
448,192,70941,1,0,0:0:0:0:
192,192,71016,1,0,0:0:0:0:
320,192,71091,1,0,0:0:0:0:
64,192,71166,1,0,0:0:0:50:BaSS.wav
192,192,71241,1,0,0:0:0:0:
320,192,71316,1,0,0:0:0:50:Snare.wav
448,192,71316,1,0,0:0:0:0:
64,192,71391,1,0,0:0:0:0:
192,192,71466,1,0,0:0:0:0:
320,192,71541,1,0,0:0:0:0:
448,192,71616,1,0,0:0:0:50:BaSS.wav
320,192,71691,1,0,0:0:0:0:
192,192,71766,1,0,0:0:0:0:
320,192,71841,1,0,0:0:0:0:
64,192,71916,1,0,0:0:0:50:Snare.wav
448,192,71916,1,0,0:0:0:0:
192,192,71991,1,0,0:0:0:0:
320,192,72066,1,0,0:0:0:50:BaSS.wav
192,192,72141,1,0,0:0:0:0:
64,192,72216,1,0,0:0:0:50:Snare.wav
448,192,72216,1,0,0:0:0:0:
320,192,72291,1,0,0:0:0:0:
192,192,72366,1,0,0:0:0:50:BaSS.wav
64,192,72441,1,0,0:0:0:0:
320,192,72516,1,0,0:0:0:0:
448,192,72516,128,0,72816:0:0:0:0:
64,192,72816,1,0,0:0:0:50:Snare.wav
320,192,72816,1,0,0:0:0:0:
192,192,72891,1,0,0:0:0:0:
320,192,72966,1,0,0:0:0:0:
448,192,73041,1,0,0:0:0:0:
64,192,73116,1,0,0:0:0:50:Snare.wav
192,192,73191,1,0,0:0:0:0:
320,192,73266,1,0,0:0:0:0:
448,192,73341,1,0,0:0:0:0:
64,192,73416,1,0,0:0:0:50:Snare.wav
192,192,73491,1,0,0:0:0:0:
320,192,73566,1,0,0:0:0:0:
448,192,73641,1,0,0:0:0:0:
64,192,73716,1,0,0:0:0:50:Snare.wav
192,192,73716,1,0,0:0:0:0:
320,192,73866,1,0,0:0:0:50:Snare.wav
192,192,73941,1,0,0:0:0:50:Snare.wav
64,192,74016,1,0,0:0:0:50:Snare.wav
448,192,74016,1,0,0:0:0:0:
320,192,74091,1,0,0:0:0:0:
192,192,74166,1,0,0:0:0:0:
64,192,74241,1,0,0:0:0:0:
448,192,74316,1,0,0:0:0:50:Snare.wav
320,192,74391,1,0,0:0:0:0:
192,192,74466,1,0,0:0:0:0:
64,192,74541,1,0,0:0:0:0:
448,192,74616,1,0,0:0:0:50:Snare.wav
64,192,74766,1,0,0:0:0:50:Snare.wav
192,192,74841,1,0,0:0:0:50:Snare.wav
320,192,74916,128,0,75066:0:0:0:50:Snare.wav
64,192,75066,1,0,0:0:0:50:Snare.wav
192,192,75141,1,0,0:0:0:50:Snare.wav
448,192,75216,1,0,0:0:0:50:Snare.wav
64,192,75291,1,0,0:0:0:50:Snare.wav
320,192,75366,1,0,0:0:0:50:Snare.wav
192,192,75441,1,0,0:0:0:50:Snare.wav
448,192,75516,1,0,0:0:0:50:Snare.wav
64,192,75591,1,0,0:0:0:50:Snare.wav
320,192,75666,1,0,0:0:0:50:Snare.wav
192,192,75741,1,0,0:0:0:50:Snare.wav
320,192,75816,1,0,0:0:0:50:Snare.wav
64,192,75891,1,0,0:0:0:50:Snare.wav
448,192,75966,1,0,0:0:0:50:Snare.wav
192,192,76041,1,0,0:0:0:50:Snare.wav
320,192,76116,1,0,0:0:0:50:Snare.wav
64,192,76191,1,0,0:0:0:50:Snare.wav
448,192,76266,1,0,0:0:0:50:Snare.wav
192,192,76341,1,0,0:0:0:50:Snare.wav
320,192,76416,1,0,0:0:0:0:
192,192,76716,1,0,0:0:0:0:
320,192,76941,1,0,0:0:0:50:BaSS.wav
192,192,77016,1,0,0:0:0:50:Snare.wav
320,192,77091,1,0,0:0:0:50:Snare.wav
192,192,77166,1,0,0:0:0:50:Snare.wav
320,192,77241,1,0,0:0:0:50:Snare.wav
448,192,77316,1,0,0:0:0:0:
64,192,77316,1,0,0:0:0:0:
192,192,77616,1,0,0:0:0:50:Snare.wav
64,192,77616,1,0,0:0:0:50:BaSS.wav
448,192,77616,1,0,0:0:0:0:
320,192,77766,1,0,0:0:0:0:
448,192,77916,1,0,0:0:0:50:BaSS.wav
64,192,77916,1,0,0:0:0:50:Snare.wav
192,192,77991,1,0,0:0:0:0:
320,192,78066,1,0,0:0:0:0:
448,192,78141,1,0,0:0:0:0:
64,192,78216,1,0,0:0:0:50:BaSS.wav
192,192,78291,1,0,0:0:0:0:
320,192,78366,1,0,0:0:0:0:
448,192,78516,1,0,0:0:0:50:Snare.wav
64,192,78516,1,0,0:0:0:50:BaSS.wav
192,192,78666,1,0,0:0:0:0:
320,192,78816,1,0,0:0:0:50:BaSS.wav
448,192,78816,1,0,0:0:0:0:
192,192,78966,1,0,0:0:0:0:
64,192,79116,1,0,0:0:0:50:BaSS.wav
448,192,79116,1,0,0:0:0:50:Snare.wav
320,192,79191,1,0,0:0:0:0:
192,192,79266,1,0,0:0:0:0:
64,192,79341,1,0,0:0:0:0:
448,192,79416,1,0,0:0:0:50:BaSS.wav
320,192,79491,1,0,0:0:0:0:
192,192,79566,1,0,0:0:0:0:
64,192,79716,1,0,0:0:0:50:Snare.wav
448,192,79716,1,0,0:0:0:50:BaSS.wav
320,192,79866,1,0,0:0:0:0:
64,192,80016,1,0,0:0:0:50:BaSS.wav
192,192,80016,1,0,0:0:0:0:
320,192,80166,1,0,0:0:0:0:
192,192,80316,1,0,0:0:0:50:Snare.wav
448,192,80316,1,0,0:0:0:50:BaSS.wav
64,192,80391,1,0,0:0:0:0:
192,192,80466,1,0,0:0:0:0:
320,192,80541,1,0,0:0:0:0:
448,192,80616,1,0,0:0:0:50:BaSS.wav
320,192,80691,1,0,0:0:0:0:
192,192,80766,1,0,0:0:0:0:
64,192,80916,1,0,0:0:0:50:BaSS.wav
448,192,80916,1,0,0:0:0:50:Snare.wav
192,192,81066,1,0,0:0:0:0:
320,192,81216,1,0,0:0:0:50:BaSS.wav
448,192,81216,1,0,0:0:0:0:
192,192,81366,1,0,0:0:0:0:
64,192,81516,1,0,0:0:0:50:BaSS.wav
320,192,81516,1,0,0:0:0:50:Snare.wav
448,192,81591,1,0,0:0:0:0:
320,192,81666,1,0,0:0:0:0:
192,192,81741,1,0,0:0:0:0:
64,192,81816,1,0,0:0:0:50:BaSS.wav
448,192,81891,1,0,0:0:0:50:Snare.wav
192,192,81966,1,0,0:0:0:50:BaSS.wav
320,192,82041,1,0,0:0:0:50:Snare.wav
64,192,82116,1,0,0:0:0:50:BaSS.wav
448,192,82116,1,0,0:0:0:50:Snare.wav
320,192,82416,1,0,0:0:0:50:BaSS.wav
192,192,82416,1,0,0:0:0:0:
448,192,82416,1,0,0:0:0:0:
64,192,82566,1,0,0:0:0:0:
448,192,82716,1,0,0:0:0:50:BaSS.wav
192,192,82716,1,0,0:0:0:50:Snare.wav
320,192,82791,1,0,0:0:0:0:
192,192,82866,1,0,0:0:0:0:
64,192,82941,1,0,0:0:0:0:
320,192,83016,1,0,0:0:0:50:BaSS.wav
192,192,83091,1,0,0:0:0:0:
64,192,83166,1,0,0:0:0:0:
320,192,83316,1,0,0:0:0:50:BaSS.wav
448,192,83316,1,0,0:0:0:50:Snare.wav
64,192,83466,1,0,0:0:0:0:
192,192,83616,1,0,0:0:0:50:BaSS.wav
320,192,83616,1,0,0:0:0:0:
448,192,83766,1,0,0:0:0:0:
64,192,83916,1,0,0:0:0:50:Snare.wav
320,192,83916,1,0,0:0:0:50:BaSS.wav
192,192,83991,1,0,0:0:0:0:
320,192,84066,1,0,0:0:0:0:
448,192,84141,1,0,0:0:0:0:
192,192,84216,1,0,0:0:0:50:BaSS.wav
320,192,84291,1,0,0:0:0:0:
448,192,84366,1,0,0:0:0:0:
192,192,84516,1,0,0:0:0:50:Snare.wav
64,192,84516,1,0,0:0:0:50:BaSS.wav
448,192,84666,1,0,0:0:0:0:
320,192,84816,1,0,0:0:0:50:BaSS.wav
64,192,84816,1,0,0:0:0:0:
448,192,84966,1,0,0:0:0:0:
192,192,85116,1,0,0:0:0:50:Snare.wav
320,192,85116,1,0,0:0:0:50:BaSS.wav
64,192,85191,1,0,0:0:0:0:
192,192,85266,1,0,0:0:0:0:
320,192,85341,1,0,0:0:0:0:
448,192,85416,1,0,0:0:0:50:BaSS.wav
320,192,85491,1,0,0:0:0:0:
192,192,85566,1,0,0:0:0:0:
64,192,85716,1,0,0:0:0:50:BaSS.wav
448,192,85716,1,0,0:0:0:50:Snare.wav
320,192,85866,1,0,0:0:0:0:
192,192,86016,1,0,0:0:0:0:
192,192,86166,1,0,0:0:0:0:
192,192,86316,1,0,0:0:0:0:
192,192,86466,1,0,0:0:0:0:
320,192,86616,128,0,86916:0:0:0:0:
64,192,86916,1,0,0:0:0:0:
192,192,87066,1,0,0:0:0:0:
448,192,87216,1,0,0:0:0:50:BaSS.wav
64,192,87216,1,0,0:0:0:0:
320,192,87216,1,0,0:0:0:0:
192,192,87366,1,0,0:0:0:0:
448,192,87516,1,0,0:0:0:50:Snare.wav
64,192,87516,1,0,0:0:0:50:BaSS.wav
320,192,87591,1,0,0:0:0:0:
192,192,87666,1,0,0:0:0:0:
64,192,87741,1,0,0:0:0:0:
320,192,87816,1,0,0:0:0:50:BaSS.wav
448,192,87816,1,0,0:0:0:0:
192,192,87891,1,0,0:0:0:0:
64,192,87966,1,0,0:0:0:0:
448,192,88116,1,0,0:0:0:50:Snare.wav
192,192,88116,1,0,0:0:0:50:BaSS.wav
64,192,88266,1,0,0:0:0:0:
320,192,88416,1,0,0:0:0:50:BaSS.wav
448,192,88416,1,0,0:0:0:0:
192,192,88566,1,0,0:0:0:0:
64,192,88716,1,0,0:0:0:50:BaSS.wav
448,192,88716,1,0,0:0:0:50:Snare.wav
192,192,88791,1,0,0:0:0:0:
320,192,88866,1,0,0:0:0:0:
448,192,88941,1,0,0:0:0:0:
192,192,89016,1,0,0:0:0:50:BaSS.wav
64,192,89016,1,0,0:0:0:0:
320,192,89091,1,0,0:0:0:0:
448,192,89166,1,0,0:0:0:0:
320,192,89316,1,0,0:0:0:50:Snare.wav
64,192,89316,1,0,0:0:0:50:BaSS.wav
192,192,89466,1,0,0:0:0:0:
448,192,89616,1,0,0:0:0:50:BaSS.wav
64,192,89616,1,0,0:0:0:0:
320,192,89766,1,0,0:0:0:0:
448,192,89916,1,0,0:0:0:50:Snare.wav
64,192,89916,1,0,0:0:0:50:BaSS.wav
192,192,89991,1,0,0:0:0:0:
320,192,90066,1,0,0:0:0:0:
448,192,90141,1,0,0:0:0:0:
192,192,90216,1,0,0:0:0:50:BaSS.wav
64,192,90216,1,0,0:0:0:0:
320,192,90291,1,0,0:0:0:0:
192,192,90366,1,0,0:0:0:0:
448,192,90516,1,0,0:0:0:50:Snare.wav
64,192,90516,1,0,0:0:0:50:BaSS.wav
320,192,90666,1,0,0:0:0:0:
64,192,90816,1,0,0:0:0:50:BaSS.wav
448,192,90816,1,0,0:0:0:0:
192,192,90966,1,0,0:0:0:0:
448,192,91116,1,0,0:0:0:50:Snare.wav
64,192,91116,1,0,0:0:0:50:BaSS.wav
320,192,91191,1,0,0:0:0:0:
192,192,91266,1,0,0:0:0:0:
64,192,91341,1,0,0:0:0:0:
320,192,91416,1,0,0:0:0:50:BaSS.wav
448,192,91416,1,0,0:0:0:0:
192,192,91491,1,0,0:0:0:0:
320,192,91566,1,0,0:0:0:0:
448,192,91641,1,0,0:0:0:0:
64,192,91716,1,0,0:0:0:0:
448,192,91866,1,0,0:0:0:0:
320,192,92016,1,0,0:0:0:50:BaSS.wav
192,192,92016,128,0,92316:0:0:0:0:
448,192,92316,1,0,0:0:0:50:Snare.wav
64,192,92316,1,0,0:0:0:50:BaSS.wav
320,192,92391,1,0,0:0:0:0:
192,192,92466,1,0,0:0:0:0:
64,192,92541,1,0,0:0:0:0:
320,192,92616,1,0,0:0:0:50:BaSS.wav
448,192,92616,1,0,0:0:0:50:Snare.wav
64,192,92691,1,0,0:0:0:0:
192,192,92766,1,0,0:0:0:0:
448,192,92916,1,0,0:0:0:50:BaSS.wav
64,192,92916,1,0,0:0:0:50:Snare.wav
192,192,93066,1,0,0:0:0:0:
448,192,93216,1,0,0:0:0:50:BaSS.wav
64,192,93216,1,0,0:0:0:50:Snare.wav
320,192,93366,1,0,0:0:0:0:
448,192,93516,1,0,0:0:0:50:Snare.wav
64,192,93516,1,0,0:0:0:50:BaSS.wav
192,192,93591,1,0,0:0:0:0:
320,192,93666,1,0,0:0:0:0:
448,192,93741,1,0,0:0:0:0:
192,192,93816,1,0,0:0:0:50:BaSS.wav
64,192,93816,1,0,0:0:0:50:Snare.wav
448,192,93891,1,0,0:0:0:0:
320,192,93966,1,0,0:0:0:0:
64,192,94116,1,0,0:0:0:50:BaSS.wav
448,192,94116,1,0,0:0:0:50:Snare.wav
320,192,94266,1,0,0:0:0:0:
192,192,94416,1,0,0:0:0:50:BaSS.wav
64,192,94416,1,0,0:0:0:50:Snare.wav
192,192,94566,1,0,0:0:0:50:BaSS.wav
64,192,94566,1,0,0:0:0:50:Snare.wav
320,192,94716,1,0,0:0:0:50:Snare.wav
448,192,94716,1,0,0:0:0:50:BaSS.wav
320,192,94866,1,0,0:0:0:50:Snare.wav
448,192,94866,1,0,0:0:0:50:BaSS.wav
192,192,95016,1,0,0:0:0:50:BaSS.wav
320,192,95091,1,0,0:0:0:50:Snare.wav
192,192,95166,1,0,0:0:0:50:Snare.wav
320,192,95241,1,0,0:0:0:50:Snare.wav
64,192,95316,1,0,0:0:0:50:BaSS.wav
448,192,95391,1,0,0:0:0:50:Snare.wav
64,192,95466,1,0,0:0:0:50:BaSS.wav
448,192,95541,1,0,0:0:0:50:Snare.wav
192,192,95616,1,0,0:0:0:0:
192,192,95766,1,0,0:0:0:0:
192,192,95916,1,0,0:0:0:0:
64,192,96066,1,0,0:0:0:0:
192,192,96141,1,0,0:0:0:50:Snare.wav
320,192,96216,1,0,0:0:0:50:Snare.wav
448,192,96291,1,0,0:0:0:50:Snare.wav
320,192,96366,1,0,0:0:0:50:Snare.wav
192,192,96516,1,0,0:0:0:0:
64,192,96666,1,0,0:0:0:0:
448,192,96816,128,0,97116:0:0:0:50:BaSS.wav
192,192,96966,1,0,0:0:0:0:
320,192,97116,1,0,0:0:0:50:BaSS.wav
64,192,97116,1,0,0:0:0:0:
192,192,97266,1,0,0:0:0:0:
448,192,97416,1,0,0:0:0:50:BaSS.wav
64,192,97416,1,0,0:0:0:0:
320,192,97566,1,0,0:0:0:0:
192,192,97716,1,0,0:0:0:50:BaSS.wav
64,192,97716,1,0,0:0:0:0:
448,192,97866,1,0,0:0:0:0:
320,192,98016,1,0,0:0:0:50:BaSS.wav
192,192,98016,1,0,0:0:0:0:
64,192,98166,1,0,0:0:0:0:
320,192,98316,1,0,0:0:0:50:BaSS.wav
448,192,98316,1,0,0:0:0:0:
192,192,98466,1,0,0:0:0:0:
448,192,98616,1,0,0:0:0:50:BaSS.wav
64,192,98616,1,0,0:0:0:0:
320,192,98766,1,0,0:0:0:0:
192,192,98916,1,0,0:0:0:50:BaSS.wav
64,192,98916,1,0,0:0:0:0:
320,192,99066,1,0,0:0:0:50:BaSS.wav
448,192,99066,1,0,0:0:0:0:
192,192,99216,1,0,0:0:0:50:BaSS.wav
64,192,99216,1,0,0:0:0:0:
448,192,99366,1,0,0:0:0:0:
320,192,99516,1,0,0:0:0:50:BaSS.wav
64,192,99516,1,0,0:0:0:0:
192,192,99666,1,0,0:0:0:0:
448,192,99816,1,0,0:0:0:50:BaSS.wav
64,192,99816,1,0,0:0:0:0:
320,192,99966,1,0,0:0:0:0:
448,192,100116,1,0,0:0:0:50:BaSS.wav
192,192,100116,1,0,0:0:0:0:
64,192,100266,1,0,0:0:0:0:
448,192,100416,1,0,0:0:0:50:BaSS.wav
320,192,100416,1,0,0:0:0:0:
192,192,100566,1,0,0:0:0:0:
64,192,100641,1,0,0:0:0:0:
320,192,100716,1,0,0:0:0:50:BaSS.wav
448,192,100716,1,0,0:0:0:0:
64,192,100866,1,0,0:0:0:0:
320,192,101016,1,0,0:0:0:50:BaSS.wav
192,192,101016,1,0,0:0:0:0:
448,192,101166,1,0,0:0:0:50:BaSS.wav
64,192,101166,1,0,0:0:0:0:
320,192,101241,1,0,0:0:0:50:BaSS.wav
448,192,101316,1,0,0:0:0:50:BaSS.wav
64,192,101316,1,0,0:0:0:0:
192,192,101466,1,0,0:0:0:50:BaSS.wav
320,192,101466,1,0,0:0:0:0:
64,192,101616,128,0,101916:0:0:0:50:BaSS.wav
448,192,101616,1,0,0:0:0:0:
320,192,101766,1,0,0:0:0:0:
192,192,101916,1,0,0:0:0:50:BaSS.wav
448,192,101916,1,0,0:0:0:0:
320,192,102066,1,0,0:0:0:0:
192,192,102216,1,0,0:0:0:50:BaSS.wav
64,192,102216,1,0,0:0:0:0:
448,192,102366,1,0,0:0:0:0:
320,192,102516,1,0,0:0:0:50:BaSS.wav
64,192,102516,1,0,0:0:0:0:
192,192,102666,1,0,0:0:0:0:
320,192,102816,1,0,0:0:0:50:BaSS.wav
448,192,102816,1,0,0:0:0:0:
64,192,102966,1,0,0:0:0:0:
192,192,103116,1,0,0:0:0:50:BaSS.wav
448,192,103116,1,0,0:0:0:0:
320,192,103266,1,0,0:0:0:0:
192,192,103416,1,0,0:0:0:50:BaSS.wav
64,192,103416,1,0,0:0:0:0:
320,192,103516,1,0,0:0:0:0:
448,192,103616,1,0,0:0:0:0:
320,192,103716,1,0,0:0:0:50:BaSS.wav
192,192,103716,1,0,0:0:0:0:
448,192,103866,1,0,0:0:0:50:BaSS.wav
64,192,103866,1,0,0:0:0:0:
320,192,104016,1,0,0:0:0:50:BaSS.wav
192,192,104016,1,0,0:0:0:0:
64,192,104166,1,0,0:0:0:0:
448,192,104316,1,0,0:0:0:50:BaSS.wav
320,192,104316,1,0,0:0:0:0:
192,192,104466,1,0,0:0:0:50:BaSS.wav
448,192,104616,1,0,0:0:0:50:BaSS.wav
64,192,104616,1,0,0:0:0:0:
320,192,104766,1,0,0:0:0:0:
192,192,104841,1,0,0:0:0:50:BaSS.wav
64,192,104841,1,0,0:0:0:0:
320,192,104916,1,0,0:0:0:50:BaSS.wav
448,192,104916,1,0,0:0:0:0:
192,192,105066,1,0,0:0:0:50:BaSS.wav
64,192,105066,1,0,0:0:0:0:
448,192,105216,128,0,105366:0:0:0:0:
320,192,105366,1,0,0:0:0:0:
192,192,105441,1,0,0:0:0:0:
64,192,105516,1,0,0:0:0:0:
192,192,105591,1,0,0:0:0:0:
320,192,105666,1,0,0:0:0:0:
448,192,105741,1,0,0:0:0:0:
64,192,105816,1,0,0:0:0:0:
192,192,105891,1,0,0:0:0:0:
320,192,105966,1,0,0:0:0:0:
448,192,106041,1,0,0:0:0:0:
192,192,106116,1,0,0:0:0:50:Snare.wav
64,192,106116,1,0,0:0:0:0:
448,192,106416,128,0,106716:0:0:0:50:BaSS.wav
320,192,106416,128,0,106716:0:0:0:0:
192,192,106716,1,0,0:0:0:50:BaSS.wav
64,192,106716,1,0,0:0:0:0:
320,192,106866,1,0,0:0:0:0:
448,192,107016,1,0,0:0:0:50:BaSS.wav
64,192,107016,1,0,0:0:0:0:
192,192,107166,1,0,0:0:0:0:
448,192,107316,1,0,0:0:0:50:BaSS.wav
64,192,107316,1,0,0:0:0:0:
320,192,107466,1,0,0:0:0:0:
192,192,107616,1,0,0:0:0:50:BaSS.wav
64,192,107616,1,0,0:0:0:0:
448,192,107766,1,0,0:0:0:0:
320,192,107916,1,0,0:0:0:50:BaSS.wav
192,192,107916,1,0,0:0:0:0:
64,192,108066,1,0,0:0:0:0:
320,192,108216,1,0,0:0:0:50:BaSS.wav
448,192,108216,1,0,0:0:0:0:
64,192,108366,1,0,0:0:0:0:
320,192,108516,1,0,0:0:0:50:BaSS.wav
192,192,108516,1,0,0:0:0:0:
448,192,108666,1,0,0:0:0:50:BaSS.wav
64,192,108666,1,0,0:0:0:0:
320,192,108816,1,0,0:0:0:50:BaSS.wav
192,192,108816,1,0,0:0:0:0:
64,192,108966,1,0,0:0:0:0:
448,192,109116,1,0,0:0:0:50:BaSS.wav
192,192,109116,1,0,0:0:0:0:
320,192,109266,1,0,0:0:0:0:
448,192,109416,1,0,0:0:0:50:BaSS.wav
64,192,109416,1,0,0:0:0:0:
192,192,109566,1,0,0:0:0:0:
320,192,109716,1,0,0:0:0:50:BaSS.wav
448,192,109716,1,0,0:0:0:0:
64,192,109866,1,0,0:0:0:0:
192,192,110016,1,0,0:0:0:50:BaSS.wav
320,192,110016,1,0,0:0:0:0:
448,192,110166,1,0,0:0:0:0:
320,192,110241,1,0,0:0:0:0:
192,192,110316,1,0,0:0:0:50:BaSS.wav
64,192,110316,1,0,0:0:0:0:
320,192,110466,1,0,0:0:0:50:BaSS.wav
448,192,110466,1,0,0:0:0:0:
192,192,110616,1,0,0:0:0:50:BaSS.wav
64,192,110616,1,0,0:0:0:0:
320,192,110766,1,0,0:0:0:0:
192,192,110841,1,0,0:0:0:50:BaSS.wav
448,192,110916,1,0,0:0:0:0:
64,192,110916,1,0,0:0:0:0:
448,192,111066,1,0,0:0:0:50:BaSS.wav
64,192,111066,1,0,0:0:0:0:
320,192,111216,128,0,111516:0:0:0:50:BaSS.wav
192,192,111216,128,0,111516:0:0:0:0:
448,192,111516,1,0,0:0:0:50:Snare.wav
64,192,111516,1,0,0:0:0:50:BaSS.wav
192,192,111666,1,0,0:0:0:0:
320,192,111816,1,0,0:0:0:50:BaSS.wav
448,192,111816,1,0,0:0:0:50:Snare.wav
64,192,111966,1,0,0:0:0:0:
192,192,112116,1,0,0:0:0:50:BaSS.wav
320,192,112116,1,0,0:0:0:50:Snare.wav
448,192,112266,1,0,0:0:0:0:
192,192,112416,128,0,112716:0:0:0:50:BaSS.wav
64,192,112416,128,0,112716:0:0:0:0:
320,192,112716,1,0,0:0:0:50:Snare.wav
448,192,112716,1,0,0:0:0:50:BaSS.wav
192,192,112866,1,0,0:0:0:0:
448,192,113016,1,0,0:0:0:50:Snare.wav
64,192,113016,1,0,0:0:0:50:BaSS.wav
320,192,113166,1,0,0:0:0:0:
192,192,113316,1,0,0:0:0:50:BaSS.wav
64,192,113316,1,0,0:0:0:50:Snare.wav
448,192,113466,1,0,0:0:0:50:Snare.wav
320,192,113616,1,0,0:0:0:50:Snare.wav
192,192,113616,128,0,113766:0:0:0:50:BaSS.wav
64,192,113766,1,0,0:0:0:0:
320,192,113916,128,0,114066:0:0:0:50:Snare.wav
192,192,113916,1,0,0:0:0:50:BaSS.wav
448,192,114066,1,0,0:0:0:0:
64,192,114216,128,0,114366:0:0:0:50:Snare.wav
192,192,114216,1,0,0:0:0:50:BaSS.wav
448,192,114291,1,0,0:0:0:0:
320,192,114441,1,0,0:0:0:50:BaSS.wav
448,192,114441,1,0,0:0:0:0:
192,192,114516,1,0,0:0:0:50:Snare.wav
64,192,114516,1,0,0:0:0:50:BaSS.wav
320,192,114666,1,0,0:0:0:50:BaSS.wav
448,192,114666,1,0,0:0:0:50:Snare.wav
64,192,114816,128,0,115866:0:0:0:0:
192,192,115016,1,0,0:0:0:0:
320,192,115116,1,0,0:0:0:0:
320,192,115316,1,0,0:0:0:0:
192,192,115416,1,0,0:0:0:0:
320,192,115616,1,0,0:0:0:0:
448,192,115716,1,0,0:0:0:50:Snare.wav
192,192,115716,1,0,0:0:0:0:
448,192,115866,1,0,0:0:0:50:Snare.wav
192,192,115866,1,0,0:0:0:0:
