osu file format v9

[General]
AudioFilename: Getter Jaani - Rockefeller Street (Nightcore Mix).mp3
AudioLeadIn: 0
PreviewTime: 41440
Countdown: 0
SampleSet: Normal
StackLeniency: 0.3
Mode: 0
LetterboxInBreaks: 0

[Editor]
Bookmarks: 81409
DistanceSpacing: 0.8
BeatDivisor: 4
GridSize: 4

[Metadata]
Title:Rockefeller Street (Nightcore Mix)
Artist:Getter Jaani
Creator:osuplayer111
Version:Gonz
Source:Eurovision Song Contest 2011
Tags:Trance Aleks719 Gonzvlo xxheroxx

[Difficulty]
HPDrainRate:1
CircleSize:3
OverallDifficulty:2
ApproachRate:3
SliderMultiplier:1.1
SliderTickRate:2

[Events]
//Background and Video events
0,0,"Yo.jpg"
//Break Periods
2,106517,110985
//Storyboard Layer 0 (Background)
//Storyboard Layer 1 (Fail)
//Storyboard Layer 2 (Pass)
//Storyboard Layer 3 (Foreground)
//Storyboard Sound Samples
//Background Colour Transformations
3,100,0,0,202

[TimingPoints]
179,369.230769230769,4,2,1,80,1,0
8671,-100,4,2,1,60,0,0
8763,-100,4,2,1,80,0,0
9409,-100,4,2,1,60,0,0
10240,-100,4,2,1,80,0,0
12363,-100,4,2,1,60,0,0
12455,-100,4,2,1,80,0,0
13840,-100,4,2,1,60,0,0
13932,-100,4,2,1,80,0,0
14578,-100,4,2,1,60,0,0
14671,-100,4,2,1,80,0,0
15317,-100,4,2,1,60,0,0
15409,-100,4,2,1,80,0,0
16055,-100,4,2,1,60,0,0
16148,-100,4,2,1,80,0,0
18271,-100,4,2,1,60,0,0
18363,-100,4,2,1,80,0,0
19009,-100,4,2,1,60,0,0
19102,-100,4,2,1,80,0,0
20486,-100,4,2,1,60,0,0
20578,-100,4,2,1,80,0,0
21225,-100,4,2,1,60,0,0
21317,-100,4,2,1,80,0,0
23440,-100,4,2,1,60,0,0
23532,-100,4,2,1,80,0,0
24178,-100,4,2,1,60,0,0
24271,-100,4,2,1,80,0,0
24917,-100,4,2,1,60,0,0
25009,-100,4,2,1,80,0,0
26394,-100,4,2,1,60,0,0
26486,-100,4,2,1,80,0,0
27132,-100,4,2,1,60,0,0
27225,-100,4,2,1,80,0,0
28609,-100,4,2,1,60,0,0
28702,-100,4,2,1,80,0,0
28978,-100,4,2,1,85,0,0
29348,-100,4,2,1,90,0,0
29717,-100,4,1,1,80,0,0
29809,-100,4,1,1,80,0,0
31194,-100,4,1,1,80,0,0
31286,-100,4,2,1,80,0,0
31840,-100,4,1,1,60,0,0
32671,-100,4,1,1,80,0,0
32763,-100,4,1,1,60,0,0
33040,-100,4,2,1,90,0,0
34148,-100,4,1,1,80,0,0
34240,-100,4,2,1,80,0,0
34886,-100,4,1,1,60,0,0
34978,-100,4,2,1,80,0,0
35625,-100,4,1,1,80,0,0
35717,-100,4,1,1,60,0,0
35994,-100,4,2,1,90,0,0
37102,-100,4,1,1,80,0,0
37194,-100,4,2,1,80,0,0
37840,-100,4,1,1,60,0,0
37932,-100,4,2,1,80,0,0
38578,-100,4,1,1,80,0,0
38671,-100,4,1,1,60,0,0
38948,-100,4,2,1,90,0,0
39040,-100,4,2,1,90,0,0
40055,-100,4,1,1,80,0,0
40148,-100,4,2,1,80,0,0
40794,-100,4,2,1,80,0,0
41532,-100,4,1,1,90,0,0
41902,-100,4,1,1,60,0,0
42271,-100,4,1,1,90,0,0
42640,-100,4,1,1,60,0,0
43009,-100,4,1,1,90,0,0
43378,-100,4,1,1,60,0,0
43471,-100,4,2,1,60,0,0
44117,-100,4,1,1,60,0,0
44486,-100,4,1,1,90,0,0
44578,-100,4,2,1,90,0,0
45225,-100,4,1,1,90,0,0
45594,-100,4,1,1,70,0,0
45686,-100,4,2,1,70,0,0
46332,-100,4,1,1,60,0,0
47440,-100,4,1,1,90,0,0
47809,-100,4,1,1,60,0,0
47902,-100,4,2,1,60,0,0
48548,-100,4,1,1,60,0,0
48917,-100,4,1,1,90,0,0
49286,-100,4,1,1,60,0,0
49378,-100,4,2,1,60,0,0
50025,-100,4,1,1,60,0,0
50394,-100,4,1,1,90,0,0
50763,-100,4,1,1,60,0,0
50855,-100,4,2,1,60,0,0
51502,-100,4,1,1,60,0,0
51871,-100,4,1,1,90,0,0
53348,-100,4,1,1,90,0,0
53717,-100,4,1,1,90,0,0
54086,-100,4,2,1,90,0,0
54825,-100,4,1,1,90,0,0
55194,-100,4,1,1,90,0,0
55563,-100,4,2,1,90,0,0
56302,-100,4,1,1,90,0,0
56671,-100,4,1,1,90,0,0
57040,-100,4,2,1,90,0,0
57778,-100,4,1,1,90,0,0
58148,-100,4,1,1,90,0,0
58517,-100,4,2,1,90,0,0
59255,-100,4,2,1,80,0,0
60363,-100,4,2,1,60,0,0
60455,-100,4,2,1,80,0,0
61840,-100,4,2,1,60,0,0
61932,-100,4,2,1,80,0,0
62578,-100,4,2,1,60,0,0
62671,-100,4,2,1,80,0,0
64055,-100,4,2,1,60,0,0
64148,-100,4,2,1,80,0,0
66271,-100,4,2,1,60,0,0
66363,-100,4,2,1,80,0,0
67748,-100,4,2,1,60,0,0
67840,-100,4,2,1,80,0,0
68486,-100,4,2,1,60,0,0
68578,-100,4,2,1,80,0,0
69963,-100,4,2,1,60,0,0
70332,-100,4,2,1,80,0,0
70702,-100,4,2,1,70,0,0
71071,-100,4,1,1,90,0,0
71625,-100,4,2,1,90,0,0
72548,-100,4,1,1,90,0,0
72640,-100,4,2,1,90,0,0
73286,-100,4,1,1,60,0,0
73655,-100,4,1,1,60,0,0
74025,-100,4,1,1,90,0,0
74394,-100,4,2,1,90,0,0
75502,-100,4,1,1,90,0,0
75594,-100,4,2,1,90,0,0
76240,-100,4,2,1,60,0,0
76609,-100,4,1,1,70,0,0
76978,-100,4,1,1,90,0,0
77348,-100,4,2,1,90,0,0
78455,-100,4,1,1,90,0,0
78548,-100,4,2,1,90,0,0
79563,-100,4,1,1,60,0,0
79932,-100,4,1,1,90,0,0
80302,-100,4,2,1,90,0,0
80671,-100,4,1,1,60,0,0
81409,-100,4,1,1,90,0,0
81778,-100,4,2,1,90,0,0
82148,-100,4,2,1,90,0,0
82886,-100,4,1,1,90,0,0
83255,-100,4,1,1,60,0,0
83625,-100,4,1,1,90,0,0
83994,-100,4,1,1,60,0,0
84363,-100,4,1,1,90,0,0
84455,-100,4,2,1,90,0,0
85102,-100,4,1,1,90,0,0
85194,-100,4,2,1,90,0,0
85840,-100,4,1,1,90,0,0
86209,-100,4,1,1,60,0,0
86302,-100,4,2,1,60,0,0
87317,-100,4,1,1,100,0,0
87409,-100,4,2,1,60,0,0
87686,-100,4,1,1,60,0,0
87778,-100,4,1,1,90,0,0
89163,-100,4,1,1,60,0,0
89532,-100,4,1,1,90,0,0
89902,-100,4,1,1,60,0,0
90271,-100,4,1,1,90,0,0
90363,-100,4,2,1,90,0,0
90825,-100,4,2,1,60,0,0
90917,-100,4,2,1,90,0,0
91378,-100,4,1,1,60,0,0
91748,-100,4,1,1,90,0,0
91840,-100,4,2,1,90,0,0
92117,-100,4,1,1,60,0,0
92486,-100,4,1,1,90,0,0
92578,-100,4,2,1,90,0,0
92855,-100,4,1,1,60,0,0
92948,-100,4,2,1,60,0,0
93225,-100,4,1,1,90,0,0
93594,-100,4,1,1,60,0,0
93963,-100,4,1,2,85,0,0
94332,-100,4,1,2,100,0,0
94702,-100,4,1,1,90,0,1
95255,-100,4,2,1,100,0,1
95348,-100,4,1,1,90,0,1
96732,-100,4,2,1,100,0,1
96825,-100,4,1,1,90,0,1
99871,-100,4,2,1,90,0,1
99963,-100,4,1,1,90,0,1
101163,-100,4,2,1,100,0,1
101255,-100,4,1,1,90,0,1
102640,-100,4,2,1,100,0,1
102732,-100,4,1,1,90,0,1
105778,-100,4,2,1,90,0,1
106517,-100,4,1,1,90,0,0
112425,-111.111111111111,4,2,1,90,0,0
112517,-111.111111111111,4,2,1,60,0,0
113902,-111.111111111111,4,2,1,90,0,0
113994,-111.111111111111,4,2,1,60,0,0
115378,-111.111111111111,4,2,1,90,0,0
115471,-111.111111111111,4,2,1,60,0,0
116855,-111.111111111111,4,2,1,90,0,0
116948,-111.111111111111,4,2,1,60,0,0
117594,-100,4,2,1,40,0,0
118332,-100,4,1,1,45,0,0
119809,-100,4,1,1,50,0,0
121286,-100,4,1,1,55,0,0
124240,-100,4,1,1,60,0,0
125717,-100,4,1,1,65,0,0
127194,-100,4,1,1,70,0,0
130148,-100,4,1,1,80,0,1
130886,-104.166666666667,4,1,1,90,0,1
130978,-104.166666666667,4,2,1,50,0,1
131625,-104.166666666667,4,1,1,100,0,1
131717,-104.166666666667,4,2,1,60,0,1
132363,-104.166666666667,4,1,1,100,0,1
132455,-104.166666666667,4,2,1,60,0,1
133102,-104.166666666667,4,1,1,100,0,1
133194,-104.166666666667,4,2,1,60,0,1
133840,-104.166666666667,4,1,1,100,0,1
133932,-104.166666666667,4,2,1,60,0,1
134578,-104.166666666667,4,1,1,100,0,1
134671,-104.166666666667,4,2,1,60,0,1
135317,-104.166666666667,4,1,1,100,0,1
135409,-104.166666666667,4,1,1,60,0,1
135686,-104.166666666667,4,1,1,90,0,1
136794,-104.166666666667,4,1,1,80,0,1
137532,-104.166666666667,4,1,1,70,0,1
139009,-104.166666666667,4,1,1,60,0,1
140486,-100,4,1,1,80,0,0

[Colours]
Combo1 : 166,0,166
Combo2 : 183,0,0
Combo3 : 0,0,202
Combo4 : 91,0,183

[HitObjects]
168,296,7563,2,0,B|196:352|256:372|316:352|344:296,1,220,2|0
308,216,8671,2,0,B|256:200|256:200|204:216,1,110,8|2
168,136,9409,1,8
344,136,10148,1,8
428,104,10517,6,0,B|408:48|348:28|280:44|256:104|256:104|232:44|164:28|104:48|84:104,1,440,2|2
168,136,12363,2,0,B|168:172|168:172|168:200|180:224|200:236,1,110,8|0
344,136,13471,6,0,B|344:172|344:172|344:200|332:224|312:236,1,110,2|8
256,168,14209,2,0,B|256:56,2,110,0|8|2
256,256,15317,1,8
92,192,16055,1,8
80,280,16425,6,0,B|128:296|212:256|156:184|204:136|256:184|308:136|356:184|300:256|384:296|432:280,1,440,2|2
420,192,18271,1,8
256,256,19009,1,8
172,280,19378,6,0,B|192:336|256:364|320:336|340:280,1,220,2|0
308,188,20486,2,0,B|284:172|256:164|228:172|204:188,2,110,8|0|8
64,84,22332,6,0,B|112:164|112:164|144:104|212:92,1,220,2|0
301,92,23440,2,0,B|368:104|400:164|400:164|448:84,1,220,10|8
256,168,24917,1,8
180,212,25286,6,0,B|204:264|256:288|256:288|308:264|332:212,1,220,2|2
384,284,26394,2,0,B|360:328|304:360,1,110,8|2
206,359,27132,2,0,B|152:328|128:284,1,110,8|2
204,124,28240,6,0,B|256:140|256:140|308:124,1,110,2|8
364,192,28978,1,0
308,260,29348,2,0,B|256:244|256:244|204:260,1,110,8|4
148,192,30086,1,8
376,56,31194,6,0,B|416:64|436:96|436:140|436:140|436:256,2,220,0|0|0
352,140,33040,1,2
136,56,34148,2,0,B|96:64|76:96|76:140|76:140|76:256,2,220,0|0|0
160,140,35994,1,2
352,324,37102,6,0,B|320:368|256:384|192:368|160:324,2,220,0|0|0
404,252,38948,1,2
160,60,40055,2,0,B|192:16|256:0|320:16|352:60,2,220,0|2|4
136,144,41902,5,8
204,200,42271,2,0,B|256:216|256:216|308:200,1,110,0|8
376,144,43009,1,0
416,224,43378,2,0,B|400:268|352:296|300:300|300:300|300:376,1,220,8|8
212,374,44486,2,0,B|212:300|212:300|160:296|112:268|96:224,1,220
160,164,45594,2,0,B|196:120|256:100|316:120|352:164,1,220,8|8
120,288,47440,5,4
44,240,47809,2,0,B|16:288|32:360|80:388|152:376,1,220,8|8
208,312,48917,1,0
208,224,49286,2,0,B|208:192|208:192|208:148|256:112|304:148|304:192|304:192|304:224,1,220,8|8
304,312,50394,1,0
363,376,50763,2,0,B|432:388|480:360|496:288|468:240,1,220,8|8
392,288,51871,1,0
148,36,53348,6,0,B|144:92|144:92|104:136,2,110,0|8|8
364,36,54825,2,0,B|368:92|368:92|408:136,2,110,0|8|8
352,212,56302,2,0,B|368:268|368:268|344:324,2,110,0|8|8
160,212,57778,2,0,B|144:268|144:268|168:324,2,110,0|8|8
300,140,59255,6,0,B|300:192|300:192|336:212|356:256|348:308|312:336,1,220,2|0
256,268,60363,1,8
199,335,60732,2,0,B|164:308|156:256|176:212|212:192|212:192|212:140,1,220,2|0
256,64,61840,6,0,B|348:64|348:64|384:64|428:84|436:144,1,220,8|8
348,148,62948,1,2
164,236,63686,1,2
76,243,64055,1,8
76,243,64425,2,0,B|84:300|128:320|164:320|164:320|256:320,1,220,0|2
400,100,66271,5,8
388,12,66640,2,0,B|340:12|300:48|300:108|300:108|300:184,1,220,2|0
212,182,67748,2,0,B|212:108|212:108|212:48|172:12|124:12,1,220,8|8
112,100,68855,1,2
148,272,69594,6,0,B|192:300|192:300|212:356,1,110,2|8
300,354,70332,2,0,B|320:300|320:300|364:272,1,110,0|8
304,208,71071,2,0,B|256:180|256:180|208:208,1,110,4|8
336,40,72548,6,0,B|336:96|336:96|396:112|428:160|416:224,1,220
328,192,73655,2,0,B|316:232|328:268|360:292,2,110,8|0|2
176,40,75502,6,0,B|176:96|176:96|116:112|84:160|96:224,1,220
184,192,76609,2,0,B|196:232|184:268|152:292,2,110,8|4|2
388,376,78455,6,0,B|328:396|272:360|256:308|256:308|240:360|184:396|124:376,1,330,0|8
160,296,79932,2,0,B|92:200,2,110,0|2|0
352,296,81409,2,0,B|420:200,2,110,0|8|2
212,192,82886,5,4
168,116,83255,1,8
256,116,83625,1,0
344,116,83994,1,8
300,192,84363,2,0,B|300:228|300:228|300:276|256:296|212:276|212:228|212:228|212:192,2,220
384,208,86209,6,0,B|380:364|256:400|132:364|128:208,1,440,8|8
324,68,88794,5,4
256,12,89163,1,8
188,68,89532,1,0
256,124,89902,1,8
328,176,90271,2,0,B|300:212|256:224|212:212|184:176,2,165,0|8|8
392,236,91748,6,0,B|360:280|300:292,1,110,0|8
211,291,92486,2,0,B|152:280|120:236,2,110,0|8|0
256,216,93594,1,8
256,216,93963,1,8
256,216,94332,1,8
304,148,94702,6,0,B|320:96|360:80|400:80|400:80|440:80,2,165,2|6|8
208,148,96178,2,0,B|192:96|152:80|112:80|112:80|72:80,2,165,2|6|8
124,180,97655,6,0,B|136:216|164:236|208:236,1,110,0|8
302,236,98394,2,0,B|348:236|376:216|388:180,2,110,0|8|2
304,148,99502,1,8
256,76,99871,1,10
208,148,100240,1,8
208,236,100609,6,0,B|192:288|152:304|112:304|112:304|72:304,2,165,2|6|8
304,236,102085,2,0,B|320:288|360:304|400:304|400:304|440:304,2,165,2|6|8
388,204,103563,6,0,B|376:168|348:148|304:148,1,110,0|8
210,148,104301,2,0,B|164:148|136:168|124:204,2,110,0|8|2
208,236,105409,1,8
304,236,105778,1,10
144,60,112425,6,0,B|88:104|68:192|88:280|144:324,1,296.999985837937,2|0
208,248,113902,2,0,B|176:192|196:124|256:108|316:124|336:192|304:248,1,296.999985837937,2|0
367,324,115378,2,0,B|424:280|444:192|424:104|368:60,1,296.999985837937,2|0
336,156,116855,2,0,B|308:204|248:188|256:156|264:124|204:108|176:156,1,197.999990558625,2|0
136,324,118332,5,4
212,368,118702,1,8
300,368,119071,1,0
376,324,119440,1,8
432,256,119809,2,0,B|416:212|368:184|316:180|316:180|316:104,1,220,0|0
256,40,120917,1,8
196,108,121286,2,0,B|196:182|196:182|144:186|96:214|80:258,1,220,0|0
160,296,122394,2,0,B|196:340|256:360|316:340|352:296,1,220,8|8
120,100,124240,5,4
44,148,124609,2,0,B|16:100|32:28|80:0|152:12,1,220,8|8
208,76,125717,1,0
208,164,126086,2,0,B|208:196|208:196|208:240|256:276|304:240|304:196|304:196|304:164,1,220,8|8
304,76,127194,1,0
363,12,127563,2,0,B|432:0|480:28|496:100|468:148,1,220,8|8
256,192,128671,12,4,130148
304,24,130886,6,0,B|272:128|336:172|464:160|464:160|352:216|332:252|380:384|380:384|288:280|256:348|224:280|132:384|132:384|180:252|160:216|48:160|48:160|176:172|240:128|208:24,1,1372.80005236817,0|8
132,68,136055,5,4
256,184,136794,1,8
396,280,137532,1,0
256,376,138271,1,8
116,280,139009,1,0
256,184,139748,1,8
380,68,140486,1,4
