osu file format v9

[General]
AudioFilename: Getter Jaani - Rockefeller Street (Nightcore Mix).mp3
AudioLeadIn: 0
PreviewTime: 41440
Countdown: 0
SampleSet: Soft
StackLeniency: 0.3
Mode: 0
LetterboxInBreaks: 0

[Editor]
DistanceSpacing: 0.9
BeatDivisor: 4
GridSize: 4

[Metadata]
Title:Rockefeller Street (Nightcore Mix)
Artist:Getter Jaani
Creator:osuplayer111
Version:Aleks
Source:Eurovision Song Contest 2011
Tags:Trance Aleks719 Gonzvlo xxheroxx

[Difficulty]
HPDrainRate:6
CircleSize:4
OverallDifficulty:6
ApproachRate:7
SliderMultiplier:1.7
SliderTickRate:0.5

[Events]
//Background and Video events
0,0,"Yo.jpg"
//Break Periods
//Storyboard Layer 0 (Background)
//Storyboard Layer 1 (Fail)
//Storyboard Layer 2 (Pass)
//Storyboard Layer 3 (Foreground)
//Storyboard Sound Samples
//Background Colour Transformations
3,100,0,0,202

[TimingPoints]
179,369.230769230769,4,2,1,80,1,0
29717,-100,4,1,1,65,0,0
41532,-100,4,1,1,80,0,0
43102,-100,4,2,1,80,0,0
43286,-100,4,1,1,80,0,0
43840,-100,4,2,1,80,0,0
44025,-100,4,1,1,80,0,0
44578,-100,4,2,1,80,0,0
44763,-100,4,1,1,80,0,0
44948,-100,4,2,1,80,0,0
45871,-100,4,1,1,80,0,0
48271,-100,4,2,1,80,0,0
48455,-100,4,1,1,80,0,0
49748,-100,4,2,1,80,0,0
49932,-100,4,1,1,80,0,0
51225,-100,4,2,1,80,0,0
51409,-100,4,1,1,80,0,0
51594,-100,4,2,1,80,0,0
51778,-100,4,1,1,80,0,0
53255,-100,4,1,1,65,0,0
59255,-100,4,2,1,80,0,0
71071,-100,4,1,1,65,0,0
82886,-100,4,1,1,80,0,0
84455,-100,4,2,1,80,0,0
84640,-100,4,1,1,80,0,0
85194,-100,4,2,1,80,0,0
85378,-100,4,1,1,80,0,0
85932,-100,4,2,1,80,0,0
86117,-100,4,1,1,80,0,0
86302,-100,4,2,1,80,0,0
87225,-100,4,1,1,80,0,0
91102,-100,4,2,1,80,0,0
91286,-100,4,1,1,80,0,0
92578,-100,4,2,1,80,0,0
92763,-100,4,1,1,80,0,0
92948,-100,4,2,1,80,0,0
93132,-100,4,1,1,80,0,0
93871,-100,4,1,2,80,0,0
94702,-100,4,1,1,80,0,1
106517,-100,4,2,2,65,0,0
118332,-100,4,1,1,80,0,0
119163,-100,4,2,1,80,0,0
119348,-100,4,1,1,80,0,0
119902,-100,4,2,1,80,0,0
120086,-100,4,1,1,80,0,0
120640,-100,4,2,1,80,0,0
120825,-100,4,1,1,80,0,0
126548,-100,4,2,1,80,0,0
126732,-100,4,1,1,80,0,0
126917,-100,4,2,1,80,0,0
127102,-100,4,1,1,80,0,0
128394,-100,4,2,1,80,0,0
128578,-100,4,1,2,80,0,0
130148,-100,4,1,1,80,0,1
140486,-100,4,1,1,80,0,0

[Colours]
Combo1 : 166,0,166
Combo2 : 183,0,0
Combo3 : 0,0,202
Combo4 : 91,0,183

[HitObjects]
256,308,6086,1,2
180,180,6455,1,8
332,180,6825,1,0
332,180,7194,2,0,B|312:236|372:300|436:272,1,170,8|0
400,124,7932,1,8
248,108,8302,2,0,B|308:136|368:72|347:14,1,170,0|8
275,38,8855,1,2
216,260,9409,2,0,B|196:312|256:352|316:312|296:260,2,170,8|0|8
264,108,10517,6,0,B|204:134|144:70|168:12,1,170,0|8
240,36,11071,2,0,B|260:97|192:151|138:126,1,170
64,108,11625,1,8
16,48,11809,1,2
100,264,12363,1,8
412,264,13102,1,8
332,136,13471,5,0
179,136,13840,1,8
172,212,14025,2,0,B|196:252|188:296,1,85
256,332,14394,1,0
323,293,14578,2,0,B|316:252|340:212,1,85,8|2
256,84,15132,1,2
328,116,15317,2,0,B|296:156|256:168|216:156|184:116,2,170,8|0|8
332,40,16240,5,2
332,40,16425,1,2
180,40,16794,1,8
256,172,17163,1,0
320,216,17348,1,0
276,280,17532,1,8
212,236,17717,1,2
408,116,18271,1,8
104,116,19009,1,8
168,256,19378,5,0
256,128,19748,1,8
344,256,20117,1,0
384,104,20486,1,8
324,56,20671,2,0,B|308:0|204:0|188:56,1,170,2|2
128,104,21225,1,8
256,192,21594,1,0
372,292,21963,5,8
372,292,22148,2,0,B|368:244|312:224,1,85,2|0
296,300,22517,2,0,B|256:328|216:300,1,85,0|8
140,292,22886,2,0,B|144:244|200:224,1,85,0|0
216,156,23255,2,0,B|256:184|295:156,1,85,0|8
340,92,23625,2,0,B|316:36|316:36|256:88|196:36|196:36|168:100,1,255,2|8
180,244,24548,1,0
332,244,24917,1,8
180,244,25286,5,0
256,112,25655,2,0,B|272:60|344:28|412:64,1,170,8|0
372,208,26394,2,0,B|332:248|332:248|332:276,1,85,8|2
180,276,26948,2,0,B|180:247|180:247|140:207,1,85,2|8
256,112,27502,1,0
332,240,27871,1,8
180,240,28240,1,0
104,240,28425,6,0,B|104:192|152:168,1,85,2|8
112,104,28794,2,0,B|153:80|198:109,1,85,2|0
232,40,29163,2,0,B|273:64|270:117,1,85,2|8
228,176,29532,1,2
256,248,29717,5,12
256,248,30086,1,8
284,176,30271,1,0
244,112,30455,2,0,B|241:64|282:40,1,85
320,108,30824,2,0,B|359:82|400:106,1,85,8|0
360,172,31193,2,0,B|402:192|402:240,1,85
324,240,31562,5,8
304,316,31748,2,0,B|256:336|256:384,1,85
188,240,32302,1,8
256,104,32671,1,0
324,240,33040,1,8
204,152,33409,2,0,B|159:104|198:26|260:32,1,170,0|8
288,104,33963,1,0
316,176,34148,2,0,B|360:223|321:301|259:296,1,170,0|8
184,280,34702,5,0
112,260,34886,2,0,B|64:256|32:284,2,85,0|0|8
152,192,35440,1,0
112,124,35625,2,0,B|64:128|32:100,2,85,0|0|8
184,152,36178,1,0
184,232,36363,2,0,B|220:268,4,42.5,0|0|0|0|8
252,192,36917,1,0
320,156,37102,1,0
384,116,37286,6,0,B|348:80,2,42.5,0|0|8
428,176,37655,1,0
436,252,37840,2,0,B|432:300|472:336,2,85,0|0|8
360,232,38394,2,0,B|352:276|372:324,1,85
292,328,38763,2,0,B|272:288|284:232,1,85,0|8
332,100,39317,1,0
184,132,39686,1,8
284,248,40055,1,0
184,132,40425,5,8
148,200,40609,1,0
136,276,40794,2,0,B|84:264|76:216,2,85,0|0|8
256,180,41532,5,4
396,116,41902,1,0
256,56,42271,1,0
116,116,42640,1,0
216,232,43009,2,0,B|216:188|216:188|184:144,1,85,4|0
176,80,43378,2,0,B|256:28|336:80,1,170,0|0
320,155,43932,2,0,B|296:188|296:188|296:232,1,85,0|0
256,380,44486,5,4
216,316,44671,1,0
296,316,44855,1,0
256,252,45040,2,0,B|240:176|164:160|112:216,2,170,0|2|2
332,252,45963,1,4
180,256,46332,1,0
256,124,46702,1,0
256,124,47071,1,0
392,196,47440,6,0,B|392:152|392:152|332:144|332:144|320:184|276:200,1,170,4|0
256,344,48178,2,0,B|256:300|256:236,2,85,0|0|0
220,193,48917,2,0,B|192:184|180:144|180:144|120:152|120:152|120:196,1,170,4|0
180,336,49655,1,0
256,344,49840,1,0
332,336,50025,1,0
456,248,50394,6,0,B|412:168|440:68,1,170,4|0
304,160,51132,2,0,B|332:200|324:244,1,85
256,276,51502,1,0
187,240,51686,2,0,B|180:200|208:160,1,85,0|4
75,83,52239,2,0,B|100:168|56:248,1,170,0|0
56,248,52978,1,0
180,340,53348,5,4
332,340,53717,1,8
456,248,54086,1,0
408,188,54271,2,0,B|408:128,2,42.5,0|0|8
332,172,54640,1,0
256,156,54825,1,0
256,80,55009,2,0,B|256:32,2,42.5,0|0|8
256,156,55379,1,0
180,172,55563,1,0
104,188,55748,2,0,B|104:128,2,42.5,0|0|8
188,316,56302,6,0,B|132:328|64:304|40:256,2,170,4|8|0
188,239,57225,2,0,B|188:175,2,42.5,0|0|8
324,316,57778,2,0,B|380:328|448:304|472:256,2,170,0|8|0
324,240,58701,2,0,B|324:176,2,42.5,0|0|8
256,104,59255,5,2
216,172,59440,1,0
296,172,59625,1,8
240,312,59994,2,0,B|240:376|120:376|120:312,1,170,0|8
272,312,60732,2,0,B|272:376|392:376|392:312,2,170,0|8|0
296,240,61655,1,2
320,168,61840,2,0,B|320:80,1,85,8|2
192,168,62394,2,0,B|192:80,1,85,2|8
176,236,62948,2,0,B|256:288|336:236,1,170,2|8
392,184,63502,1,2
392,108,63686,5,0
392,108,64055,2,0,B|312:55|232:108,2,170,8|0|8
456,148,64978,1,2
456,300,65348,1,2
391,339,65533,2,0,B|311:391|232:340,2,170,8|0|8
392,264,66455,5,2
336,212,66640,2,0,B|256:160|176:212,1,170,0|8
120,264,67194,1,0
104,188,67378,1,0
160,136,67563,1,0
232,160,67748,1,8
248,236,67932,2,0,B|332:192|327:97,1,170,2|2
320,20,68486,1,8
172,60,68855,1,0
196,212,69225,1,8
332,144,69594,1,0
408,144,69779,6,0,B|408:192|360:216,1,85,2|8
400,280,70148,2,0,B|359:304|314:275,1,85,2|0
280,344,70517,2,0,B|239:320|242:267,1,85,2|8
284,208,70886,1,2
256,136,71071,5,12
256,136,71440,1,8
228,208,71625,1,0
268,272,71809,2,0,B|271:320|230:344,1,85
192,276,72178,2,0,B|153:302|112:278,1,85,8|0
152,212,72547,2,0,B|110:192|110:144,1,85
188,144,72916,5,8
208,68,73102,2,0,B|216:20|264:8,1,85
324,144,73656,1,8
256,280,74025,1,0
188,144,74394,1,8
308,232,74763,2,0,B|353:280|314:358|252:352,1,170,0|8
224,280,75317,1,0
196,208,75502,2,0,B|152:161|191:83|253:88,1,170,0|8
324,108,76056,5,0
400,124,76240,2,0,B|448:128|480:100,2,85,0|0|8
360,192,76794,1,0
400,260,76979,2,0,B|448:256|480:284,2,85,4|0|8
328,232,77532,1,0
328,152,77717,2,0,B|292:116,4,42.5,0|0|0|0|8
260,192,78271,1,0
192,228,78456,1,0
128,268,78640,6,0,B|164:304,2,42.5,0|0|8
72,212,79009,1,0
80,136,79194,2,0,B|48:100|52:52,2,85,0|0|8
152,164,79748,2,0,B|168:116|136:80,1,85,0|4
212,56,80117,2,0,B|228:100|276:108,1,85,0|8
420,160,80671,1,0
332,288,81040,1,8
176,288,81409,1,0
204,216,81594,5,0
232,144,81779,1,8
160,116,81963,1,0
132,188,82148,2,0,B|80:172|80:124,2,85,0|0|8
280,148,82886,6,0,B|371:175|382:270,1,170,4|0
380,116,83625,2,0,B|369:212|278:239,1,170,4|0
212,100,84363,2,0,B|176:136|176:136|140:136,1,85,4|0
68,112,84732,2,0,B|16:192|68:272,1,170,0|0
141,248,85286,2,0,B|176:248|176:248|212:284,1,85,0|0
284,152,85840,5,4
220,192,86025,1,0
284,232,86209,1,0
348,192,86394,2,0,B|412:228|456:160|512:192,2,170,0|2|2
348,116,87317,1,4
348,268,87686,1,0
196,268,88056,1,0
196,116,88425,1,0
64,192,88794,6,0,B|108:192|108:192|116:132|116:132|76:120|60:76,1,170,4|0
220,80,89532,2,0,B|216:124|216:124|256:140|296:124|296:124|292:80,1,170
445,91,90271,2,0,B|436:120|396:132|396:132|404:192|404:192|448:192,1,170,4|0
332,292,91009,1,0
256,300,91194,1,0
180,292,91379,1,0
56,200,91748,6,0,B|100:280|72:380,1,170,4|0
208,288,92486,2,0,B|180:248|188:204,1,85
256,172,92856,1,0
325,208,93040,2,0,B|332:248|304:288,1,85,0|4
437,365,93593,6,0,B|412:280|456:200,1,170,0|8
492,132,94148,2,8,B|516:84,2,42.5,8|8|8
424,100,94517,2,8,B|360:68,2,42.5,8|8|4
388,168,94886,6,0,B|336:268,2,85,0|8|0
256,248,95625,2,0,B|307:148,2,85,0|8|0
256,248,96363,2,0,B|204:148,2,85,0|8|0
124,168,97102,2,0,B|176:268,2,85,0|8|0
100,96,97655,6,0,B|76:48|76:48|92:12|168:12|184:36,1,170,4|8
256,48,98209,1,0
333,31,98394,2,0,B|344:11|420:11|436:47|436:47|412:95,1,170,0|8
376,244,99132,1,4
328,304,99317,1,0
256,332,99502,1,8
184,304,99686,1,0
136,244,99871,1,0
256,148,100240,1,8
256,148,100609,1,4
332,164,100794,6,0,B|368:128|420:136,2,85,0|8|0
180,164,101532,2,0,B|144:128|92:136,2,85,0|8|0
180,316,102271,2,0,B|144:352|92:344,2,85,0|8|0
332,316,103009,2,0,B|368:352|420:344,2,85,0|8|0
256,296,103563,5,4
184,160,103932,1,8
256,132,104117,1,0
328,160,104302,1,0
328,160,104671,1,8
256,192,105040,12,4,106517
204,192,106763,5,0
204,192,106886,2,0,B|172:248|204:304,1,113.333333333333,8|0
308,192,107502,1,0
308,192,107625,2,0,B|340:136|308:80,1,113.333333333333,8|0
164,124,108240,5,0
164,124,108363,2,0,B|108:92|52:124,1,113.333333333333,8|0
108,268,108979,1,0
108,268,109102,2,0,B|163:300|220:268,1,113.333333333333,8|0
260,244,109471,6,0,B|315:212|372:244,1,113.333333333333
416,260,109840,2,0,B|448:204|416:148,1,113.333333333333,8|0
396,108,110209,2,0,B|316:160|236:108,1,170,0|8
84,92,110948,6,0,B|139:60|196:92,1,113.333333333333
200,140,111317,2,0,B|232:195|200:252,1,113.333333333333,8|0
176,292,111686,2,0,B|256:240|336:292,1,170,0|8
472,360,112425,1,0
464,260,112671,5,0
464,260,112794,2,0,B|496:204|464:148,1,113.333333333333,8|0
312,152,113410,1,0
312,152,113533,2,0,B|280:208|312:264,1,113.333333333333,8|0
200,152,114148,5,0
200,152,114271,2,0,B|232:208|200:264,1,113.333333333333,8|0
48,260,114887,1,0
48,260,115010,2,0,B|16:204|48:148,1,113.333333333333,8|0
76,112,115378,5,0
164,60,115625,2,0,B|208:104,1,56.6666666666667,0|8
164,196,115994,2,0,B|216:248,1,56.6666666666667
308,236,116363,2,0,B|348:195,1,56.6666666666667,0|8
308,100,116732,2,0,B|348:59,1,56.6666666666667,0|2
256,352,117594,1,4
180,56,118332,5,4
332,56,118702,1,0
200,132,119071,1,0
256,184,119255,1,0
312,132,119440,1,0
180,212,119809,2,0,B|144:232|144:232|124:272,1,85,4|0
176,328,120178,2,0,B|256:380|336:328,1,170,0|0
387,271,120732,2,0,B|368:232|368:232|332:212,1,85,0|0
336,60,121286,6,0,B|256:111|176:60,1,170,4|0
100,192,122025,2,0,B|185:235|180:330,1,170,0|0
331,329,122763,2,0,B|326:235|412:192,1,170,0|0
380,40,123502,1,0
256,128,123871,1,0
116,72,124240,6,0,B|60:124|68:176|68:176|100:220,1,170,4|0
228,132,124978,2,0,B|258:173|258:173|266:225|210:277,1,170
56,268,125717,6,0,B|100:188|72:88,1,170,4|0
208,180,126455,2,0,B|180:140|188:96,1,85
256,64,126825,1,0
325,100,127009,2,0,B|332:140|304:180,1,85,0|4
437,103,127563,6,0,B|412:188|456:268,1,170,0|0
304,264,128302,1,0
304,264,128486,1,0
304,344,128671,2,8,B|259:336|234:295,1,85
160,300,129040,2,8,B|164:252|211:227,1,85
204,152,129409,2,8,B|163:131|159:83,1,85
235,85,129779,2,8,B|259:47|304:40,1,85
304,120,130148,5,4
304,120,130517,1,8
296,272,130886,1,0
216,272,131071,1,0
256,336,131255,1,8
216,188,131624,2,0,B|216:144|216:144|184:100,1,85,4|0
176,36,131993,2,0,B|256:-16|336:36,1,170,8|0
320,111,132547,2,0,B|296:144|296:144|296:188,1,85,0|8
256,336,133101,5,4
180,336,133286,1,0
136,272,133470,1,8
44,148,133840,2,0,B|16:232|16:232|68:320,1,170,0|8
184,216,134578,2,0,B|216:180|216:120|216:120|264:68,1,170,4|8
384,160,135317,1,0
422,226,135502,1,0
356,264,135686,1,8
318,198,135871,1,0
284,128,136055,6,0,B|212:80|192:164|116:116,1,170,4|8
228,232,136794,2,0,B|300:184|320:268|396:220,1,170,0|8
284,336,137532,2,0,B|212:288|192:372|116:324,1,170,4|8
48,308,138086,2,0,B|60:256|120:252,1,85
154,194,138455,2,0,B|188:224|180:272,1,85,0|8
80,156,139009,6,0,B|112:104|196:96|228:160,1,170,4|8
256,220,139563,1,0
232,292,139748,2,0,B|292:308|340:264|328:208,2,127.5
160,268,140486,1,4
