osu file format v12

[General]
AudioFilename: OP2 1080p.mp3
AudioLeadIn: 0
PreviewTime: 63834
Countdown: 0
SampleSet: Soft
StackLeniency: 0.5
Mode: 0
LetterboxInBreaks: 0
WidescreenStoryboard: 0

[Editor]
Bookmarks: 17544,30286,51092,63995,74157,83189,83350
DistanceSpacing: 1
BeatDivisor: 4
GridSize: 4
TimelineZoom: 2.2

[Metadata]
Title:~Outgrow~ (TV Size)
TitleUnicode:~Outgrow~ (TV Size)
Artist:Gero
ArtistUnicode:Gero
Creator:TaMul
Version:Hard
Source:東京レイヴンズ
Tags:Tokyo Ravens climbb65588 opening Katsuhiko Kurosu Yohske Yamamoto Sumiyo Mutsumi HoneyWorks
BeatmapID:426280
BeatmapSetID:177055

[Difficulty]
HPDrainRate:6
CircleSize:4
OverallDifficulty:6
ApproachRate:7
SliderMultiplier:1.8
SliderTickRate:2

[Events]
//Background and Video events
0,0,"JJDouGa.COM_283409_3845E750_1366x768.jpg",0,0
Video,0,"Video.avi"
//Break Periods
//Storyboard Layer 0 (Background)
//Storyboard Layer 1 (Fail)
//Storyboard Layer 2 (Pass)
//Storyboard Layer 3 (Foreground)
//Storyboard Sound Samples
//Background Colour Transformations
3,100,163,162,255

[TimingPoints]
770,322.58064516129,4,2,1,30,1,0
1899,-100,4,2,1,70,0,0
14963,-100,4,2,1,40,0,0
15931,-100,4,2,1,70,0,0
18350,-100,4,2,3,70,0,0
18511,-100,4,2,1,70,0,0
20931,-100,4,2,3,70,0,0
21092,-100,4,2,1,70,0,0
24802,-100,4,2,3,70,0,0
24963,-100,4,2,1,70,0,0
27382,-100,4,2,3,70,0,0
27544,-100,4,2,1,70,0,0
31253,-100,4,2,3,70,0,0
31415,-100,4,2,1,70,0,0
37866,-100,4,2,2,70,0,0
38028,-100,4,2,1,70,0,0
44157,-100,4,2,3,70,0,0
44318,-100,4,2,1,70,0,0
63995,-100,4,2,1,70,0,1
64802,-100,4,2,3,70,0,1
64963,-100,4,2,1,70,0,1
73995,-100,4,2,1,70,0,0
74157,-100,4,2,1,70,0,1
83189,-100,4,2,1,70,0,0
89802,-100,4,2,1,5,0,0

[Colours]
Combo1 : 128,128,255
Combo2 : 255,128,128
Combo3 : 0,128,255
Combo4 : 255,0,128

[HitObjects]
184,248,1092,6,0,B|140:272|96:256|96:256|64:216|12:224,2,180,0|0|2,0:0|0:0|0:0,0:0:0:0:
256,196,1899,6,0,L|272:376,1,180,6|0,0:0|0:0,0:0:0:0:
356,344,2382,2,0,L|340:164,2,180
436,304,3189,2,0,P|396:264|280:296,1,180,6|0,0:0|0:0,0:0:0:0:
196,272,3673,2,0,P|160:304|112:304,1,90
36,276,3995,2,0,P|0:192|36:116,1,180
119,77,4479,5,6,0:0:0:0:
119,77,4640,2,0,P|163:81|196:112,1,90
284,132,4963,2,0,P|328:144|372:124,1,90
376,36,5286,2,0,P|436:64|448:172,1,180
384,228,5769,2,0,P|344:264|368:380,1,180,6|0,0:0|0:0,0:0:0:0:
424,308,6253,1,0,0:0:0:0:
424,308,6415,1,0,0:0:0:0:
261,363,6576,2,0,P|254:274|296:196,1,180,2|8,0:0|0:0,0:0:0:0:
364,136,7060,6,0,P|408:128|452:8,1,180,6|0,0:0|0:0,0:0:0:0:
364,44,7544,2,0,P|316:52|284:84,1,90,2|0,0:0|0:0,0:0:0:0:
204,48,7866,2,0,P|160:76|116:72,2,90,2|0|8,0:0|0:0|0:0,0:0:0:0:
220,136,8350,6,0,B|180:160|136:156|136:156|168:192|152:244,1,180,6|0,0:0|0:0,0:0:0:0:
88,304,8834,1,2,0:0:0:0:
4,276,8995,2,0,P|27:238|68:221,1,90,0|2,0:0|0:0,0:0:0:0:
176,324,9318,1,0,0:0:0:0:
176,324,9479,1,8,0:0:0:0:
176,324,9640,6,0,B|216:292|312:344|352:320,1,180,6|0,0:0|0:0,0:0:0:0:
420,260,10124,2,0,P|440:296|432:352,1,90,2|0,0:0|0:0,0:0:0:0:
351,320,10447,2,0,P|328:276|336:232,1,90,2|0,0:0|0:0,0:0:0:0:
400,176,10769,1,8,0:0:0:0:
488,204,10931,2,0,P|516:252|508:388,1,180,6|0,0:0|0:0,0:0:0:0:
292,372,11415,6,0,P|260:320|272:188,2,180,8|2|8,0:0|0:0|0:0,0:0:0:0:
256,192,12221,12,0,14963,3:0:0:0:
256,192,15286,12,8,16899,0:0:0:0:
116,124,17060,5,2,0:0:0:0:
116,124,17544,6,0,L|123:213,1,90,6|0,0:0|0:0,0:0:0:0:
192,116,17866,2,0,L|199:205,1,90,8|0,0:0|0:0,0:0:0:0:
168,292,18189,2,0,P|104:304|32:216,2,180,2|8|2,0:0|0:0|0:0,0:0:0:0:
256,276,18995,1,0,0:0:0:0:
344,292,19157,2,0,P|408:304|480:216,1,180,8|2,0:0|0:0,0:0:0:0:
444,140,19640,1,2,0:0:0:0:
351,141,19802,2,0,P|360:185|392:216,1,90,8|0,0:0|0:0,0:0:0:0:
400,60,20124,6,0,P|352:44|304:60,1,90,2|0,0:0|0:0,0:0:0:0:
236,100,20447,2,0,P|192:124|144:120,1,90,8|0,0:0|0:0,0:0:0:0:
80,72,20769,2,0,P|124:32|244:24,2,180,2|8|2,0:0|0:0|0:0,0:0:0:0:
72,160,21576,5,0,0:0:0:0:
136,224,21737,2,0,P|160:264|156:312,1,90,8|0,0:0|0:0,0:0:0:0:
1,323,22060,2,0,P|28:289|72:284,1,90,2|8,0:0|0:0,0:0:0:0:
232,364,22382,2,0,P|284:376|320:360,1,90,0|8,0:0|0:0,0:0:0:0:
372,292,22705,6,0,B|392:248|364:208|364:208|424:216|456:168,2,180,6|8|2,0:0|0:0|0:0,0:0:0:0:
288,260,23511,1,2,0:0:0:0:
280,168,23673,2,0,P|312:128|348:120,1,90,8|2,0:0|0:0,0:0:0:0:
392,40,23995,2,0,P|336:36|224:88,1,180,2|8,0:0|0:0,0:0:0:0:
188,168,24479,1,0,0:0:0:0:
176,256,24640,2,0,P|168:308|56:344,2,180,2|8|2,0:0|0:0|0:0,0:0:0:0:
188,168,25447,5,0,0:0:0:0:
160,84,25608,2,0,P|132:48|88:40,1,90,8|0,0:0|0:0,0:0:0:0:
12,80,25931,1,2,0:0:0:0:
7,166,26092,2,0,P|51:162|84:132,2,90,2|8|0,0:0|0:0|0:0,0:0:0:0:
32,336,26576,6,0,P|68:272|168:240,1,180,2|8,0:0|0:0,0:0:0:0:
256,256,27060,1,0,0:0:0:0:
344,272,27221,2,0,P|400:280|508:220,1,180,2|8,0:0|0:0,0:0:0:0:
464,144,27705,1,2,0:0:0:0:
464,144,27866,6,0,L|452:48,1,90,6|2,0:0|0:0,0:0:0:0:
336,192,28350,2,0,L|324:96,1,90,2|2,0:0|0:0,0:0:0:0:
176,192,28834,2,0,L|188:96,1,90,2|2,0:0|0:0,0:0:0:0:
48,144,29318,2,0,L|60:48,1,90,2|2,0:0|0:0,0:0:0:0:
116,224,29802,6,0,P|152:192|128:288,1,270,0|6,0:0|0:0,0:0:0:0:
140,120,30608,5,2,0:0:0:0:
140,120,30769,2,0,P|196:116|228:128,1,90,8|0,0:0|0:0,0:0:0:0:
304,172,31092,2,0,P|352:184|480:164,1,180,2|8,0:0|0:0,0:0:0:0:
476,256,31576,1,0,0:0:0:0:
476,256,31737,2,0,L|472:352,2,90,2|2|8,0:0|0:0|0:0,0:0:0:0:
388,268,32221,2,0,L|384:364,2,90,2|0|2,3:0|0:0|0:0,0:0:0:0:
364,88,32866,6,0,P|292:68|208:136,1,180,6|2,0:0|0:0,0:0:0:0:
224,216,33350,2,0,P|240:260|220:312,1,90,8|0,0:0|0:0,0:0:0:0:
152,348,33673,1,2,0:0:0:0:
80,296,33834,2,0,P|112:268|162:263,1,90,2|8,0:0|0:0,0:0:0:0:
296,348,34157,5,2,0:0:0:0:
296,348,34318,2,0,P|316:304|300:176,2,180,2|2|2,0:0|0:0|0:0,0:0:0:0:
152,348,35124,1,2,0:0:0:0:
80,220,35286,1,8,0:0:0:0:
80,220,35447,6,0,B|52:184|116:88|84:44,1,180,6|2,0:0|0:0,0:0:0:0:
16,100,35931,2,0,P|60:128|168:76,1,180,8|2,0:0|0:0,0:0:0:0:
252,104,36415,2,0,P|292:76|336:80,1,90,2|8,0:0|0:0,0:0:0:0:
408,32,36737,1,2,0:0:0:0:
408,32,36899,6,0,L|400:216,1,180,2|8,0:0|0:0,0:0:0:0:
304,332,37382,2,0,L|311:152,2,180,2|2|2,0:0|0:0|0:0,0:0:0:0:
156,228,38350,1,2,0:0:0:0:
156,228,38511,2,0,P|120:264|76:264,1,90,2|2,0:0|0:0,0:0:0:0:
8,220,38834,1,8,0:0:0:0:
17,128,38995,1,2,0:0:0:0:
17,128,39157,2,0,P|59:142|88:176,1,90,8|2,0:0|0:0,0:0:0:0:
56,348,39479,6,0,P|140:352|220:296,1,180,2|0,0:0|0:0,0:0:0:0:
240,120,40124,1,2,0:0:0:0:
180,52,40286,1,2,0:0:0:0:
152,136,40447,1,8,0:0:0:0:
208,204,40608,2,0,P|264:212|328:116,1,180,6|2,0:0|0:0,0:0:0:0:
304,36,41092,6,0,L|394:38,1,90,8|0,0:0|0:0,0:0:0:0:
418,123,41415,2,0,L|328:121,2,90,2|2|8,0:0|0:0|0:0,0:0:0:0:
476,56,41899,2,0,P|504:128|444:208,1,180,2|2,0:0|0:0,0:0:0:0:
360,204,42382,2,0,P|312:204|252:312,1,180,8|2,0:0|0:0,0:0:0:0:
328,352,42866,1,2,0:0:0:0:
392,288,43028,1,8,0:0:0:0:
360,204,43189,6,0,B|356:156|316:132|316:132|344:84|320:40,1,180,2|2,0:0|0:0,0:0:0:0:
240,80,43673,2,0,P|184:104|64:72,2,180,8|2|8,0:0|0:0|0:0,0:0:0:0:
322,44,44479,2,0,P|364:28|500:48,1,180,2|2,0:0|0:0,0:0:0:0:
468,132,44963,2,0,B|488:180|456:224|456:224|452:268|480:308,1,180,8|2,0:0|0:0,0:0:0:0:
476,302,45447,1,2,0:0:0:0:
384,164,45608,1,8,0:0:0:0:
308,312,45769,6,0,P|268:344|140:348,1,180,6|2,0:0|0:0,0:0:0:0:
100,272,46253,1,8,0:0:0:0:
144,192,46415,1,0,0:0:0:0:
235,201,46576,2,0,P|226:244|190:270,2,90,2|2|8,0:0|0:0|0:0,0:0:0:0:
204,116,47060,2,0,P|188:72|280:0,1,180,2|2,0:0|0:0,0:0:0:0:
364,20,47544,2,0,P|380:64|288:136,1,180,8|2,0:0|0:0,0:0:0:0:
204,116,48028,5,2,0:0:0:0:
144,192,48189,1,8,0:0:0:0:
172,276,48350,2,0,B|240:240|276:312|352:272,1,180,6|2,0:0|0:0,0:0:0:0:
284,208,48834,2,0,P|256:264|312:360,1,180,8|2,0:0|0:0,0:0:0:0:
400,344,49318,1,2,0:0:0:0:
436,264,49479,1,8,0:0:0:0:
380,192,49640,1,2,0:0:0:0:
380,192,49802,6,0,B|364:152|364:152|368:96,1,90,12|0,0:0|0:0,0:0:0:0:
440,48,50124,2,0,B|456:88|456:88|452:144,1,90,8|0,0:0|0:0,0:0:0:0:
284,208,50447,2,0,B|268:168|268:168|280:28,2,180,8|2|6,0:0|0:0|0:0,0:0:0:0:
256,292,51253,5,0,0:0:0:0:
168,304,51415,1,2,0:0:0:0:
108,136,51737,2,0,B|124:180|124:180|120:228,1,90,8|2,0:0|0:0,0:0:0:0:
36,196,52060,2,0,P|16:144|84:48,1,180,2|2,0:0|0:0,0:0:0:0:
168,68,52544,5,2,0:0:0:0:
256,44,52705,1,2,0:0:0:0:
344,200,53028,2,0,B|328:156|328:156|332:108,1,90,8|0,0:0|0:0,0:0:0:0:
416,144,53350,2,0,B|432:188|432:188|428:236,1,90,2|12,0:0|0:0,0:0:0:0:
360,288,53673,6,0,B|312:300|280:264|280:264|224:256|192:304,2,180,2|2|8,0:0|0:0|0:0,0:0:0:0:
344,200,54479,2,0,B|328:156|328:156|332:108,2,90,2|2|8,0:0|0:0|0:0,0:0:0:0:
428,236,54963,6,0,P|448:280|368:376,1,180,2|8,0:0|0:0,0:0:0:0:
292,348,55447,1,0,0:0:0:0:
292,348,55528,1,0,0:0:0:0:
292,348,55608,2,0,P|244:328|200:336,1,90,8|0,0:0|0:0,0:0:0:0:
124,300,55931,2,0,P|80:336|40:336,1,90,8|0,0:0|0:0,0:0:0:0:
52,248,56253,5,6,0:0:0:0:
136,212,56415,1,2,0:0:0:0:
208,264,56576,1,2,0:0:0:0:
388,240,56899,2,0,P|352:264|296:256,1,90,8|2,0:0|0:0,0:0:0:0:
314,90,57221,2,0,P|336:128|328:172,1,90,2|8,0:0|0:0,0:0:0:0:
240,148,57544,5,2,0:0:0:0:
228,60,57705,1,2,0:0:0:0:
300,4,57866,1,2,0:0:0:0:
142,33,58189,2,0,P|137:77|160:116,1,90,8|0,0:0|0:0,0:0:0:0:
240,148,58511,2,0,P|252:184|232:236,1,90,8|8,0:0|0:0,0:0:0:0:
160,284,58834,5,6,0:0:0:0:
244,320,58995,1,2,0:0:0:0:
316,268,59157,1,8,0:0:0:0:
396,308,59318,1,2,0:0:0:0:
396,308,59479,2,0,P|408:256|392:216,1,90,0|2,0:0|0:0,0:0:0:0:
352,144,59802,2,0,P|332:100|340:56,1,90,8|0,0:0|0:0,0:0:0:0:
440,152,60124,6,0,B|352:144|352:144|272:204,1,180,2|8,0:0|0:0,0:0:0:0:
278,198,60608,1,2,0:0:0:0:
232,276,60769,2,0,P|236:320|216:360,1,90,0|2,0:0|0:0,0:0:0:0:
148,300,61092,2,0,P|96:296|56:320,1,90,8|2,0:0|0:0,0:0:0:0:
0,248,61415,6,0,P|48:216|168:208,1,180,6|8,0:0|0:0,0:0:0:0:
252,232,61899,2,0,P|340:252|428:212,1,180,6|8,0:0|0:0,0:0:0:0:
256,192,62382,12,2,63511,0:0:0:0:
96,56,63995,6,0,P|80:116|96:152,1,90,6|0,0:0|0:0,0:0:0:0:
148,208,64318,2,0,B|172:248|152:292|152:292|164:348|216:360,2,180,8|2|8,0:0|0:0|0:0,0:0:0:0:
68,252,65124,1,0,0:0:0:0:
180,128,65286,2,0,P|224:176|228:296,1,180,2|8,0:0|0:0,0:0:0:0:
320,268,65769,1,2,0:0:0:0:
400,312,65931,2,0,P|448:340|488:332,1,90,2|0,0:0|0:0,0:0:0:0:
460,248,66253,2,0,P|480:200|472:160,1,90,8|2,0:0|0:0,0:0:0:0:
420,88,66576,5,2,0:0:0:0:
332,92,66737,1,2,0:0:0:0:
264,152,66899,2,0,P|224:184|100:176,1,180,8|2,0:0|0:0,0:0:0:0:
72,92,67382,2,0,P|104:56|112:12,2,90,2|8|2,0:0|0:0|0:0,0:0:0:0:
102,177,67866,6,0,P|77:225|113:345,1,180,2|8,0:0|0:0,0:0:0:0:
192,368,68350,1,2,0:0:0:0:
272,324,68511,2,0,P|236:284|192:280,1,90,2|8,0:0|0:0,0:0:0:0:
344,368,68834,2,0,P|356:320|340:276,1,90,2|8,0:0|0:0,0:0:0:0:
296,204,69157,5,6,0:0:0:0:
296,204,69318,2,0,P|276:144|280:116,2,90,2|8|2,0:0|0:0|0:0,0:0:0:0:
388,204,69802,2,0,P|432:200|500:88,1,180,2|8,0:0|0:0,0:0:0:0:
440,28,70286,1,2,0:0:0:0:
352,16,70447,2,0,P|308:20|240:132,1,180,2|8,0:0|0:0,0:0:0:0:
264,212,70931,1,2,0:0:0:0:
264,212,71092,2,0,P|276:256|260:304,1,90,2|2,0:0|0:0,0:0:0:0:
184,340,71415,2,0,B|136:324|136:324|72:332,1,90,8|2,0:0|0:0,0:0:0:0:
120,240,71737,5,12,0:0:0:0:
120,240,71899,2,0,L|132:148,1,90,2|2,0:0|0:0,0:0:0:0:
60,100,72221,1,12,0:0:0:0:
60,100,72383,2,0,L|48:192,2,90,2|2|12,0:0|0:0|0:0,0:0:0:0:
304,64,73350,6,0,B|340:96|391:87|391:87|436:56|488:76,2,180,8|2|8,0:0|0:0|0:0,0:0:0:0:
212,68,74157,2,0,P|156:44|60:104,1,180,6|2,0:0|0:0,0:0:0:0:
60,192,74640,1,8,0:0:0:0:
140,236,74802,2,0,P|156:184|140:144,2,90,2|8|2,0:0|0:0|0:0,0:0:0:0:
64,284,75286,1,8,0:0:0:0:
64,284,75447,6,0,P|132:328|216:284,1,180,2|2,0:0|0:0,0:0:0:0:
252,204,75931,2,0,P|240:156|252:116,1,90,8|2,0:0|0:0,0:0:0:0:
308,48,76253,2,0,P|352:32|464:88,1,180,2|8,0:0|0:0,0:0:0:0:
464,180,76737,6,0,P|436:224|436:348,1,180,2|2,0:0|0:0,0:0:0:0:
348,332,77221,2,0,L|296:344,2,45,8|0|2,0:0|0:0|0:0,0:0:0:0:
348,240,77544,2,0,L|296:252,2,45,8|0|2,0:0|0:0|0:0,0:0:0:0:
428,284,77866,1,8,0:0:0:0:
248,296,78028,6,0,B|188:328|136:268|72:300,1,180,6|2,0:0|0:0,0:0:0:0:
100,216,78511,1,8,0:0:0:0:
80,128,78673,1,2,0:0:0:0:
4,80,78834,1,2,0:0:0:0:
272,36,79157,1,8,0:0:0:0:
272,36,79318,6,0,P|220:56|192:168,1,180,6|2,0:0|0:0,0:0:0:0:
256,232,79802,2,0,P|300:252|344:240,1,90,8|2,0:0|0:0,0:0:0:0:
404,180,80124,1,8,0:0:0:0:
404,180,80286,2,0,P|384:140|396:88,1,90,2|8,0:0|0:0,0:0:0:0:
476,128,80608,6,0,P|496:184|424:272,1,180,6|2,0:0|0:0,0:0:0:0:
340,244,81092,2,0,L|352:336,1,90,8|2,0:0|0:0,0:0:0:0:
256,232,81415,2,0,L|268:324,2,90,8|2|8,0:0|0:0|0:0,0:0:0:0:
248,144,81899,6,0,P|252:72|168:16,1,180,2|2,0:0|0:0,0:0:0:0:
80,32,82382,1,2,0:0:0:0:
12,92,82544,1,2,0:0:0:0:
8,180,82705,2,0,P|16:232|116:308,1,180,8|2,0:0|0:0,0:0:0:0:
200,292,83189,1,8,0:0:0:0:
200,292,83673,6,0,P|252:240|360:240,2,180,0|2|8,0:0|0:0|0:0,0:0:0:0:
110,307,84479,2,0,P|34:263|8:180,1,180,8|2,0:0|0:0,0:0:0:0:
12,92,84963,1,2,0:0:0:0:
80,32,85124,2,0,P|132:20|240:84,1,180,8|0,0:0|0:0,0:0:0:0:
324,60,85608,1,8,0:0:0:0:
324,60,85769,6,0,B|364:88|408:72|408:72|436:28|488:32,1,180,0|0,0:0|0:0,0:0:0:0:
488,124,86253,1,0,0:0:0:0:
420,184,86415,2,0,P|451:214|496:217,2,90,8|0|0,0:0|0:0|0:0,0:0:0:0:
488,124,86899,5,2,0:0:0:0:
332,156,87060,1,12,0:0:0:0:
256,192,87221,12,0,89802,0:0:0:0:
