osu file format v13

[General]
AudioFilename: OP2 1080p.mp3
AudioLeadIn: 0
PreviewTime: 63834
Countdown: 0
SampleSet: Soft
StackLeniency: 0.5
Mode: 0
LetterboxInBreaks: 0
WidescreenStoryboard: 0

[Editor]
Bookmarks: 17544,30286,45931,51092,63995,74157,83189,83350
DistanceSpacing: 1
BeatDivisor: 4
GridSize: 4
TimelineZoom: 2.2

[Metadata]
Title:~Outgrow~ (TV Size)
TitleUnicode:~Outgrow~ (TV Size)
Artist:Gero
ArtistUnicode:Gero
Creator:TaMul
Version:Easy
Source:東京レイヴンズ
Tags:Tokyo Ravens climbb65588 opening Katsuhiko Kurosu Yohske Yamamoto Sumiyo Mutsumi HoneyWorks
BeatmapID:426279
BeatmapSetID:177055

[Difficulty]
HPDrainRate:2
CircleSize:3
OverallDifficulty:2
ApproachRate:3
SliderMultiplier:0.899999999999999
SliderTickRate:2

[Events]
//Background and Video events
0,0,"JJDouGa.COM_283409_3845E750_1366x768.jpg",0,0
Video,0,"Video.avi"
//Break Periods
//Storyboard Layer 0 (Background)
//Storyboard Layer 1 (Fail)
//Storyboard Layer 2 (Pass)
//Storyboard Layer 3 (Foreground)
//Storyboard Sound Samples
//Background Colour Transformations
3,100,163,162,255

[TimingPoints]
770,322.58064516129,4,2,1,70,1,0
7544,-100,4,2,3,70,0,0
7624,-100,4,2,1,70,0,0
8834,-100,4,2,3,70,0,0
8915,-100,4,2,1,70,0,0
10769,-100,4,2,2,70,0,0
10850,-100,4,2,1,70,0,0
14963,-100,4,2,1,40,0,0
16899,-100,4,2,1,70,0,0
17866,-100,4,2,2,70,0,0
18028,-100,4,2,1,70,0,0
19157,-100,4,2,2,70,0,0
19318,-100,4,2,1,70,0,0
20447,-100,4,2,2,70,0,0
20608,-100,4,2,1,70,0,0
23028,-100,4,2,2,70,0,0
23189,-100,4,2,1,70,0,0
24318,-100,4,2,2,70,0,0
24479,-100,4,2,1,70,0,0
24963,-100,4,2,2,70,0,0
25124,-100,4,2,1,70,0,0
26899,-100,4,2,2,70,0,0
27060,-100,4,2,1,70,0,0
27544,-100,4,2,2,70,0,0
27705,-100,4,2,1,70,0,0
32060,-100,4,2,2,70,0,0
32221,-100,4,2,1,70,0,0
33189,-100,4,2,3,70,0,0
33350,-100,4,2,1,70,0,0
34479,-100,4,2,3,70,0,0
34640,-100,4,2,2,70,0,0
34802,-100,4,2,1,70,0,0
35769,-100,4,2,3,70,0,0
35931,-100,4,2,2,70,0,0
36092,-100,4,2,1,70,0,0
37221,-100,4,2,2,70,0,0
37382,-100,4,2,1,70,0,0
38511,-100,4,2,2,70,0,0
38673,-100,4,2,3,70,0,0
38834,-100,4,2,1,70,0,0
41092,-100,4,2,2,70,0,0
41253,-100,4,2,3,70,0,0
41415,-100,4,2,1,70,0,0
43673,-100,4,2,2,70,0,0
43834,-100,4,2,3,70,0,0
43995,-100,4,2,1,70,0,0
44802,-100,4,2,3,70,0,0
44963,-100,4,2,1,70,0,0
46253,-100,4,2,2,70,0,0
46415,-100,4,2,3,70,0,0
46576,-100,4,2,1,70,0,0
48673,-100,4,2,3,70,0,0
48834,-100,4,2,2,70,0,0
48995,-100,4,2,3,70,0,0
49157,-100,4,2,1,70,0,0
54157,-100,4,2,3,70,0,0
54318,-100,4,2,1,70,0,0
55286,-100,4,2,3,70,0,0
55447,-100,4,2,1,70,0,0
56576,-100,4,2,3,70,0,0
56899,-100,4,2,1,70,0,0
57866,-100,4,2,3,70,0,0
58028,-100,4,2,1,70,0,0
58189,-100,4,2,2,70,0,0
58350,-100,4,2,1,70,0,0
63995,-100,4,2,1,70,0,1
64963,-100,4,2,2,70,0,1
65124,-100,4,2,1,70,0,1
68189,-100,4,2,2,70,0,1
68350,-100,4,2,1,70,0,1
70124,-100,4,2,2,70,0,1
70286,-100,4,2,1,70,0,1
70769,-100,4,2,2,70,0,1
70931,-100,4,2,1,70,0,1
73995,-100,4,2,1,70,0,0
74157,-100,4,2,1,70,0,1
74640,-100,4,2,2,70,0,1
74802,-100,4,2,1,70,0,1
77866,-100,4,2,2,70,0,1
78028,-100,4,2,1,70,0,1
80447,-100,4,2,2,70,0,1
80608,-100,4,2,1,70,0,1
83028,-100,4,2,2,70,0,1
83189,-100,4,2,1,70,0,0
87060,-100,4,2,1,30,0,0

[Colours]
Combo1 : 128,128,255
Combo2 : 255,128,128
Combo3 : 0,128,255
Combo4 : 255,0,128

[HitObjects]
16,84,1899,6,0,P|60:76|4:156,1,225,6|0,0:0|0:0,0:0:0:0:
4,304,3189,2,0,P|92:304|200:220,1,225,6|0,0:0|0:0,0:0:0:0:
284,120,4479,6,0,P|367:47|477:39,1,225,6|0,0:0|0:0,0:0:0:0:
484,176,5769,2,0,P|403:220|486:261,1,225,6|0,0:0|0:0,0:0:0:0:
380,344,7060,6,0,P|324:280|328:144,1,225,6|8,0:0|0:0,0:0:0:0:
232,52,8350,2,0,P|184:72|16:56,1,225,6|8,0:0|0:0,0:0:0:0:
48,188,9640,6,0,P|72:220|72:312,1,135,6|2,0:0|0:0,0:0:0:0:
148,360,10447,2,0,P|168:304|168:224,1,135,2|6,0:0|0:0,0:0:0:0:
128,100,11415,6,0,L|224:108,2,89.9999999999999,8|8|8,0:0|0:0|0:0,0:0:0:0:
256,192,12221,12,0,14963,3:0:0:0:
140,92,16899,6,0,L|136:144,1,45,8|2,0:0|0:0,0:0:0:0:
64,248,17544,6,0,P|132:248|240:272,1,180,6|2,0:0|0:0,0:0:0:0:
396,180,18834,2,0,P|328:180|220:156,1,180,2|2,0:0|0:0,0:0:0:0:
88,36,20124,6,0,P|108:92|100:216,1,180,2|2,0:0|0:0,0:0:0:0:
148,288,21092,1,8,0:0:0:0:
236,264,21415,2,0,P|280:256|332:272,2,89.9999999999999,2|8|2,0:0|0:0|0:0,0:0:0:0:
188,92,22705,6,0,P|240:76|368:92,1,180,6|2,0:0|0:0,0:0:0:0:
292,256,23995,2,0,P|240:272|112:256,2,180,2|2|2,0:0|0:0|0:0,0:0:0:0:
362,89,25931,5,2,0:0:0:0:
288,40,26253,1,8,0:0:0:0:
284,132,26576,2,0,P|360:180|436:136,2,180,2|2|6,0:0|0:0|0:0,0:0:0:0:
80,336,29802,6,0,P|104:300|96:208,1,135,8|6,0:0|0:0,0:0:0:0:
44,88,30769,1,8,0:0:0:0:
212,148,31415,1,8,0:0:0:0:
308,160,31737,6,0,P|352:136|444:148,1,135,2|0,0:0|3:0,0:0:0:0:
492,212,32544,1,0,0:0:0:0:
464,296,32866,6,0,P|420:320|328:308,1,135,6|8,0:0|0:0,0:0:0:0:
256,276,33673,1,2,0:0:0:0:
132,328,34157,2,0,B|104:264|144:200|144:200|84:220|48:188,1,225,2|2,0:0|0:0,0:0:0:0:
24,64,35447,6,0,P|84:40|224:104,1,225,2|2,0:0|0:0,0:0:0:0:
212,192,36576,1,8,0:0:0:0:
296,160,36899,2,0,P|348:164|392:96,1,135,2|2,0:0|3:0,0:0:0:0:
384,12,37705,1,2,0:0:0:0:
464,52,38028,6,0,P|468:148|376:244,1,225,2|8,0:0|0:0,0:0:0:0:
296,240,39157,1,8,0:0:0:0:
256,192,39479,12,8,40447,0:0:0:0:
120,80,40931,6,0,P|184:136|188:184,1,135,2|2,0:0|0:0,0:0:0:0:
148,264,41737,1,8,0:0:0:0:
320,216,42382,2,0,P|360:228|416:216,1,89.9999999999999,8|2,0:0|0:0,0:0:0:0:
308,124,43189,6,0,P|256:148|272:296,1,225,2|2,0:0|0:0,0:0:0:0:
136,256,44479,2,0,B|68:248|68:248|4:272,1,135,2|8,0:0|0:0,0:0:0:0:
0,180,45286,1,2,0:0:0:0:
156,340,46092,6,0,P|220:284|220:232,1,135,2|2,0:0|0:0,0:0:0:0:
184,156,46898,1,8,0:0:0:0:
356,204,47543,2,0,P|396:192|452:204,1,89.9999999999999,8|2,0:0|0:0,0:0:0:0:
344,296,48350,6,0,P|292:272|308:124,1,225,2|0,0:0|0:0,0:0:0:0:
124,156,49802,2,0,P|84:148|28:168,1,89.9999999999999,6|8,0:0|0:0,0:0:0:0:
84,240,50447,1,2,0:0:0:0:
48,324,50769,2,0,P|88:332|144:308,1,89.9999999999999,8|6,0:0|0:0,0:0:0:0:
280,212,51737,5,2,0:0:0:0:
422,324,52382,2,0,L|512:332,1,89.9999999999999,2|0,0:0|0:0,0:0:0:0:
484,244,53028,2,0,P|464:188|472:64,2,180,8|2|8,0:0|0:0|0:0,0:0:0:0:
396,244,54640,1,8,0:0:0:0:
308,268,54963,6,0,P|264:296|136:284,1,180,2|8,0:0|0:0,0:0:0:0:
92,212,55931,1,8,0:0:0:0:
112,124,56253,6,0,P|172:168|80:300,1,270,6|8,0:0|0:0,0:0:0:0:
140,376,57544,2,0,P|192:352|260:164,1,270,2|0,0:0|0:0,0:0:0:0:
220,84,58834,5,6,0:0:0:0:
388,16,59479,1,2,0:0:0:0:
376,196,60124,2,0,P|360:244|364:288,1,89.9999999999999,2|8,0:0|0:0,0:0:0:0:
304,352,60769,2,0,P|248:328|212:332,1,89.9999999999999,2|8,0:0|0:0,0:0:0:0:
136,364,61415,6,0,L|144:224,2,135,6|6|6,0:0|0:0|0:0,0:0:0:0:
224,108,63350,2,0,L|220:156,1,45,8|2,0:0|0:0,0:0:0:0:
280,272,63995,6,0,P|320:264|368:276,1,89.9999999999999,6|8,0:0|0:0,0:0:0:0:
444,232,64640,2,0,P|404:200|272:188,1,180,2|2,0:0|0:0,0:0:0:0:
204,232,65608,2,0,P|156:248|104:240,1,89.9999999999999,8|2,0:0|0:0,0:0:0:0:
92,68,66576,5,2,0:0:0:0:
160,128,66899,2,0,P|184:88|180:40,2,89.9999999999999,8|2|8,0:0|0:0|0:0,0:0:0:0:
76,156,67866,2,0,P|56:196|60:332,1,180,2|2,0:0|0:0,0:0:0:0:
236,296,69157,6,0,L|332:308,1,89.9999999999999,6|8,0:0|0:0,0:0:0:0:
380,236,69802,2,0,L|196:212,2,180,2|2|2,0:0|0:0|0:0,0:0:0:0:
428,312,71415,1,8,0:0:0:0:
468,232,71737,6,0,P|440:168|380:148,1,135,6|6,0:0|0:0,0:0:0:0:
248,168,72705,2,0,P|196:188|88:136,1,180,12|8,0:0|0:0,0:0:0:0:
100,48,73673,1,8,0:0:0:0:
232,76,74157,6,0,P|296:84|324:224,1,225,6|8,0:0|0:0,0:0:0:0:
252,272,75286,1,8,0:0:0:0:
172,236,75608,2,4,B|124:192|44:268|0:220,2,180,2|8|6,0:0|0:0|0:0,0:0:0:0:
252,272,77221,1,8,0:0:0:0:
324,216,77544,6,0,P|344:276|300:344,1,135,8|6,0:0|0:0,0:0:0:0:
176,324,78511,2,0,P|160:288|172:232,1,89.9999999999999,8|2,0:0|0:0,0:0:0:0:
220,116,79318,6,0,P|288:132|360:120,1,135,6|8,0:0|0:0,0:0:0:0:
424,72,80124,2,0,B|452:104|436:152|436:152|460:212,1,135,8|6,0:0|0:0,0:0:0:0:
356,288,81092,1,8,0:0:0:0:
272,316,81415,1,8,0:0:0:0:
192,276,81737,1,8,0:0:0:0:
176,364,82060,6,0,P|132:344|236:196,1,315,6|6,0:0|0:0,0:0:0:0:
336,280,83673,2,0,L|332:188,2,89.9999999999999,0|0|8,0:0|0:0|0:0,0:0:0:0:
256,192,84479,12,4,87060,0:0:0:0:
