osu file format v12

[General]
AudioFilename: OP2 1080p.mp3
AudioLeadIn: 0
PreviewTime: 63995
Countdown: 0
SampleSet: Normal
StackLeniency: 0.7
Mode: 0
LetterboxInBreaks: 0
WidescreenStoryboard: 0

[Editor]
DistanceSpacing: 1
BeatDivisor: 4
GridSize: 4
TimelineZoom: 1

[Metadata]
Title:~Outgrow~ (TV Size)
TitleUnicode:~Outgrow~ (TV Size)
Artist:Gero
ArtistUnicode:Gero
Creator:HabiHolic
Version:Normal
Source:東京レイヴンズ
Tags:Tokyo Ravens opening 2 Guy -iCo- Norman
BeatmapID:366267
BeatmapSetID:147763

[Difficulty]
HPDrainRate:4
CircleSize:3
OverallDifficulty:4
ApproachRate:5
SliderMultiplier:1.2
SliderTickRate:1

[Events]
//Background and Video events
0,0,"06327e97f6657d9a64681af36f653a802a1997d01383148977.jpg",0,0
Video,0,"Video.avi"
//Break Periods
//Storyboard Layer 0 (Background)
//Storyboard Layer 1 (Fail)
//Storyboard Layer 2 (Pass)
//Storyboard Layer 3 (Foreground)
//Storyboard Sound Samples
//Background Colour Transformations
3,100,163,162,255

[TimingPoints]
770,322.58064516129,4,2,1,70,1,0
17544,-100,4,1,1,70,0,0
27866,-100,4,2,1,70,0,0
51092,-100,4,1,1,70,0,0
58834,-100,4,2,1,70,0,0
63995,-100,4,1,1,70,0,1
81899,-100,4,1,1,50,0,1
84479,-100,4,2,1,70,0,0
89802,-100,4,2,1,5,0,0

[Colours]
Combo1 : 230,148,26
Combo2 : 23,180,255
Combo3 : 244,121,244
Combo4 : 186,237,80

[HitObjects]
48,200,1899,6,0,P|132:208|188:136,1,180,4|8,0:0|0:0,0:0:0:0:
256,40,2705,2,0,B|328:40|328:40|380:76|432:44,2,180,2|4|8,0:0|0:0|0:0,0:0:0:0:
256,160,3995,2,0,P|268:216|252:284,1,120,2|8,0:0|0:0,0:0:0:0:
284,332,4479,6,0,P|368:356|440:300,1,180,4|8,0:0|0:0,0:0:0:0:
480,192,5286,2,0,B|464:148|464:148|464:8,2,180,2|4|8,0:0|0:0|0:0,0:0:0:0:
364,228,6576,2,0,P|304:228|256:184,1,120,2|8,0:0|0:0,0:0:0:0:
212,152,7060,2,0,P|124:152|52:220,1,180,4|8,0:0|0:0,0:0:0:0:
12,332,7866,5,2,0:0:0:0:
144,360,8189,1,8,0:0:0:0:
204,332,8350,2,0,P|248:264|236:160,1,180,4|8,0:0|0:0,0:0:0:0:
292,44,9157,2,0,L|412:44,1,120,2|8,0:0|0:0,0:0:0:0:
476,48,9640,6,0,P|464:136|492:228,1,180,4|8,0:0|0:0,0:0:0:0:
376,292,10447,2,0,B|336:264|288:292|288:292|268:240|212:236,2,180,2|4|8,0:0|0:0|0:0,0:0:0:0:
332,168,11737,2,0,P|340:108|328:44,1,120,2|8,0:0|0:0,0:0:0:0:
256,192,12382,12,8,16899,0:0:0:0:
68,64,17544,6,0,P|128:88|148:148,1,120,4|8,0:0|0:0,0:0:0:0:
200,244,18189,2,0,B|256:224|256:224|324:248,1,120,2|8,0:0|0:0,0:0:0:0:
363,136,18834,2,0,P|388:83|444:64,2,120,2|8|2,0:0|0:0|0:0,0:0:0:0:
452,216,19802,1,8,0:0:0:0:
420,332,20124,6,0,P|364:352|304:340,1,120,2|8,0:0|0:0,0:0:0:0:
200,284,20769,2,0,P|144:272|84:292,1,120,2|8,0:0|0:0,0:0:0:0:
16,189,21415,2,0,B|60:141|128:157|128:157|144:89|208:69,1,240,2|2,0:0|0:0,0:0:0:0:
256,176,22382,1,8,0:0:0:0:
312,72,22705,6,0,B|368:89|384:157|384:157|452:141|496:189,2,240,4|8|2,0:0|0:0|0:0,0:0:0:0:
188,68,24318,2,0,P|128:68|80:108,1,120,8|2,0:0|0:0,0:0:0:0:
36,212,24963,1,8,0:0:0:0:
56,332,25286,6,0,B|100:332|100:332|132:360|172:340,1,120,2|8,0:0|0:0,0:0:0:0:
256,260,25931,2,0,L|256:128,1,120,2|8,0:0|0:0,0:0:0:0:
340,48,26576,2,0,P|400:48|460:84,1,120,2|8,0:0|0:0,0:0:0:0:
504,184,27221,2,0,L|504:316,1,120,2|8,0:0|0:0,0:0:0:0:
388,332,27866,6,0,P|304:332|248:252,3,180,8|8|8|8,0:0|0:0|0:0|0:0,0:0:0:0:
92,92,30286,6,0,P|112:168|60:252,1,180,4|8,0:0|0:0,0:0:0:0:
140,348,31092,2,0,P|200:348|240:308,1,120,2|8,0:0|0:0,0:0:0:0:
272,256,31576,1,0,0:0:0:0:
308,212,31737,2,0,L|488:212,1,180,2|2,0:0|0:0,0:0:0:0:
476,92,32544,1,2,0:0:0:0:
368,32,32866,6,0,P|284:32|216:96,1,180,2|8,0:0|0:0,0:0:0:0:
132,180,33673,2,0,B|132:240|132:240|88:288,1,120,2|8,0:0|0:0,0:0:0:0:
128,332,34157,1,0,0:0:0:0:
184,356,34318,2,0,P|296:356|372:252,1,240,2|2,0:0|0:0,0:0:0:0:
400,132,35286,1,8,0:0:0:0:
376,80,35447,6,0,P|304:44|208:64,1,180,2|8,0:0|0:0,0:0:0:0:
112,132,36253,2,0,P|108:188|60:244,1,120,2|8,0:0|0:0,0:0:0:0:
156,324,36899,2,0,B|224:324|224:324|276:360|332:324,1,180,2|2,0:0|0:0,0:0:0:0:
280,216,37705,1,2,0:0:0:0:
332,108,38028,6,0,P|244:100|179:158,1,180,2|8,0:0|0:0,0:0:0:0:
72,208,38834,2,0,P|60:148|92:84,2,120,2|8|4,0:0|0:0|0:0,0:0:0:0:
492,188,40608,6,0,B|428:188|428:188|376:216|376:216|312:216,1,180,4|8,0:0|0:0,0:0:0:0:
220,284,41415,2,0,P|196:232|212:168,1,120,2|8,0:0|0:0,0:0:0:0:
224,116,41899,2,0,L|40:136,1,180,2|8,0:0|0:0,0:0:0:0:
36,260,42705,2,0,P|88:284|152:272,1,120,2|8,0:0|0:0,0:0:0:0:
200,244,43189,6,0,P|288:240|352:316,1,180,2|8,0:0|0:0,0:0:0:0:
466,332,43995,2,0,P|486:276|486:212,1,120,2|8,0:0|0:0,0:0:0:0:
480,156,44479,2,0,P|396:188|332:128,1,180,2|8,0:0|0:0,0:0:0:0:
256,44,45286,2,0,P|200:44|152:88,1,120,2|8,0:0|0:0,0:0:0:0:
104,116,45769,6,0,P|124:200|88:284,1,180,4|8,0:0|0:0,0:0:0:0:
200,340,46576,2,0,P|260:340|304:296,1,120,2|8,0:0|0:0,0:0:0:0:
308,244,47060,2,0,P|384:196|472:200,1,180,2|8,0:0|0:0,0:0:0:0:
452,80,47866,2,0,P|392:76|328:100,1,120,2|8,0:0|0:0,0:0:0:0:
284,124,48350,6,0,P|200:168|120:128,1,180,2|8,0:0|0:0,0:0:0:0:
8,156,49157,2,0,P|16:264|120:344,1,240,2|2,0:0|0:0,0:0:0:0:
220,284,50124,1,8,0:0:0:0:
328,336,50447,2,0,P|344:280|320:216,1,120,2|8,0:0|0:0,0:0:0:0:
208,160,51092,6,0,L|148:160,2,60,4|0|0,0:0|0:0|0:0,0:0:0:0:
280,52,51737,2,0,L|220:52,2,60,0|0|0,0:0|0:0|0:0,0:0:0:0:
392,124,52382,2,0,L|452:124,2,60,0|0|0,0:0|0:0|0:0,0:0:0:0:
364,252,53028,2,0,L|424:252,2,60,0|0|0,0:0|0:0|0:0,0:0:0:0:
240,300,53673,6,0,P|136:348|44:276,1,240
152,224,54640,1,0,0:0:0:0:
60,148,54963,2,0,P|164:100|256:172,1,240
336,260,55931,1,0,0:0:0:0:
436,196,56253,6,0,L|504:196,2,60,4|0|0,0:0|0:0|0:0,0:0:0:0:
400,68,56899,2,0,L|468:68,2,60,0|0|0,0:0|0:0|0:0,0:0:0:0:
272,40,57544,2,0,L|204:40,2,60
312,164,58189,2,0,L|244:164,2,60,0|0|0,0:0|0:0|0:0,0:0:0:0:
292,296,58834,6,0,P|248:336|184:336,1,120,4|8,0:0|0:0,0:0:0:0:
90,271,59479,2,0,P|86:211|54:155,1,120,2|8,0:0|0:0,0:0:0:0:
104,48,60124,2,0,B|160:24|160:24|152:88|192:128|248:120|276:100,1,240,2|2,0:0|0:0,0:0:0:0:
384,48,61092,1,8,0:0:0:0:
456,140,61415,6,0,P|480:228|436:304,2,180,4|4|4,0:0|0:0|0:0,0:0:0:0:
360,212,62705,2,0,B|292:212|292:212|240:184|184:212,1,180,2|0,0:0|0:0,0:0:0:0:
144,180,63350,2,0,L|76:180,1,60,8|8,0:0|0:0,0:0:0:0:
112,40,63995,6,0,P|172:32|228:60,1,120,4|8,0:0|0:0,0:0:0:0:
308,144,64640,2,0,P|364:144|416:104,1,120,2|8,0:0|0:0,0:0:0:0:
472,212,65286,2,0,P|492:268|472:332,2,120,2|8|2,0:0|0:0|0:0,0:0:0:0:
372,276,66253,1,8,0:0:0:0:
272,208,66576,6,0,L|140:208,1,120,2|8,0:0|0:0,0:0:0:0:
44,264,67221,2,0,P|28:208|44:148,1,120,2|8,0:0|0:0,0:0:0:0:
128,64,67866,1,2,0:0:0:0:
240,24,68189,1,8,0:0:0:0:
332,100,68511,1,2,0:0:0:0:
440,44,68834,1,8,0:0:0:0:
472,160,69157,6,0,P|484:220|472:288,1,120,4|8,0:0|0:0,0:0:0:0:
364,332,69802,2,0,P|304:332|264:292,1,120,2|8,0:0|0:0,0:0:0:0:
244,236,70286,1,0,0:0:0:0:
216,184,70447,2,0,L|96:184,1,120,2|8,0:0|0:0,0:0:0:0:
36,80,71092,1,2,0:0:0:0:
144,32,71415,1,8,0:0:0:0:
260,52,71737,6,0,P|320:72|384:60,1,120,2|8,0:0|0:0,0:0:0:0:
432,44,72221,2,0,P|468:84|476:148,1,120,2|4,0:0|0:0,0:0:0:0:
452,204,72705,1,4,0:0:0:0:
292,200,73350,1,8,0:0:0:0:
292,200,73673,2,0,P|236:204|172:248,1,120,2|8,0:0|0:0,0:0:0:0:
164,292,74157,6,0,P|72:312|12:248,1,180,4|8,0:0|0:0,0:0:0:0:
4,140,74963,2,0,P|44:100|60:32,1,120,8|8,0:0|0:0,0:0:0:0:
120,28,75447,2,0,P|208:24|268:96,1,180,4|8,0:0|0:0,0:0:0:0:
344,180,76253,2,0,P|396:196|460:168,1,120,8|8,0:0|0:0,0:0:0:0:
484,120,76737,6,0,L|496:312,1,180,4|8,0:0|0:0,0:0:0:0:
384,344,77544,2,0,P|328:356|280:316,1,120,8|8,0:0|0:0,0:0:0:0:
256,264,78028,2,0,L|72:264,1,180,4|8,0:0|0:0,0:0:0:0:
44,148,78834,2,0,P|104:148|148:112,1,120,8|8,0:0|0:0,0:0:0:0:
184,60,79318,6,0,P|272:60|336:124,1,180,4|8,0:0|0:0,0:0:0:0:
444,172,80124,2,0,P|436:220|444:296,1,120,8|8,0:0|0:0,0:0:0:0:
408,340,80608,2,0,P|324:364|248:308,1,180,4|8,0:0|0:0,0:0:0:0:
136,280,81415,2,0,P|152:228|144:160,1,120,8|8,0:0|0:0,0:0:0:0:
132,104,81899,6,0,P|224:112|288:40,1,180,4|8,0:0|0:0,0:0:0:0:
396,12,82705,2,0,P|460:32|512:132,1,180,0|8,0:0|0:0,0:0:0:0:
256,320,84479,6,0,P|144:292|92:176,1,240,4|4,0:0|0:0,0:0:0:0:
256,116,85608,1,8,0:0:0:0:
308,148,85769,2,0,P|424:164|488:72,2,240,4|4|4,0:0|0:0|0:0,0:0:0:0:
256,192,87221,12,0,89802,0:0:0:0:
