osu file format v13

[General]
AudioFilename: BC.mp3
AudioLeadIn: 1500
PreviewTime: 53414
Countdown: 0
SampleSet: Soft
StackLeniency: 0.7
Mode: 0
LetterboxInBreaks: 0
WidescreenStoryboard: 0

[Editor]
Bookmarks: 43758
DistanceSpacing: 1.2
BeatDivisor: 4
GridSize: 4
TimelineZoom: 1

[Metadata]
Title:BELOVEDxSURVIVAL
TitleUnicode:BELOVED×SURVIVAL
Artist:Gero
ArtistUnicode:Gero
Creator:Midasmens
Version:Normal
Source:Brothers Conflict
Tags:TV Size op opening HoneyWorks darknessangel
BeatmapID:272393
BeatmapSetID:103342

[Difficulty]
HPDrainRate:4
CircleSize:3
OverallDifficulty:4
ApproachRate:5
SliderMultiplier:1
SliderTickRate:1

[Events]
//Background and Video events
0,0,"BC.jpg",0,0
Video,110,"BC.flv"
//Break Periods
2,12482,18661
//Storyboard Layer 0 (Background)
//Storyboard Layer 1 (Fail)
//Storyboard Layer 2 (Pass)
//Storyboard Layer 3 (Foreground)
//Storyboard Sound Samples
//Background Colour Transformations
3,100,163,162,255

[TimingPoints]
914,315.789473684211,4,2,1,60,1,0
2177,-100,4,2,0,60,0,0
7229,-100,4,1,1,50,0,0
7703,-100,4,1,1,55,0,0
8177,-100,4,1,1,60,0,0
8650,-100,4,1,1,65,0,0
9124,-100,4,1,1,70,0,0
9756,-100,4,2,0,60,0,0
10387,-100,4,1,1,70,0,0
19861,-100,4,2,0,70,0,0
21756,-100,4,1,0,50,0,0
22387,-100,4,2,0,50,0,0
23650,-100,4,2,1,70,0,0
33361,-100,4,1,1,40,0,0
33756,-100,4,1,2,60,0,0
42598,-100,4,2,1,60,0,0
43387,-133.333333333333,4,2,0,60,0,0
45992,-133.333333333333,4,2,1,60,0,0
46545,-133.333333333333,4,2,0,60,0,0
48598,-133.333333333333,4,2,1,60,0,0
48914,-100,4,2,0,60,0,0
52703,-100,4,2,1,75,0,0
53966,-100,4,1,1,70,0,1
71650,-100,4,2,1,70,0,1
71966,-100,4,1,1,70,0,1
74177,-100,4,1,1,50,0,0
79229,-100,4,1,1,65,0,0
88229,-100,4,2,1,70,0,0

[Colours]
Combo1 : 115,255,115
Combo2 : 36,146,255
Combo3 : 250,126,173

[HitObjects]
276,312,914,6,0,P|320:320|384:304,1,100,0|0,0:0|0:0,0:0:0:0:
420,220,1545,2,0,L|388:172,1,50
260,112,2177,5,0,0:0:0:0:
192,184,2492,2,0,L|168:228,1,50,0|2,0:0|0:0,0:0:0:0:
76,264,2966,2,0,L|112:324,2,50,0|0|2,0:0|0:0|0:0,0:0:0:0:
68,164,3598,2,0,L|12:132,2,50,0|0|2,0:0|0:0|0:0,0:0:0:0:
148,108,4229,6,0,P|194:99|248:104,1,100,0|2,0:0|0:0,0:0:0:0:
288,132,4703,2,0,P|332:140|392:120,1,100,2|0,0:0|0:0,0:0:0:0:
424,216,5335,2,0,L|408:264,1,50,0|2,0:0|0:0,0:0:0:0:
352,348,5808,2,0,P|308:360|248:348,1,100,0|2,0:0|0:0,0:0:0:0:
212,324,6282,1,0,0:0:0:0:
124,276,6598,6,0,P|124:228|144:180,1,100,0|2,0:0|0:0,0:0:0:0:
244,164,7229,1,4,0:0:0:0:
256,192,7387,12,4,9756,0:0:0:0:
168,256,10387,6,0,L|200:200,1,50,8|0,0:0|0:0,0:0:0:0:
256,192,10861,12,4,12282,0:0:0:0:
192,84,19861,6,0,P|240:72|296:84,1,100,0|2,0:0|0:0,0:0:0:0:
360,148,20492,2,0,L|344:204,1,50,0|2,0:0|0:0,0:0:0:0:
260,248,20966,2,0,P|208:256|156:244,1,100
128,212,21440,1,2,0:0:0:0:
116,112,21756,2,0,L|72:76,2,50
216,112,22387,5,8,0:0:0:0:
256,204,22703,1,8,0:0:0:0:
324,132,23019,2,8,L|364:88,2,50
256,204,23650,5,4,0:0:0:0:
196,284,23966,2,0,P|148:292|96:280,1,100,8|0,0:0|0:0,0:0:0:0:
52,192,24598,1,8,0:0:0:0:
52,192,24914,1,0,0:0:0:0:
92,100,25229,2,0,P|140:84|196:96,1,100,8|0,0:0|0:0,0:0:0:0:
288,128,25861,1,8,0:0:0:0:
220,200,26177,2,0,L|184:236,2,50,0|0|8,0:0|0:0|0:0,0:0:0:0:
288,128,26808,5,0,0:0:0:0:
328,220,27124,1,8,0:0:0:0:
392,140,27440,2,0,L|348:44,2,100,0|8|0,0:0|0:0|0:0,0:0:0:0:
436,228,28387,1,8,0:0:0:0:
476,320,28703,6,0,P|428:336|368:328,1,100,0|8,0:0|0:0,0:0:0:0:
288,288,29335,1,0,0:0:0:0:
288,288,29650,1,8,0:0:0:0:
232,204,29966,2,0,P|184:196|132:208,2,100,0|8|0,0:0|0:0|0:0,0:0:0:0:
328,180,30914,1,8,0:0:0:0:
384,96,31229,6,0,P|336:76|288:84,1,100,0|8,0:0|0:0,0:0:0:0:
188,92,31861,2,0,P|136:100|80:76,1,100,0|8,0:0|0:0,0:0:0:0:
56,180,32492,1,4,0:0:0:0:
232,272,33124,2,0,P|304:292|376:272,1,150
424,284,33756,6,0,P|424:240|388:188,2,100,4|8|0,0:0|0:0|0:0,0:0:0:0:
360,360,34703,1,8,0:0:0:0:
268,324,35019,2,0,P|220:336|168:320,2,100,0|8|0,0:0|0:0|0:0,0:0:0:0:
332,248,35966,1,8,0:0:0:0:
296,156,36282,5,0,0:0:0:0:
296,156,36598,1,8,0:0:0:0:
204,116,36914,1,0,0:0:0:0:
204,116,37229,1,8,0:0:0:0:
108,136,37545,2,0,P|92:184|104:236,1,100,0|8,0:0|0:0,0:0:0:0:
196,264,38177,2,0,P|208:308|192:360,2,100,0|8|4,0:0|0:0|0:0,0:0:0:0:
280,212,39124,6,0,P|328:204|380:212,1,100,8|0,0:0|0:0,0:0:0:0:
456,272,39756,1,8,0:0:0:0:
480,176,40071,1,0,0:0:0:0:
444,84,40387,1,8,0:0:0:0:
352,48,40703,2,0,P|304:36|248:48,1,100,0|8,0:0|0:0,0:0:0:0:
224,140,41335,6,0,P|272:152|328:140,2,100,0|8|0,0:0|0:0|0:0,0:0:0:0:
140,84,42282,1,8,0:0:0:0:
140,84,42598,2,0,P|112:160|136:232,1,150,4|8,0:0|0:0,0:0:0:0:
292,324,43861,6,0,L|380:312,1,75.0000028610231,4|0,0:0|0:0,0:0:0:0:
328,168,44808,1,2,0:0:0:0:
328,168,45124,2,0,L|248:132,1,75.0000028610231,0|2,0:0|0:0,0:0:0:0:
124,76,46071,1,2,0:0:0:0:
124,76,46387,1,2,0:0:0:0:
184,140,46703,2,0,L|184:228,1,75.0000028610231,0|2,0:0|0:0,0:0:0:0:
248,276,47335,1,0,0:0:0:0:
188,340,47650,6,0,L|104:316,1,75.0000028610231,0|2,0:0|0:0,0:0:0:0:
32,288,48282,1,2,0:0:0:0:
32,288,48598,1,2,0:0:0:0:
100,216,48914,6,0,P|200:228|284:176,1,200,4|0,0:0|0:0,0:0:0:0:
288,80,49861,1,0,0:0:0:0:
376,124,50177,1,2,0:0:0:0:
364,224,50492,1,0,0:0:0:0:
424,304,50808,1,2,0:0:0:0:
256,192,51124,12,4,53177,0:0:0:0:
280,72,53966,5,4,0:0:0:0:
340,176,54282,2,0,L|332:228,1,50,8|0,0:0|0:0,0:0:0:0:
236,296,54756,2,0,P|184:304|132:292,1,100
160,176,55387,2,0,L|128:128,2,50,0|8|0,0:0|0:0|0:0,0:0:0:0:
48,224,56019,2,0,L|24:268,2,50,0|8|0,0:0|0:0|0:0,0:0:0:0:
44,164,56492,5,0,0:0:0:0:
92,56,56808,2,0,P|140:48|192:56,1,100,8|0,0:0|0:0,0:0:0:0:
228,104,57282,2,0,P|284:108|340:92,1,100
432,152,57914,2,0,L|464:204,1,50,0|8,0:0|0:0,0:0:0:0:
396,300,58387,2,0,L|388:352,2,50,0|0|8,0:0|0:0|0:0,0:0:0:0:
304,224,59019,6,0,P|256:212|204:224,1,100,0|8,0:0|0:0,0:0:0:0:
176,276,59492,2,0,P|124:284|68:272,1,100
44,228,59966,2,0,L|20:176,1,50,8|0,0:0|0:0,0:0:0:0:
104,92,60440,2,0,L|140:52,2,50,0|8|0,0:0|0:0|0:0,0:0:0:0:
224,108,61071,2,0,P|276:116|332:92,1,100
372,68,61545,5,0,0:0:0:0:
440,168,61861,1,12,0:0:0:0:
404,284,62177,2,8,L|368:336,1,50,8|0,0:0|0:0,0:0:0:0:
256,192,62650,12,8,63756,0:0:0:0:
136,296,64071,5,0,0:0:0:0:
200,192,64387,2,0,P|252:184|312:196,1,100,8|0,0:0|0:0,0:0:0:0:
376,280,65019,1,8,0:0:0:0:
440,180,65335,2,0,P|452:124|432:72,1,100,0|8,0:0|0:0,0:0:0:0:
320,72,65966,2,0,P|268:64|216:76,1,100,0|8,0:0|0:0,0:0:0:0:
156,176,66598,5,0,0:0:0:0:
156,176,66914,2,0,P|180:216|184:272,1,100,8|0,0:0|0:0,0:0:0:0:
68,240,67545,2,0,P|44:200|40:144,1,100,8|0,0:0|0:0,0:0:0:0:
128,68,68177,1,8,0:0:0:0:
248,60,68492,2,0,P|296:48|348:56,1,100,0|8,0:0|0:0,0:0:0:0:
440,132,69124,5,0,0:0:0:0:
452,252,69440,2,0,L|420:312,1,50,8|0,0:0|0:0,0:0:0:0:
324,236,69914,2,0,L|304:180,2,50,0|8|0,0:0|0:0|0:0,0:0:0:0:
264,328,70545,2,0,L|248:380,2,50,0|8|0,0:0|0:0|0:0,0:0:0:0:
144,304,71177,2,0,P|132:256|148:196,1,100
172,156,71650,5,4,0:0:0:0:
268,84,71966,1,8,0:0:0:0:
384,120,72282,2,0,L|448:140,1,50,8|0,0:0|0:0,0:0:0:0:
256,192,72756,12,8,73861,0:0:0:0:
236,320,74177,5,0,0:0:0:0:
236,320,74492,2,0,L|336:340,2,100,8|0|8,0:0|0:0|0:0,0:0:0:0:
156,260,75440,2,0,L|92:344,2,100,0|8|0,0:0|0:0|0:0,0:0:0:0:
212,176,76387,1,8,0:0:0:0:
256,192,76703,12,8,78914,0:0:0:0:
256,192,79229,12,8,81440,0:0:0:0:
108,284,81756,6,0,L|204:328,1,100,0|10,0:0|0:0,0:0:0:0:
288,280,82387,1,2,0:0:0:0:
280,80,83019,2,0,L|188:120,1,100,2|10,0:0|0:0,0:0:0:0:
300,164,83650,2,0,L|392:124,1,100,2|10,0:0|0:0,0:0:0:0:
256,192,84282,12,8,86808,0:0:0:0:
168,332,87124,5,8,0:0:0:0:
92,240,87440,2,8,L|116:188,1,50
164,88,87914,1,8,0:0:0:0:
244,176,88229,6,2,L|280:220,3,50
