osu file format v13

[General]
AudioFilename: BC.mp3
AudioLeadIn: 1500
PreviewTime: 53414
Countdown: 0
SampleSet: Soft
StackLeniency: 0.7
Mode: 0
LetterboxInBreaks: 0
WidescreenStoryboard: 0

[Editor]
Bookmarks: 43758
DistanceSpacing: 1
BeatDivisor: 4
GridSize: 4
TimelineZoom: 2.7

[Metadata]
Title:BELOVEDxSURVIVAL
TitleUnicode:BELOVED×SURVIVAL
Artist:Gero
ArtistUnicode:Gero
Creator:Midasmens
Version:Hard
Source:Brothers Conflict
Tags:TV Size op opening HoneyWorks darknessangel
BeatmapID:272392
BeatmapSetID:103342

[Difficulty]
HPDrainRate:6
CircleSize:4
OverallDifficulty:6
ApproachRate:8
SliderMultiplier:1.6
SliderTickRate:1

[Events]
//Background and Video events
0,0,"BC.jpg",0,0
Video,110,"BC.flv"
//Break Periods
2,12482,19111
//Storyboard Layer 0 (Background)
//Storyboard Layer 1 (Fail)
//Storyboard Layer 2 (Pass)
//Storyboard Layer 3 (Foreground)
//Storyboard Sound Samples
//Background Colour Transformations
3,100,163,162,255

[TimingPoints]
914,315.789473684211,4,2,1,60,1,0
2177,-100,4,2,0,60,0,0
7229,-100,4,1,1,50,0,0
7703,-100,4,1,1,55,0,0
8177,-100,4,1,1,60,0,0
8650,-100,4,1,1,65,0,0
9124,-100,4,1,1,70,0,0
9756,-100,4,2,0,60,0,0
10387,-100,4,1,1,70,0,0
19861,-100,4,2,0,70,0,0
21756,-100,4,1,0,50,0,0
22387,-100,4,2,0,50,0,0
23650,-100,4,2,1,70,0,0
33124,-100,4,2,1,50,0,0
33361,-100,4,1,1,40,0,0
33756,-100,4,1,2,60,0,0
42598,-100,4,2,1,60,0,0
43387,-133.333333333333,4,2,0,60,0,0
45992,-133.333333333333,4,2,1,60,0,0
46545,-133.333333333333,4,2,0,60,0,0
48598,-133.333333333333,4,2,1,60,0,0
48914,-100,4,2,0,60,0,0
52703,-100,4,2,1,80,0,0
53492,-100,4,2,1,65,0,0
53966,-100,4,1,1,70,0,1
71650,-83.3333333333333,4,1,1,70,0,1
74177,-100,4,1,1,50,0,0
79229,-100,4,1,1,65,0,0
88229,-100,4,2,1,70,0,0

[Colours]
Combo1 : 115,255,115
Combo2 : 36,146,255
Combo3 : 250,126,173

[HitObjects]
388,288,914,6,0,P|428:288|468:272,2,80
236,232,1545,1,0,0:0:0:0:
236,232,1703,1,0,0:0:0:0:
68,64,2177,6,0,P|44:100|44:148,1,80
84,204,2492,1,2,0:0:0:0:
84,204,2650,1,0,0:0:0:0:
184,328,2966,2,0,P|228:336|276:320,1,80,0|2,0:0|0:0,0:0:0:0:
320,272,3282,1,0,0:0:0:0:
260,128,3598,2,0,P|216:120|180:128,2,80,0|2|0,0:0|0:0|0:0,0:0:0:0:
392,220,4229,5,0,0:0:0:0:
428,292,4387,1,2,0:0:0:0:
376,352,4545,1,0,0:0:0:0:
376,352,4703,2,0,L|292:324,1,80
148,188,5019,2,0,L|236:216,1,80,2|0,0:0|0:0,0:0:0:0:
300,240,5335,1,0,0:0:0:0:
300,240,5492,1,2,0:0:0:0:
148,284,5808,2,0,P|72:256|36:184,1,160,2|0,0:0|0:0,0:0:0:0:
80,120,6282,1,2,0:0:0:0:
236,80,6598,5,0,0:0:0:0:
308,144,6756,1,0,0:0:0:0:
216,172,6914,1,4,0:0:0:0:
384,80,7229,6,0,L|432:148,1,80,4|0,0:0|0:0,0:0:0:0:
492,220,7545,2,0,L|424:276,1,80
332,264,7861,2,0,L|380:332,2,80
268,192,8335,1,0,0:0:0:0:
172,204,8492,1,0,0:0:0:0:
104,272,8650,2,0,P|180:300|252:260,1,160,2|2,0:0|0:0,0:0:0:0:
112,44,9282,2,0,L|56:116,1,80
84,200,9598,1,0,0:0:0:0:
84,200,9756,5,4,0:0:0:0:
264,132,10071,1,0,0:0:0:0:
236,312,10387,1,8,0:0:0:0:
236,312,10545,1,4,0:0:0:0:
256,192,10861,12,4,12282,0:0:0:0:
212,312,19861,6,0,L|296:272,1,80,4|0,0:0|0:0,0:0:0:0:
308,200,20177,1,2,0:0:0:0:
196,88,20492,1,2,0:0:0:0:
196,88,20650,1,2,0:0:0:0:
196,88,20966,6,0,P|152:160|172:236,1,160,4|0,0:0|0:0,0:0:0:0:
232,276,21440,1,0,0:0:0:0:
364,188,21756,6,0,L|392:144,3,40
388,196,22071,2,0,L|424:180,3,40
352,224,22387,5,8,0:0:0:0:
208,100,22703,1,8,0:0:0:0:
100,256,23019,1,8,0:0:0:0:
188,220,23177,1,8,0:0:0:0:
276,180,23335,1,8,0:0:0:0:
380,340,23650,6,0,P|408:308|424:260,1,80,4|0,0:0|0:0,0:0:0:0:
324,280,23966,2,0,P|282:287|232:276,1,80,8|0,0:0|0:0,0:0:0:0:
188,220,24282,1,0,0:0:0:0:
196,124,24440,1,0,0:0:0:0:
276,180,24598,1,8,0:0:0:0:
100,328,24914,6,0,P|64:264|80:180,1,160,0|8,0:0|0:0,0:0:0:0:
132,104,25387,1,0,0:0:0:0:
248,256,25703,1,0,0:0:0:0:
312,328,25861,2,0,P|352:336|396:324,1,80,8|0,0:0|0:0,0:0:0:0:
452,252,26177,2,0,L|468:168,2,80,0|0|8,0:0|0:0|0:0,0:0:0:0:
344,92,26808,6,0,P|272:64|184:84,1,160,0|8,0:0|0:0,0:0:0:0:
96,248,27440,2,0,P|136:256|192:240,2,80,0|0|8,0:0|0:0|0:0,0:0:0:0:
72,88,28071,1,0,0:0:0:0:
176,56,28229,2,0,L|156:12,2,40,0|0|8,0:0|0:0|0:0,0:0:0:0:
348,88,28703,6,0,P|372:124|372:180,1,80
304,224,29019,2,0,P|264:228|224:244,1,80,8|0,0:0|0:0,0:0:0:0:
184,312,29335,1,0,0:0:0:0:
340,336,29650,2,0,P|380:344|432:332,1,80,8|0,0:0|0:0,0:0:0:0:
480,284,29966,5,0,0:0:0:0:
436,216,30124,1,0,0:0:0:0:
492,160,30282,1,8,0:0:0:0:
492,160,30440,2,0,L|468:80,1,80
392,108,30756,2,0,P|352:116|308:108,1,80,0|8,0:0|0:0,0:0:0:0:
132,264,31229,6,0,P|108:172|136:100,1,160,0|8,0:0|0:0,0:0:0:0:
196,68,31703,1,0,0:0:0:0:
264,212,32019,2,0,P|304:220|360:208,2,80,0|8|0,0:0|0:0|0:0,0:0:0:0:
200,164,32492,1,0,0:0:0:0:
80,256,33124,5,4,3:0:0:0:
80,256,33361,2,0,L|104:288,1,40
168,336,33598,2,0,L|152:376,2,40,0|0|4,0:0|0:0|0:0,0:0:0:0:
184,252,33914,5,0,0:0:0:0:
184,252,34071,2,0,P|224:260|280:248,1,80,8|0,0:0|0:0,0:0:0:0:
336,104,34387,2,0,P|296:96|240:108,1,80
200,160,34703,1,8,0:0:0:0:
412,332,35019,6,0,P|424:292|420:252,1,80,0|0,0:0|0:0,0:0:0:0:
364,196,35335,1,8,0:0:0:0:
224,304,35650,2,0,P|184:312|136:304,1,80
80,260,35966,1,8,0:0:0:0:
140,112,36282,5,0,0:0:0:0:
212,76,36440,1,0,0:0:0:0:
292,80,36598,1,8,0:0:0:0:
380,212,36914,1,0,0:0:0:0:
380,212,37229,1,8,0:0:0:0:
260,320,37545,6,0,P|232:244|260:168,1,160,0|8,0:0|0:0,0:0:0:0:
436,128,38177,2,0,P|460:160|464:200,1,80
432,272,38492,1,8,0:0:0:0:
280,220,38808,2,0,P|240:216|192:224,1,80
160,320,39124,2,0,P|200:324|248:316,2,80,8|0|0,0:0|0:0|0:0,0:0:0:0:
92,124,39756,1,8,0:0:0:0:
92,124,40071,6,0,P|160:92|248:104,2,160,0|8|0,0:0|0:0|0:0,0:0:0:0:
64,332,41019,1,8,0:0:0:0:
272,340,41335,2,0,L|224:268,1,80
332,260,41650,2,0,L|368:176,1,80,8|0,0:0|0:0,0:0:0:0:
396,88,41966,1,0,0:0:0:0:
188,64,42282,2,0,P|164:136|196:220,1,160,8|2,0:0|0:0,0:0:0:0:
190,213,42756,1,2,0:0:0:0:
190,213,42914,1,10,0:0:0:0:
190,213,43071,1,2,0:0:0:0:
316,168,43387,6,0,P|280:156|248:160,2,60.0000022888184,0|2|0,0:0|0:0|0:0,0:0:0:0:
380,212,43861,2,0,P|396:272|376:332,1,120.000004577637,4|0,0:0|0:0,0:0:0:0:
224,332,44492,2,0,P|164:344|104:328,1,120.000004577637,2|0,0:0|0:0,0:0:0:0:
52,184,45124,1,0,0:0:0:0:
52,184,45440,2,0,P|108:152|168:156,1,120.000004577637,2|0,0:0|0:0,0:0:0:0:
236,248,46071,1,2,0:0:0:0:
236,248,46387,6,0,P|300:264|352:248,2,120.000004577637,2|2|0,0:0|0:0|0:0,0:0:0:0:
296,144,47335,1,2,0:0:0:0:
400,200,47650,2,0,P|416:256|396:324,1,120.000004577637,0|2,0:0|0:0,0:0:0:0:
336,360,48124,1,0,0:0:0:0:
264,328,48282,2,0,P|204:312|136:328,1,120.000004577637,2|2,0:0|0:0,0:0:0:0:
44,200,48914,6,0,P|40:160|64:108,1,80,4|2,0:0|0:0,0:0:0:0:
112,68,49229,1,0,0:0:0:0:
204,200,49545,2,0,P|212:240|204:284,1,80,0|2,0:0|0:0,0:0:0:0:
144,332,49861,1,0,0:0:0:0:
304,328,50177,2,0,P|344:336|384:328,2,80,0|2|0,0:0|0:0|0:0,0:0:0:0:
412,208,50808,1,4,0:0:0:0:
256,192,51124,12,4,52703,0:0:0:0:
160,216,52861,6,2,L|124:248,2,40
224,168,53177,1,10,0:0:0:0:
340,276,53492,2,2,L|360:320,2,40,2|2|10,0:0|0:0|0:0,0:0:0:0:
400,92,53966,6,0,P|360:84|312:92,2,80,4|0|8,0:0|0:0|0:0,0:0:0:0:
444,160,54440,1,0,0:0:0:0:
308,244,54756,2,0,P|264:252|228:248,1,80,0|8,0:0|0:0,0:0:0:0:
164,200,55071,2,0,L|144:120,1,80
64,72,55387,2,0,P|44:104|40:148,2,80,0|8|0,0:0|0:0|0:0,0:0:0:0:
216,120,56019,1,0,0:0:0:0:
216,120,56177,2,0,P|236:152|240:196,1,80,8|0,0:0|0:0,0:0:0:0:
76,304,56492,6,0,P|152:320|240:300,1,160,0|8,0:0|0:0,0:0:0:0:
348,192,57124,1,0,0:0:0:0:
348,192,57282,2,0,P|388:184|432:192,1,80,0|8,0:0|0:0,0:0:0:0:
372,324,57598,2,0,P|332:332|288:324,2,80
436,276,58071,1,8,0:0:0:0:
264,92,58387,5,0,0:0:0:0:
264,92,58545,1,0,0:0:0:0:
264,92,58703,2,0,P|188:76|96:104,1,160,8|4,0:0|0:0,0:0:0:0:
68,168,59177,1,0,0:0:0:0:
80,252,59335,2,0,L|120:336,2,80,8|0|0,0:0|0:0|0:0,0:0:0:0:
148,212,59808,2,0,L|192:132,2,80,0|8|0,0:0|0:0|0:0,0:0:0:0:
252,336,60440,2,0,P|292:344|336:332,1,80,0|8,0:0|0:0,0:0:0:0:
392,284,60756,1,0,0:0:0:0:
272,136,61071,6,0,P|232:128|192:136,2,80,0|8|0,0:0|0:0|0:0,0:0:0:0:
344,172,61545,1,0,0:0:0:0:
344,92,61703,2,0,L|308:64,2,40,0|0|12,0:0|0:0|0:0,0:0:0:0:
184,68,62177,1,0,0:0:0:0:
184,68,62335,1,0,0:0:0:0:
184,68,62650,6,0,P|152:144|176:220,1,160,4|0,0:0|0:0,0:0:0:0:
224,276,63124,2,0,L|296:236,1,80,8|0,0:0|0:0,0:0:0:0:
120,264,63440,2,0,L|48:304,1,80
160,356,63756,1,8,0:0:0:0:
160,356,63914,1,0,0:0:0:0:
280,348,64071,6,0,P|320:356|364:344,1,80
420,296,64387,1,8,0:0:0:0:
444,220,64545,1,0,0:0:0:0:
344,96,64861,2,0,P|304:88|256:96,1,80,0|8,0:0|0:0,0:0:0:0:
208,148,65177,1,0,0:0:0:0:
96,260,65492,1,0,0:0:0:0:
128,332,65650,2,0,P|168:344|208:340,1,80,8|0,0:0|0:0,0:0:0:0:
312,220,66124,1,0,0:0:0:0:
312,220,66282,2,0,L|252:156,1,80,8|0,0:0|0:0,0:0:0:0:
200,104,66598,5,0,0:0:0:0:
408,152,66914,1,8,0:0:0:0:
264,300,67229,1,0,0:0:0:0:
264,300,67387,1,0,0:0:0:0:
264,300,67703,6,0,P|184:316|100:296,1,160,0|0,0:0|0:0,0:0:0:0:
52,240,68177,1,8,0:0:0:0:
172,132,68492,2,0,P|212:124|256:132,2,80,0|0|8,0:0|0:0|0:0,0:0:0:0:
236,280,69124,5,4,0:0:0:0:
296,228,69282,1,0,0:0:0:0:
220,200,69440,1,8,0:0:0:0:
236,280,69598,1,4,0:0:0:0:
396,320,69914,2,0,P|408:280|396:232,2,80,0|8|0,0:0|0:0|0:0,0:0:0:0:
156,340,70545,1,0,0:0:0:0:
84,308,70703,1,8,0:0:0:0:
52,232,70861,1,4,0:0:0:0:
144,100,71177,2,0,P|184:92|240:104,1,80,8|8,0:0|0:0,0:0:0:0:
324,260,71650,5,4,0:0:0:0:
368,176,71808,1,0,0:0:0:0:
416,92,71966,1,8,0:0:0:0:
212,64,72282,1,10,0:0:0:0:
252,152,72440,1,0,0:0:0:0:
256,192,72756,12,8,74177,0:0:0:0:
180,68,74492,6,8,L|148:24,2,53.3333333333333
208,112,74808,1,8,0:0:0:0:
372,168,75124,2,8,L|400:120,2,53.3333333333333
344,212,75440,1,8,0:0:0:0:
184,220,75756,6,0,L|140:256,2,53.3333333333333,8|0|0,0:0|0:0|0:0,0:0:0:0:
192,272,76071,2,0,L|176:324,2,53.3333333333333
232,308,76387,2,0,L|272:360,2,53.3333333333333,8|0|0,0:0|0:0|0:0,0:0:0:0:
284,308,76703,1,4,0:0:0:0:
256,192,76782,12,8,78914,0:0:0:0:
100,264,79229,6,0,P|180:272|248:232,2,160,2|10|2,0:0|0:0|0:0,0:0:0:0:
136,108,80177,1,10,0:0:0:0:
276,32,80492,2,0,P|324:92|312:172,2,160,2|10|2,0:0|0:0|0:0,0:0:0:0:
200,172,81440,1,10,0:0:0:0:
264,320,81756,2,0,P|344:324|412:284,1,160,2|10,0:0|0:0,0:0:0:0:
424,124,82387,2,0,P|344:120|276:160,1,160,2|10,0:0|0:0,0:0:0:0:
424,224,83019,5,10,0:0:0:0:
244,64,83335,1,10,0:0:0:0:
176,292,83650,1,2,0:0:0:0:
176,292,83966,1,10,0:0:0:0:
256,192,84282,12,12,86808,0:0:0:0:
116,260,87124,5,8,0:0:0:0:
328,88,87440,1,8,0:0:0:0:
328,88,87598,1,0,0:0:0:0:
368,320,87914,2,0,P|280:336|212:304,1,160,8|2,0:0|0:0,0:0:0:0:
208,188,88387,5,2,0:0:0:0:
284,156,88545,1,2,0:0:0:0:
272,236,88703,1,2,0:0:0:0:
