osu file format v12

[General]
AudioFilename: George Stamatiadis- Blade Kitten theme.mp3
AudioLeadIn: 0
PreviewTime: 45493
Countdown: 1
SampleSet: Soft
StackLeniency: 0.7
Mode: 0
LetterboxInBreaks: 1
WidescreenStoryboard: 0

[Editor]
DistanceSpacing: 0.9
BeatDivisor: 4
GridSize: 4
TimelineZoom: 1

[Metadata]
Title:Blade Kitten theme
TitleUnicode:Blade Kitten theme
Artist:George Stamatiadis
ArtistUnicode:George Stamatiadis
Creator:Haganeproductio
Version:Hard
Source:Blade Kitten
Tags:Kit Ballard Space Captain Steve Skiffy Krome Studios felion
BeatmapID:433434
BeatmapSetID:180362

[Difficulty]
HPDrainRate:5
CircleSize:4
OverallDifficulty:4
ApproachRate:5
SliderMultiplier:2.10000000596046
SliderTickRate:1

[Events]
//Background and Video events
0,0,"background.jpg",0,0
//Break Periods
//Storyboard Layer 0 (Background)
//Storyboard Layer 1 (Fail)
//Storyboard Layer 2 (Pass)
//Storyboard Layer 3 (Foreground)
//Storyboard Sound Samples
//Background Colour Transformations
3,100,0,0,0

[TimingPoints]
4252,1000,4,2,1,40,1,0
16238,500,4,2,1,60,1,0

[Colours]
Combo1 : 255,150,0
Combo2 : 255,0,128
Combo3 : 64,0,128
Combo4 : 255,255,43
Combo5 : 240,5,5

[HitObjects]
64,60,4251,5,12,0:0:0:0:
184,60,5251,1,0,0:0:0:0:
304,64,6251,1,0,0:0:0:0:
412,40,7251,2,0,B|436:96|424:156|408:176|336:180|288:164|244:136|204:124|152:132|120:112|84:176|72:188|68:208|80:256|112:280,1,525.000001490115
196,316,10251,5,0,0:0:0:0:
344,312,11251,1,0,0:0:0:0:
424,188,12251,1,0,0:0:0:0:
340,68,13251,1,0,0:0:0:0:
192,56,14251,1,0,0:0:0:0:
256,192,14751,12,0,16238,0:0:0:0:
52,192,16738,5,0,0:0:0:0:
68,248,16988,1,0,0:0:0:0:
144,304,17238,2,0,P|244:240|332:220,1,210.000000596046
412,208,17863,1,0,0:0:0:0:
412,208,17988,1,12,0:0:0:0:
396,136,18238,6,0,P|340:64|228:64,1,210.000000596046
168,112,18863,1,0,0:0:0:0:
168,112,18988,1,12,0:0:0:0:
92,168,19238,2,0,P|76:248|100:284,1,105.000000298023,0|12,0:0|0:0,0:0:0:0:
160,320,19738,5,0,0:0:0:0:
252,336,19988,1,12,0:0:0:0:
416,260,20238,2,0,P|412:156|316:88,1,210.000000596046
192,56,20863,1,0,0:0:0:0:
192,56,20988,1,12,0:0:0:0:
96,60,21238,6,0,P|112:148|224:200,1,210.000000596046
308,204,21988,1,12,0:0:0:0:
404,200,22238,2,0,P|460:168|476:132,1,105.000000298023
428,52,22738,5,0,0:0:0:0:
364,120,22988,1,0,0:0:0:0:
304,192,23238,1,0,0:0:0:0:
236,260,23488,1,0,0:0:0:0:
164,324,23738,1,12,0:0:0:0:
164,324,23863,1,12,0:0:0:0:
164,324,23988,1,12,0:0:0:0:
164,324,24113,1,12,0:0:0:0:
64,220,24238,6,0,P|108:88|200:64,1,210.000000596046
212,60,24863,1,0,0:0:0:0:
212,60,24988,1,12,0:0:0:0:
308,68,25238,1,0,0:0:0:0:
308,68,25363,1,0,0:0:0:0:
420,156,25738,5,0,0:0:0:0:
436,248,25988,1,12,0:0:0:0:
364,336,26238,2,0,L|132:272,1,210.000000596046
128,248,26863,1,0,0:0:0:0:
128,248,26988,1,12,0:0:0:0:
72,52,27238,6,0,L|272:128,1,210.000000596046
356,160,27988,1,12,0:0:0:0:
436,212,28238,1,0,0:0:0:0:
400,300,28488,1,0,0:0:0:0:
308,324,28738,1,0,0:0:0:0:
280,252,28863,1,0,0:0:0:0:
280,252,28988,1,12,0:0:0:0:
264,160,29238,6,0,P|160:188|132:296,1,210.000000596046
132,324,29863,1,0,0:0:0:0:
132,324,29988,1,12,0:0:0:0:
84,244,30238,1,0,0:0:0:0:
60,152,30488,1,12,0:0:0:0:
100,68,30738,5,0,0:0:0:0:
144,48,30863,1,0,0:0:0:0:
184,32,30988,1,8,0:0:0:0:
232,28,31113,1,12,0:0:0:0:
280,36,31238,1,12,0:0:0:0:
320,60,31363,1,12,0:0:0:0:
352,96,31488,1,12,0:0:0:0:
376,136,31613,1,12,0:0:0:0:
404,176,31738,2,0,L|404:232,4,52.5000001490115
400,328,32488,5,2,0:0:0:0:
304,336,32738,2,0,P|160:312|104:256,1,210.000000596046
84,184,33488,2,0,L|152:184,2,52.5000001490115
92,88,33988,1,0,0:0:0:0:
176,48,34238,1,0,0:0:0:0:
272,48,34488,1,0,0:0:0:0:
360,80,34738,1,0,0:0:0:0:
388,172,34988,2,0,L|456:172,2,52.5000001490115
364,264,35488,1,0,0:0:0:0:
284,312,35738,1,2,0:0:0:0:
96,296,36238,5,0,0:0:0:0:
100,200,36488,2,0,L|176:200,2,52.5000001490115
124,108,36988,1,0,0:0:0:0:
204,56,37238,2,0,L|204:128,2,52.5000001490115
300,56,37738,1,0,0:0:0:0:
384,100,37988,1,0,0:0:0:0:
424,188,38238,1,0,0:0:0:0:
400,288,38488,6,0,L|484:288,2,52.5000001490115
312,328,38988,1,0,0:0:0:0:
220,308,39238,1,0,0:0:0:0:
136,264,39488,1,0,0:0:0:0:
68,200,39738,1,0,0:0:0:0:
64,104,39988,2,0,L|64:32,1,52.5000001490115
160,40,40363,2,0,L|160:104,2,52.5000001490115
254,40,40863,2,0,L|312:40,2,52.5000001490115
254,134,41363,6,0,L|254:189,2,52.5000001490115
348,134,41863,2,0,L|411:134,2,52.5000001490115
348,228,42363,2,0,L|400:228,18,52.5000001490115
336,276,44738,5,0,0:0:0:0:
308,312,44863,1,0,0:0:0:0:
264,332,44988,1,0,0:0:0:0:
216,336,45113,1,0,0:0:0:0:
168,332,45238,1,0,0:0:0:0:
124,316,45363,1,0,0:0:0:0:
88,288,45488,1,0,0:0:0:0:
60,248,45613,1,0,0:0:0:0:
52,200,45738,1,0,0:0:0:0:
64,156,45863,1,0,0:0:0:0:
84,112,45988,1,0,0:0:0:0:
168,72,46238,5,0,0:0:0:0:
260,56,46613,1,0,0:0:0:0:
348,96,46863,1,0,0:0:0:0:
388,184,47113,1,0,0:0:0:0:
412,224,47238,2,0,L|475:224,6,52.5000001490115
404,272,48113,1,0,0:0:0:0:
284,316,48238,5,0,0:0:0:0:
192,292,48488,1,0,0:0:0:0:
120,232,48738,2,0,L|296:104,1,210.000000596046
328,80,49363,1,0,0:0:0:0:
328,80,49488,1,12,0:0:0:0:
416,48,49738,1,0,0:0:0:0:
460,132,49988,5,0,0:0:0:0:
456,228,50238,2,0,P|336:296|232:332,1,210.000000596046
220,324,50863,1,0,0:0:0:0:
220,324,50988,1,12,0:0:0:0:
128,300,51238,2,0,P|80:196|124:96,1,210.000000596046
148,80,51863,1,0,0:0:0:0:
148,80,51988,1,12,0:0:0:0:
248,52,52238,6,0,P|352:68|440:140,1,210.000000596046
452,176,52863,1,0,0:0:0:0:
452,176,52988,1,12,0:0:0:0:
444,272,53238,1,0,0:0:0:0:
364,320,53488,1,0,0:0:0:0:
288,264,53738,2,0,L|132:116,1,210.000000596046
104,88,54363,1,0,0:0:0:0:
104,88,54488,1,12,0:0:0:0:
192,52,54738,5,0,0:0:0:0:
240,52,54863,2,0,L|240:123,2,52.5000001490115
287,52,55238,1,12,0:0:0:0:
287,52,55363,1,12,0:0:0:0:
287,52,55488,1,12,0:0:0:0:
287,52,55613,1,12,0:0:0:0:
287,52,55738,1,12,0:0:0:0:
372,96,55988,5,0,0:0:0:0:
432,168,56238,2,0,P|400:276|308:316,1,210.000000596046
272,320,56863,1,0,0:0:0:0:
272,320,56988,1,12,0:0:0:0:
272,225,57238,1,0,0:0:0:0:
272,130,57488,1,0,0:0:0:0:
272,35,57738,6,0,P|156:72|116:156,1,210.000000596046
116,192,58363,1,0,0:0:0:0:
116,192,58488,1,12,0:0:0:0:
144,284,58738,2,0,P|260:316|376:312,1,210.000000596046
392,296,59363,1,0,0:0:0:0:
392,296,59488,1,12,0:0:0:0:
444,216,59738,1,0,0:0:0:0:
444,120,59988,1,0,0:0:0:0:
372,60,60238,6,0,P|264:36|152:64,1,210.000000596046
128,80,60863,1,0,0:0:0:0:
128,80,60988,1,12,0:0:0:0:
88,168,61238,2,0,P|88:236|116:264,1,105.000000298023
148,288,61613,1,0,0:0:0:0:
188,312,61738,2,0,L|352:152,1,210.000000596046
372,132,62363,1,0,0:0:0:0:
372,132,62488,1,12,0:0:0:0:
444,72,62738,5,0,0:0:0:0:
444,166,62988,1,12,0:0:0:0:
444,260,63238,1,12,0:0:0:0:
420,300,63363,1,12,0:0:0:0:
380,328,63488,1,12,0:0:0:0:
332,336,63613,1,12,0:0:0:0:
104,276,64238,5,10,0:0:0:0:
80,184,64488,1,10,0:0:0:0:
108,96,64738,1,10,0:0:0:0:
296,64,65238,5,0,0:0:0:0:
376,116,65488,1,0,0:0:0:0:
420,200,65738,1,0,0:0:0:0:
231,200,66238,5,10,0:0:0:0:
136,200,66488,1,10,0:0:0:0:
41,200,66738,1,10,0:0:0:0:
176,68,67238,5,0,0:0:0:0:
270,68,67488,1,0,0:0:0:0:
364,68,67738,1,0,0:0:0:0:
444,240,68238,5,10,0:0:0:0:
349,240,68488,1,10,0:0:0:0:
254,240,68738,1,10,0:0:0:0:
92,336,69238,5,0,0:0:0:0:
92,241,69488,1,0,0:0:0:0:
92,146,69738,1,0,0:0:0:0:
252,44,70238,5,10,0:0:0:0:
252,44,70363,1,10,0:0:0:0:
318,110,70613,1,10,0:0:0:0:
328,156,70738,2,0,L|400:156,2,52.5000001490115
332,252,71238,5,10,0:0:0:0:
332,252,71363,1,10,0:0:0:0:
268,324,71613,1,0,0:0:0:0:
268,324,71738,1,12,0:0:0:0:
176,308,71988,1,12,0:0:0:0:
112,240,72238,6,0,P|88:168|100:132,1,105.000000298023
116,100,72613,1,0,0:0:0:0:
148,68,72738,2,0,P|208:40|248:48,1,105.000000298023
328,92,73238,2,0,L|328:148,2,52.5000001490115
328,44,73613,1,0,0:0:0:0:
375,44,73738,2,0,L|443:44,1,52.5000001490115
427,91,73988,1,0,0:0:0:0:
427,91,74113,1,0,0:0:0:0:
432,140,74238,6,0,P|432:200|400:236,1,105.000000298023
360,248,74613,1,0,0:0:0:0:
312,252,74738,2,0,P|248:264|192:312,1,105.000000298023
180,320,75113,1,0,0:0:0:0:
124,316,75238,2,0,P|72:256|64:200,1,105.000000298023
60,184,75613,1,0,0:0:0:0:
68,136,75738,1,10,0:0:0:0:
92,96,75863,1,10,0:0:0:0:
128,64,75988,1,10,0:0:0:0:
220,52,76238,5,14,0:0:0:0:
308,92,76488,1,0,0:0:0:0:
348,120,76613,1,0,0:0:0:0:
376,160,76738,2,0,P|384:232|344:280,1,105.000000298023
276,244,77238,2,0,L|276:304,2,52.5000001490115
180,248,77738,2,0,P|128:272|92:316,1,105.000000298023
48,224,78238,6,0,P|64:140|116:100,1,105.000000298023
108,92,78613,1,10,0:0:0:0:
148,64,78738,1,10,0:0:0:0:
192,52,78863,1,10,0:0:0:0:
240,40,78988,1,10,0:0:0:0:
340,56,79238,1,10,0:0:0:0:
420,136,79488,1,10,0:0:0:0:
436,228,79738,1,10,0:0:0:0:
392,312,79988,1,10,0:0:0:0:
256,192,80238,5,14,0:0:0:0:
