osu file format v10

[General]
AudioFilename: 10 Doctor.mp3
AudioLeadIn: 0
PreviewTime: 13726
Countdown: 0
SampleSet: Soft
StackLeniency: 0.7
Mode: 0
LetterboxInBreaks: 1

[Editor]
Bookmarks: 13726,82297,96012,150843
DistanceSpacing: 0.8
BeatDivisor: 2
GridSize: 8

[Metadata]
Title:Doctor
TitleUnicode:Doctor
Artist:George Buzinkai
ArtistUnicode:George Buzinkai
Creator:Doodley
Version:Normal
Source:MS Paint Adventures
Tags:homestuck vol volume 4
BeatmapID:160781
BeatmapSetID:52439

[Difficulty]
HPDrainRate:5
CircleSize:4
OverallDifficulty:5
ApproachRate:6
SliderMultiplier:1
SliderTickRate:2

[Events]
//Background and Video events
0,0,"doctorbg.png"
//Break Periods
2,82501,94962
//Storyboard Layer 0 (Background)
//Storyboard Layer 1 (Fail)
//Storyboard Layer 2 (Pass)
//Storyboard Layer 3 (Foreground)
//Storyboard Sound Samples
//Background Colour Transformations
3,100,163,162,255

[TimingPoints]
16,428.571428571429,4,2,0,40,1,0
27440,-100,4,2,0,40,0,1
28297,-100,4,1,0,40,0,1
28404,-100,4,2,0,40,0,1
30012,-100,4,1,0,40,0,1
30119,-100,4,2,0,40,0,1
31726,-100,4,1,0,40,0,1
31833,-100,4,2,0,40,0,1
33440,-100,4,1,0,40,0,1
33547,-100,4,2,0,40,0,1
35154,-100,4,1,0,40,0,1
35262,-100,4,2,0,40,0,1
36869,-100,4,1,0,40,0,1
36976,-100,4,2,0,40,0,1
38583,-100,4,1,0,40,0,1
38690,-100,4,2,0,40,0,1
40297,-100,4,1,0,40,0,1
40404,-100,4,2,0,40,0,1
41154,-100,4,2,0,40,0,0
42012,-100,4,1,0,40,0,0
42119,-100,4,2,0,40,0,0
43726,-100,4,1,0,40,0,0
43833,-100,4,2,0,40,0,0
45440,-100,4,1,0,40,0,0
45547,-100,4,2,0,40,0,0
47154,-100,4,1,0,40,0,0
47262,-100,4,2,0,40,0,0
48869,-100,4,1,0,40,0,0
48976,-100,4,2,0,40,0,0
50583,-100,4,1,0,40,0,0
50690,-100,4,2,0,40,0,0
52297,-100,4,1,0,40,0,0
52404,-100,4,2,0,40,0,0
54012,-100,4,1,0,40,0,0
54119,-100,4,2,0,40,0,0
55726,-100,4,1,0,40,0,0
55833,-100,4,2,0,40,0,0
57440,-100,4,1,0,40,0,0
57547,-100,4,2,0,40,0,0
59154,-100,4,1,0,40,0,0
59262,-100,4,2,0,40,0,0
60869,-100,4,1,0,40,0,0
60976,-100,4,2,0,40,0,0
62583,-100,4,1,0,40,0,0
62690,-100,4,2,0,40,0,0
64297,-100,4,1,0,40,0,0
64404,-100,4,2,0,40,0,0
66012,-100,4,1,0,40,0,0
66119,-100,4,2,0,40,0,0
67726,-100,4,1,0,40,0,0
67833,-100,4,2,0,40,0,0
68583,-100,4,2,0,15,0,0
69012,-100,4,2,0,40,0,0
69440,-100,4,1,0,40,0,0
69547,-100,4,2,0,40,0,0
71154,-100,4,1,0,40,0,0
71262,-100,4,2,0,40,0,0
72869,-100,4,1,0,40,0,0
72976,-100,4,2,0,40,0,0
74583,-100,4,1,0,40,0,0
74690,-100,4,2,0,40,0,0
76297,-100,4,1,0,40,0,0
76404,-100,4,2,0,40,0,0
78012,-100,4,1,0,40,0,0
78119,-100,4,2,0,40,0,0
79726,-100,4,1,0,40,0,0
79833,-100,4,2,0,40,0,0
96012,-100,4,2,0,35,0,0
102869,-100,4,2,0,30,0,0
106297,-100,4,2,0,25,0,0
109695,428.571428571429,4,2,0,13,1,0
109726,-117.647058823529,4,2,0,13,0,0

[Colours]
Combo1 : 23,249,255
Combo2 : 0,91,197
Combo3 : 0,180,252

[HitObjects]
208,248,13730,1,8,0:0:0
240,272,13944,2,0,B|288:304|336:272,1,100
400,232,14801,1,2,0:0:0
432,200,15015,2,0,B|496:136|432:64,2,150,0|8|0,0:0|0:0|0:0,0:0:0
384,264,16730,1,2,0:0:0
320,312,17158,5,8,0:0:0
280,328,17373,2,0,B|232:360|184:328,1,100,0|2,0:0|0:0,0:0:0
112,296,18230,1,0,0:0:0
80,272,18444,2,0,B|16:208|80:136,2,150,2|8|2,0:0|0:0|0:0,0:0:0
152,304,20158,1,2,0:0:0
224,280,20587,6,0,B|224:192|320:176,1,150,2|0,0:0|0:0,0:0:0
392,160,21658,1,0,0:0:0
392,120,21873,2,0,B|341:52|259:82,1,150,8|2,0:0|0:0,0:0:0
144,120,23158,1,2,0:0:0
80,168,23587,1,8,0:0:0
80,248,24015,5,2,0:0:0
112,272,24230,2,0,B|176:304|208:240,1,100,0|8,0:0|0:0,0:0:0
240,184,25087,1,0,0:0:0
256,152,25301,2,0,B|304:80|392:128,1,150,2|8,0:0|0:0,0:0:0
488,192,26587,1,2,0:0:0
400,216,27015,1,8,0:0:0
368,288,27444,5,4,1:0:0
344,320,27658,2,0,B|280:376|208:320,1,150,0|8,0:0|0:0,0:0:0
144,272,28730,1,2,0:0:0
120,240,28944,2,0,B|64:176|144:112,1,150,0|8,0:0|0:0,0:0:0
208,64,30015,2,0,B|256:32|304:64,1,100,8|2,0:0|0:0,0:0:0
368,112,30873,6,0,B|448:160|392:240,1,150,4|8,0:0|0:0,0:0:0
368,272,31730,1,8,0:0:0
304,320,32158,2,0,B|88:352|88:144,1,300,0|8,0:0|0:0,0:0:0
104,96,33873,1,8,0:0:0
168,144,34301,6,0,B|240:208|304:144,1,150,4|8,0:0|0:0,0:0:0
328,120,35158,1,8,0:0:0
416,120,35587,1,2,0:0:0
448,136,35801,2,0,B|472:224|368:232,1,150,0|8,0:0|0:0,0:0:0
296,200,36873,2,0,B|240:176|184:224,1,100,8|2,0:0|0:0,0:0:0
224,288,37730,6,0,B|88:296|80:128|216:112,1,300,4|8,0:0|0:0,0:0:0
296,112,39444,2,0,B|431:127|423:295|287:287,1,300,4|8,0:0|0:0,0:0:0
208,288,41158,6,0,B|136:288|136:216,1,100,4|2,0:0|0:0,0:0:0
136,160,42016,1,8,0:0:0
168,88,42444,1,8,0:0:0
200,64,42658,2,0,B|272:16|352:72,1,150,2|8,0:0|0:0,0:0:0
400,120,43730,1,8,0:0:0
424,192,44158,1,2,0:0:0
384,264,44587,6,0,B|344:352|232:312,1,150,4|8,0:0|0:0,0:0:0
224,312,45444,1,8,0:0:0
152,272,45873,2,0,B|64:192|152:96,2,200,2|8|2,0:0|0:0|0:0,0:0:0
224,312,48016,5,4,0:0:0
264,312,48230,2,0,B|360:304|368:208,1,150,0|8,0:0|0:0,0:0:0
376,144,49301,1,8,0:0:0
376,104,49516,2,0,B|344:16|232:56,1,150,0|8,0:0|0:0,0:0:0
176,72,50587,1,8,0:0:0
128,136,51016,6,0,B|72:208|152:264,2,150,4|0|8,0:0|0:0|0:0,0:0:0
184,80,52730,1,8,0:0:0
256,56,53158,1,2,0:0:0
336,80,53587,1,0,0:0:0
400,128,54016,2,0,B|440:176|408:224,2,100,8|8|4,0:0|0:0|0:0,0:0:0
336,80,55301,5,2,0:0:0
256,56,55730,1,8,0:0:0
184,80,56158,1,0,0:0:0
152,104,56373,2,0,B|96:136|112:208,1,100,8|0,0:0|0:0,0:0:0
136,264,57230,2,0,B|176:320|256:304,1,100,2|0,0:0|0:0,0:0:0
304,304,58087,5,2,0:0:0
344,296,58301,2,0,B|432:272|424:184,1,150,4|8,0:0|0:0,0:0:0
408,104,59373,1,0,0:0:0
384,72,59587,2,0,B|336:0|240:24,1,150,0|2,0:0|0:0,0:0:0
176,40,60658,2,0,B|88:72|104:160,1,150,8|0,0:0|0:0,0:0:0
120,232,61730,5,4,0:0:0
136,272,61944,1,0,0:0:0
200,320,62373,1,8,0:0:0
240,336,62587,2,0,B|304:352|344:304,1,100,8|2,0:0|0:0,0:0:0
400,264,63444,5,0,0:0:0
424,184,63873,1,2,0:0:0
384,112,64301,1,8,0:0:0
312,72,64730,2,0,B|208:32|192:144,2,150,8|0|8,0:0|0:0|0:0,0:0:0
384,112,66444,5,8,0:0:0
408,192,66873,1,2,0:0:0
376,264,67301,1,0,0:0:0
304,296,67730,1,8,0:0:0
224,312,68158,1,8,0:0:0
144,296,68587,6,0,B|24:240|88:136,1,200,4|8,0:0|0:0,0:0:0
144,80,69873,1,0,0:0:0
176,64,70087,2,0,B|256:24|320:88,1,150,2|0,0:0|0:0,0:0:0
368,144,71158,1,8,0:0:0
384,224,71587,1,0,0:0:0
336,288,72016,5,4,0:0:0
256,312,72444,1,2,0:0:0
216,312,72658,2,0,B|104:304|128:168,2,150,0|8|0,0:0|0:0|0:0,0:0:0
296,320,74373,2,0,B|360:320|384:272,1,100,2|0,0:0|0:0,0:0:0
392,240,75016,1,8,0:0:0
392,160,75444,5,4,0:0:0
376,120,75658,2,0,B|328:56|240:80,2,150,2|8|2,0:0|0:0|0:0,0:0:0
424,184,77373,1,8,0:0:0
424,224,77587,6,0,B|424:376|232:376|232:216,1,300,2|4,0:0|0:0,0:0:0
304,216,79301,2,0,B|304:80|168:80|144:160,1,250,8|2,0:0|0:0,0:0:0
256,192,80587,12,4,82301,0:0:0
304,136,96015,5,8,0:0:0
272,112,96230,2,0,B|224:80|176:112,1,100
112,152,97087,1,2,0:0:0
80,184,97301,2,0,B|16:248|80:320,2,150,0|8|0,0:0|0:0|0:0,0:0:0
128,120,99015,1,2,0:0:0
192,72,99444,5,8,0:0:0
232,56,99658,2,0,B|280:24|328:56,1,100,0|2,0:0|0:0,0:0:0
400,88,100515,1,0,0:0:0
432,112,100730,2,0,B|496:176|432:248,2,150,2|8|2,0:0|0:0|0:0,0:0:0
360,80,102444,1,2,0:0:0
288,104,102873,6,0,B|288:192|192:208,1,150,2|0,0:0|0:0,0:0:0
120,224,103944,1,0,0:0:0
120,264,104158,2,0,B|171:332|253:302,1,150,8|2,0:0|0:0,0:0:0
368,264,105444,1,2,0:0:0
432,216,105873,1,8,0:0:0
432,136,106301,5,2,0:0:0
400,112,106515,2,0,B|336:80|304:144,1,100,0|8,0:0|0:0,0:0:0
272,200,107373,1,0,0:0:0
256,232,107587,2,0,B|208:304|120:256,1,150,2|2,0:0|0:0,0:0:0
24,192,108873,5,2,0:0:0
64,120,109301,1,8,0:0:0
136,80,109695,5,2,0:0:0
264,72,110337,1,2,0:0:0
304,72,110552,2,0,B|352:80|376:136,1,85.0000016212464
344,248,111623,1,2,0:0:0
312,272,111837,1,0,0:0:0
224,280,112266,6,0,B|144:280|136:208,1,127.50000243187
136,168,113123,1,0,0:0:0
208,120,113552,1,2,0:0:0
296,128,113980,5,8,0:0:0
344,200,114409,1,2,0:0:0
336,240,114623,1,0,0:0:0
264,288,115052,2,0,B|216:312|184:272,1,85.0000016212464,0|2,0:0|0:0,0:0:0
144,200,116123,1,0,0:0:0
176,120,116552,6,0,B|216:64|288:104,2,127.50000243187
128,192,118266,1,0,0:0:0
176,264,118694,1,0,0:0:0
264,280,119123,1,2,0:0:0
344,264,119552,2,0,B|419:233|379:161,2,127.499994680286,0|0|2,0:0|0:0|0:0,0:0:0
264,280,121266,5,0,0:0:0
176,264,121694,1,2,0:0:0
128,192,122123,1,0,0:0:0
144,112,122552,2,0,B|184:48|256:80,1,127.50000243187
288,96,123409,5,2,0:0:0
360,144,123837,1,0,0:0:0
352,232,124266,2,0,B|400:216,2,42.4999982267619,2|0|2,0:0|0:0|0:0,0:0:0
328,264,124909,6,0,B|256:336|184:248,1,169.999992907048,0|2,0:0|0:0,0:0:0
152,192,126194,1,0,0:0:0
192,136,126623,1,0,0:0:0
208,168,126837,2,0,B|264:224|320:168,1,127.50000243187,0|2,0:0|0:0,0:0:0
368,120,127909,2,0,B|400:152,2,42.5000008106232,0|2|0,0:0|0:0|0:0,0:0:0
304,112,128766,2,0,B|272:64,2,42.5000008106232,0|2|0,0:0|0:0|0:0,0:0:0
240,184,129623,5,0,0:0:0
224,216,129837,2,0,B|208:264|256:288,1,85.0000016212464,2|0,0:0|0:0,0:0:0
320,296,130694,1,0,0:0:0
352,288,130909,2,0,B|424:248|392:176,1,127.50000243187
328,208,131980,5,2,0:0:0
256,256,132409,1,0,0:0:0
184,208,132837,1,2,0:0:0
208,128,133266,2,0,B|192:56|112:72,2,127.50000243187
176,208,134980,6,0,B|120:248,2,42.5000008106232
256,232,135837,1,0,0:0:0
336,208,136266,2,0,B|392:248,2,42.5000008106232
400,152,137123,6,0,B|368:64|264:80,1,170.000003242493,2|0,0:0|0:0,0:0:0
152,136,138623,2,0,B|80:208|160:288,1,169.999992907048,2|0,0:0|0:0,0:0:0
232,328,139909,1,2,0:0:0
320,328,140337,5,0,0:0:0
360,312,140552,2,0,B|416:264|408:184,1,127.499994680286,2|0,0:0|0:0,0:0:0
416,112,141623,1,0,0:0:0
392,72,141837,1,2,0:0:0
352,56,142052,2,0,B|248:32|184:80,1,170.000003242493,0|0,0:0|0:0,0:0:0
120,128,143337,5,0,0:0:0
104,168,143552,2,0,B|88:216|136:240,1,85.0000016212464,2|8,0:0|0:0,0:0:0
248,296,144623,6,0,B|320:336|360:272,1,127.50000243187,2|0,0:0|0:0,0:0:0
392,192,145694,1,0,0:0:0
384,104,146123,2,0,B|360:56|304:56,1,85.0000016212464
232,56,146980,2,0,B|160:72|128:128,1,127.50000243187,2|0,0:0|0:0,0:0:0
256,192,148266,12,2,150837,0:0:0
