osu file format v14

[General]
AudioFilename: Gentle Stick X M2U - Ineffabilis.mp3
AudioLeadIn: 0
PreviewTime: -1
Countdown: 0
SampleSet: None
StackLeniency: 0.7
Mode: 3
LetterboxInBreaks: 1
SpecialStyle: 1
WidescreenStoryboard: 0

[Editor]
DistanceSpacing: 0.8
BeatDivisor: 6
GridSize: 8
TimelineZoom: 1

[Metadata]
Title:Ineffabilis
TitleUnicode:Ineffabilis
Artist:Gentle Stick X M2U
ArtistUnicode:Gentle Stick X M2U
Creator:abcoku123
Version:RM
Source:
Tags:Rhythm Master
BeatmapID:646581
BeatmapSetID:286405

[Difficulty]
HPDrainRate:5
CircleSize:4
OverallDifficulty:5
ApproachRate:5
SliderMultiplier:1.6
SliderTickRate:4

[Events]
//Background and Video events
0,0,"mmexport1418131372476.jpg",0,0
//Break Periods
//Storyboard Layer 0 (Background)
//Storyboard Layer 1 (Fail)
//Storyboard Layer 2 (Pass)
//Storyboard Layer 3 (Foreground)
//Storyboard Sound Samples

[TimingPoints]
1499,374.976563964752,4,3,0,100,1,0

[HitObjects]
64,192,1499,5,0,0:0:0:0:
320,192,1499,128,0,2061:0:0:0:0:
64,192,1873,1,0,0:0:0:0:
448,192,2061,1,0,0:0:0:0:
64,192,2248,1,0,0:0:0:0:
448,192,2248,128,0,2811:0:0:0:0:
64,192,2623,1,0,0:0:0:0:
64,192,2998,1,0,0:0:0:0:
192,192,2998,128,0,3561:0:0:0:0:
64,192,3373,1,0,0:0:0:0:
320,192,3561,1,0,0:0:0:0:
448,192,3561,128,0,3748:0:0:0:0:
64,192,3748,1,0,0:0:0:0:
320,192,3748,128,0,4311:0:0:0:0:
64,192,4123,1,0,0:0:0:0:
64,192,4498,1,0,0:0:0:0:
320,192,4498,128,0,5061:0:0:0:0:
64,192,4873,1,0,0:0:0:0:
192,192,5061,128,0,5248:0:0:0:0:
64,192,5248,1,0,0:0:0:0:
448,192,5248,128,0,5811:0:0:0:0:
320,192,5248,1,0,0:0:0:0:
64,192,5623,1,0,0:0:0:0:
64,192,5998,1,0,0:0:0:0:
192,192,5998,128,0,6561:0:0:0:0:
64,192,6373,1,0,0:0:0:0:
320,192,6561,1,0,0:0:0:0:
448,192,6561,128,0,6748:0:0:0:0:
64,192,6748,1,0,0:0:0:0:
320,192,6748,128,0,7311:0:0:0:0:
64,192,7123,1,0,0:0:0:0:
320,192,7498,1,0,0:0:0:0:
448,192,7498,1,0,0:0:0:0:
192,192,7498,128,0,8061:0:0:0:0:
448,192,7873,1,0,0:0:0:0:
64,192,8061,1,0,0:0:0:0:
448,192,8248,1,0,0:0:0:0:
64,192,8248,128,0,8811:0:0:0:0:
448,192,8623,1,0,0:0:0:0:
448,192,8998,1,0,0:0:0:0:
320,192,8998,128,0,9560:0:0:0:0:
448,192,9373,1,0,0:0:0:0:
192,192,9560,1,0,0:0:0:0:
64,192,9560,128,0,9748:0:0:0:0:
448,192,9748,1,0,0:0:0:0:
192,192,9748,128,0,10310:0:0:0:0:
448,192,10123,1,0,0:0:0:0:
448,192,10498,1,0,0:0:0:0:
192,192,10498,128,0,11060:0:0:0:0:
448,192,10873,1,0,0:0:0:0:
320,192,11060,128,0,11248:0:0:0:0:
448,192,11248,1,0,0:0:0:0:
64,192,11248,128,0,11810:0:0:0:0:
192,192,11248,1,0,0:0:0:0:
448,192,11623,1,0,0:0:0:0:
448,192,11998,1,0,0:0:0:0:
192,192,11998,128,0,12560:0:0:0:0:
320,192,12279,1,0,0:0:0:0:
448,192,12560,1,0,0:0:0:0:
64,192,12560,128,0,12748:0:0:0:0:
192,192,12748,128,0,13310:0:0:0:0:
448,192,12842,1,0,0:0:0:0:
320,192,13123,1,0,0:0:0:0:
448,192,13310,1,0,0:0:0:0:
64,192,13498,1,0,0:0:0:0:
320,192,13685,1,0,0:0:0:0:
64,192,13873,1,0,0:0:0:0:
320,192,13966,1,0,0:0:0:0:
64,192,14154,1,0,0:0:0:0:
320,192,14248,1,0,0:0:0:0:
64,192,14435,1,0,0:0:0:0:
320,192,14529,1,0,0:0:0:0:
64,192,14716,1,0,0:0:0:0:
320,192,14810,1,0,0:0:0:0:
192,192,14998,1,0,0:0:0:0:
320,192,15185,1,0,0:0:0:0:
192,192,15373,1,0,0:0:0:0:
320,192,15466,1,0,0:0:0:0:
192,192,15654,1,0,0:0:0:0:
448,192,15748,1,0,0:0:0:0:
192,192,15935,1,0,0:0:0:0:
448,192,16029,1,0,0:0:0:0:
192,192,16216,1,0,0:0:0:0:
448,192,16310,1,0,0:0:0:0:
64,192,16498,1,0,0:0:0:0:
320,192,16685,1,0,0:0:0:0:
64,192,16873,1,0,0:0:0:0:
320,192,16966,1,0,0:0:0:0:
64,192,17154,1,0,0:0:0:0:
320,192,17248,1,0,0:0:0:0:
64,192,17435,1,0,0:0:0:0:
320,192,17529,1,0,0:0:0:0:
64,192,17716,1,0,0:0:0:0:
320,192,17810,1,0,0:0:0:0:
192,192,17997,1,0,0:0:0:0:
448,192,18185,1,0,0:0:0:0:
192,192,18372,1,0,0:0:0:0:
448,192,18466,1,0,0:0:0:0:
320,192,18654,1,0,0:0:0:0:
448,192,18747,1,0,0:0:0:0:
320,192,18935,1,0,0:0:0:0:
448,192,19029,1,0,0:0:0:0:
320,192,19216,1,0,0:0:0:0:
448,192,19310,1,0,0:0:0:0:
64,192,19497,1,0,0:0:0:0:
192,192,19685,1,0,0:0:0:0:
448,192,19685,1,0,0:0:0:0:
64,192,19872,1,0,0:0:0:0:
192,192,19966,1,0,0:0:0:0:
448,192,19966,1,0,0:0:0:0:
64,192,20154,1,0,0:0:0:0:
192,192,20247,1,0,0:0:0:0:
448,192,20247,1,0,0:0:0:0:
64,192,20435,1,0,0:0:0:0:
192,192,20529,1,0,0:0:0:0:
448,192,20529,1,0,0:0:0:0:
64,192,20716,1,0,0:0:0:0:
192,192,20810,1,0,0:0:0:0:
448,192,20810,1,0,0:0:0:0:
192,192,20997,1,0,0:0:0:0:
320,192,21185,1,0,0:0:0:0:
448,192,21185,1,0,0:0:0:0:
192,192,21372,1,0,0:0:0:0:
320,192,21466,1,0,0:0:0:0:
448,192,21466,1,0,0:0:0:0:
64,192,21653,1,0,0:0:0:0:
192,192,21747,1,0,0:0:0:0:
448,192,21747,1,0,0:0:0:0:
64,192,21935,1,0,0:0:0:0:
192,192,22028,1,0,0:0:0:0:
448,192,22028,1,0,0:0:0:0:
64,192,22216,1,0,0:0:0:0:
192,192,22310,1,0,0:0:0:0:
448,192,22310,1,0,0:0:0:0:
64,192,22497,1,0,0:0:0:0:
320,192,22497,1,0,0:0:0:0:
192,192,22872,1,0,0:0:0:0:
320,192,22872,1,0,0:0:0:0:
64,192,23060,1,0,0:0:0:0:
320,192,23060,1,0,0:0:0:0:
192,192,23247,1,0,0:0:0:0:
448,192,23247,1,0,0:0:0:0:
64,192,23622,1,0,0:0:0:0:
448,192,23622,1,0,0:0:0:0:
64,192,23997,1,0,0:0:0:0:
192,192,23997,1,0,0:0:0:0:
320,192,23997,1,0,0:0:0:0:
448,192,23997,1,0,0:0:0:0:
448,192,24372,1,0,0:0:0:0:
64,192,24466,1,0,0:0:0:0:
320,192,24560,1,0,0:0:0:0:
64,192,24653,1,0,0:0:0:0:
320,192,24747,1,0,0:0:0:0:
192,192,24841,1,0,0:0:0:0:
448,192,24935,1,0,0:0:0:0:
64,192,25122,1,0,0:0:0:0:
192,192,25122,1,0,0:0:0:0:
320,192,25122,1,0,0:0:0:0:
448,192,25497,128,0,25872:0:0:0:0:
64,192,25872,1,0,0:0:0:0:
192,192,25966,1,0,0:0:0:0:
320,192,26059,1,0,0:0:0:0:
192,192,26153,1,0,0:0:0:0:
64,192,26247,128,0,26622:0:0:0:0:
448,192,26622,1,0,0:0:0:0:
320,192,26716,1,0,0:0:0:0:
192,192,26809,1,0,0:0:0:0:
320,192,26903,1,0,0:0:0:0:
448,192,26997,1,0,0:0:0:0:
64,192,27184,1,0,0:0:0:0:
320,192,27278,1,0,0:0:0:0:
64,192,27372,1,0,0:0:0:0:
448,192,27559,1,0,0:0:0:0:
192,192,27747,128,0,28122:0:0:0:0:
320,192,28122,1,0,0:0:0:0:
64,192,28216,1,0,0:0:0:0:
320,192,28309,1,0,0:0:0:0:
192,192,28403,1,0,0:0:0:0:
448,192,28497,128,0,28684:0:0:0:0:
64,192,28684,1,0,0:0:0:0:
320,192,28778,1,0,0:0:0:0:
192,192,28872,1,0,0:0:0:0:
448,192,28966,1,0,0:0:0:0:
192,192,29059,1,0,0:0:0:0:
320,192,29153,1,0,0:0:0:0:
64,192,29247,128,0,29809:0:0:0:0:
320,192,29809,1,0,0:0:0:0:
192,192,29903,1,0,0:0:0:0:
448,192,29997,128,0,30184:0:0:0:0:
64,192,30184,1,0,0:0:0:0:
320,192,30278,1,0,0:0:0:0:
64,192,30372,1,0,0:0:0:0:
448,192,30465,1,0,0:0:0:0:
192,192,30559,1,0,0:0:0:0:
320,192,30653,1,0,0:0:0:0:
64,192,30747,128,0,30934:0:0:0:0:
448,192,30934,1,0,0:0:0:0:
192,192,31028,1,0,0:0:0:0:
448,192,31122,128,0,31309:0:0:0:0:
192,192,31309,1,0,0:0:0:0:
320,192,31403,1,0,0:0:0:0:
64,192,31497,128,0,31872:0:0:0:0:
448,192,31872,1,0,0:0:0:0:
320,192,31965,1,0,0:0:0:0:
192,192,32059,1,0,0:0:0:0:
320,192,32153,1,0,0:0:0:0:
448,192,32247,128,0,32622:0:0:0:0:
192,192,32622,1,0,0:0:0:0:
320,192,32809,1,0,0:0:0:0:
64,192,32997,128,0,33122:0:0:0:0:
192,192,33184,1,0,0:0:0:0:
320,192,33278,1,0,0:0:0:0:
192,192,33372,1,0,0:0:0:0:
64,192,33372,128,0,33559:0:0:0:0:
192,192,33559,128,0,33746:0:0:0:0:
64,192,33746,128,0,33934:0:0:0:0:
320,192,34121,1,0,0:0:0:0:
192,192,34309,1,0,0:0:0:0:
320,192,34496,1,0,0:0:0:0:
448,192,34496,128,0,34871:0:0:0:0:
320,192,34871,128,0,35246:0:0:0:0:
64,192,35246,1,0,0:0:0:0:
192,192,35340,1,0,0:0:0:0:
320,192,35434,1,0,0:0:0:0:
192,192,35528,1,0,0:0:0:0:
64,192,35621,128,0,35809:0:0:0:0:
192,192,35809,128,0,35996:0:0:0:0:
64,192,35996,128,0,36184:0:0:0:0:
320,192,36184,1,0,0:0:0:0:
192,192,36278,1,0,0:0:0:0:
320,192,36371,1,0,0:0:0:0:
64,192,36465,1,0,0:0:0:0:
448,192,36559,1,0,0:0:0:0:
192,192,36653,1,0,0:0:0:0:
320,192,36746,1,0,0:0:0:0:
64,192,36934,1,0,0:0:0:0:
448,192,36934,1,0,0:0:0:0:
448,192,37028,1,0,0:0:0:0:
192,192,37121,1,0,0:0:0:0:
320,192,37309,1,0,0:0:0:0:
64,192,37309,1,0,0:0:0:0:
64,192,37496,1,0,0:0:0:0:
448,192,37496,128,0,38059:0:0:0:0:
64,192,37871,1,0,0:0:0:0:
448,192,38246,1,0,0:0:0:0:
64,192,38246,1,0,0:0:0:0:
192,192,38340,1,0,0:0:0:0:
320,192,38434,1,0,0:0:0:0:
192,192,38527,1,0,0:0:0:0:
448,192,38621,1,0,0:0:0:0:
64,192,38621,1,0,0:0:0:0:
192,192,38715,1,0,0:0:0:0:
320,192,38809,1,0,0:0:0:0:
192,192,38902,1,0,0:0:0:0:
64,192,38996,128,0,39559:0:0:0:0:
448,192,38996,1,0,0:0:0:0:
448,192,39371,1,0,0:0:0:0:
64,192,39746,1,0,0:0:0:0:
448,192,39746,1,0,0:0:0:0:
320,192,39840,1,0,0:0:0:0:
192,192,39934,1,0,0:0:0:0:
320,192,40027,1,0,0:0:0:0:
64,192,40121,1,0,0:0:0:0:
448,192,40121,1,0,0:0:0:0:
320,192,40215,1,0,0:0:0:0:
192,192,40309,1,0,0:0:0:0:
320,192,40402,1,0,0:0:0:0:
448,192,40496,128,0,41059:0:0:0:0:
64,192,40496,1,0,0:0:0:0:
64,192,40871,1,0,0:0:0:0:
448,192,41246,1,0,0:0:0:0:
64,192,41246,1,0,0:0:0:0:
192,192,41340,1,0,0:0:0:0:
320,192,41434,1,0,0:0:0:0:
192,192,41527,1,0,0:0:0:0:
448,192,41621,1,0,0:0:0:0:
64,192,41621,1,0,0:0:0:0:
192,192,41715,1,0,0:0:0:0:
320,192,41808,1,0,0:0:0:0:
192,192,41902,1,0,0:0:0:0:
448,192,41996,1,0,0:0:0:0:
64,192,41996,1,0,0:0:0:0:
64,192,42183,1,0,0:0:0:0:
320,192,42183,1,0,0:0:0:0:
192,192,42277,1,0,0:0:0:0:
448,192,42277,1,0,0:0:0:0:
320,192,42371,1,0,0:0:0:0:
64,192,42371,1,0,0:0:0:0:
192,192,42558,1,0,0:0:0:0:
64,192,42652,1,0,0:0:0:0:
320,192,42652,1,0,0:0:0:0:
192,192,42746,1,0,0:0:0:0:
448,192,42746,1,0,0:0:0:0:
64,192,42933,1,0,0:0:0:0:
320,192,42933,1,0,0:0:0:0:
64,192,43121,1,0,0:0:0:0:
448,192,43121,1,0,0:0:0:0:
192,192,43308,1,0,0:0:0:0:
448,192,43308,1,0,0:0:0:0:
320,192,43496,1,0,0:0:0:0:
448,192,43496,1,0,0:0:0:0:
64,192,43496,128,0,44058:0:0:0:0:
448,192,43871,1,0,0:0:0:0:
64,192,44246,1,0,0:0:0:0:
448,192,44246,1,0,0:0:0:0:
320,192,44340,1,0,0:0:0:0:
192,192,44433,1,0,0:0:0:0:
320,192,44527,1,0,0:0:0:0:
64,192,44621,1,0,0:0:0:0:
448,192,44621,1,0,0:0:0:0:
320,192,44715,1,0,0:0:0:0:
192,192,44808,1,0,0:0:0:0:
320,192,44902,1,0,0:0:0:0:
448,192,44996,128,0,45558:0:0:0:0:
64,192,44996,1,0,0:0:0:0:
64,192,45371,1,0,0:0:0:0:
448,192,45746,1,0,0:0:0:0:
64,192,45746,1,0,0:0:0:0:
192,192,45839,1,0,0:0:0:0:
320,192,45933,1,0,0:0:0:0:
192,192,46027,1,0,0:0:0:0:
448,192,46121,1,0,0:0:0:0:
64,192,46121,1,0,0:0:0:0:
192,192,46214,1,0,0:0:0:0:
320,192,46308,1,0,0:0:0:0:
192,192,46402,1,0,0:0:0:0:
64,192,46496,128,0,47058:0:0:0:0:
448,192,46496,1,0,0:0:0:0:
448,192,46871,1,0,0:0:0:0:
64,192,47246,1,0,0:0:0:0:
448,192,47246,1,0,0:0:0:0:
320,192,47339,1,0,0:0:0:0:
192,192,47433,1,0,0:0:0:0:
320,192,47527,1,0,0:0:0:0:
64,192,47621,1,0,0:0:0:0:
448,192,47621,1,0,0:0:0:0:
320,192,47714,1,0,0:0:0:0:
192,192,47808,1,0,0:0:0:0:
320,192,47902,1,0,0:0:0:0:
448,192,47996,1,0,0:0:0:0:
64,192,48183,1,0,0:0:0:0:
320,192,48183,1,0,0:0:0:0:
192,192,48277,1,0,0:0:0:0:
448,192,48277,1,0,0:0:0:0:
64,192,48371,1,0,0:0:0:0:
320,192,48371,1,0,0:0:0:0:
192,192,48464,1,0,0:0:0:0:
448,192,48464,1,0,0:0:0:0:
64,192,48558,1,0,0:0:0:0:
320,192,48558,1,0,0:0:0:0:
192,192,48652,1,0,0:0:0:0:
448,192,48652,1,0,0:0:0:0:
64,192,48746,1,0,0:0:0:0:
320,192,48746,128,0,48933:0:0:0:0:
64,192,48933,1,0,0:0:0:0:
448,192,48996,128,0,49183:0:0:0:0:
320,192,49214,1,0,0:0:0:0:
192,192,49214,1,0,0:0:0:0:
64,192,49246,128,0,49371:0:0:0:0:
192,192,49371,1,0,0:0:0:0:
192,192,49496,128,0,49870:0:0:0:0:
448,192,49870,1,0,0:0:0:0:
192,192,50058,1,0,0:0:0:0:
320,192,50152,1,0,0:0:0:0:
448,192,50245,1,0,0:0:0:0:
192,192,50433,1,0,0:0:0:0:
320,192,50620,1,0,0:0:0:0:
64,192,50620,1,0,0:0:0:0:
192,192,50808,1,0,0:0:0:0:
320,192,50995,128,0,51370:0:0:0:0:
64,192,51370,1,0,0:0:0:0:
320,192,51558,1,0,0:0:0:0:
192,192,51652,1,0,0:0:0:0:
64,192,51745,1,0,0:0:0:0:
320,192,51933,1,0,0:0:0:0:
192,192,52120,1,0,0:0:0:0:
448,192,52120,1,0,0:0:0:0:
320,192,52308,1,0,0:0:0:0:
64,192,52495,128,0,52683:0:0:0:0:
320,192,52683,1,0,0:0:0:0:
192,192,52777,1,0,0:0:0:0:
448,192,52870,128,0,53058:0:0:0:0:
192,192,53058,1,0,0:0:0:0:
320,192,53152,1,0,0:0:0:0:
64,192,53245,128,0,53433:0:0:0:0:
320,192,53433,1,0,0:0:0:0:
192,192,53526,1,0,0:0:0:0:
448,192,53620,1,0,0:0:0:0:
192,192,53714,1,0,0:0:0:0:
448,192,53808,1,0,0:0:0:0:
64,192,53901,1,0,0:0:0:0:
320,192,53995,128,0,54183:0:0:0:0:
64,192,54183,1,0,0:0:0:0:
448,192,54276,1,0,0:0:0:0:
192,192,54370,128,0,54558:0:0:0:0:
448,192,54558,1,0,0:0:0:0:
64,192,54651,1,0,0:0:0:0:
448,192,54745,1,0,0:0:0:0:
192,192,54839,1,0,0:0:0:0:
320,192,54933,1,0,0:0:0:0:
64,192,55026,1,0,0:0:0:0:
320,192,55120,1,0,0:0:0:0:
64,192,55214,1,0,0:0:0:0:
448,192,55308,1,0,0:0:0:0:
192,192,55401,1,0,0:0:0:0:
320,192,55495,128,0,55870:0:0:0:0:
64,192,55870,1,0,0:0:0:0:
320,192,56058,1,0,0:0:0:0:
192,192,56151,1,0,0:0:0:0:
64,192,56245,1,0,0:0:0:0:
320,192,56433,1,0,0:0:0:0:
192,192,56620,1,0,0:0:0:0:
448,192,56620,1,0,0:0:0:0:
320,192,56808,1,0,0:0:0:0:
192,192,56995,128,0,57370:0:0:0:0:
448,192,57370,1,0,0:0:0:0:
192,192,57557,1,0,0:0:0:0:
320,192,57651,1,0,0:0:0:0:
448,192,57745,1,0,0:0:0:0:
192,192,57932,1,0,0:0:0:0:
64,192,58120,1,0,0:0:0:0:
320,192,58120,1,0,0:0:0:0:
192,192,58307,1,0,0:0:0:0:
448,192,58495,128,0,58682:0:0:0:0:
192,192,58682,1,0,0:0:0:0:
320,192,58776,1,0,0:0:0:0:
64,192,58870,128,0,59057:0:0:0:0:
320,192,59057,1,0,0:0:0:0:
192,192,59151,1,0,0:0:0:0:
448,192,59245,128,0,59432:0:0:0:0:
192,192,59432,1,0,0:0:0:0:
320,192,59526,1,0,0:0:0:0:
64,192,59620,1,0,0:0:0:0:
320,192,59714,1,0,0:0:0:0:
192,192,59807,1,0,0:0:0:0:
448,192,59901,1,0,0:0:0:0:
192,192,59995,128,0,60182:0:0:0:0:
448,192,60182,1,0,0:0:0:0:
64,192,60276,1,0,0:0:0:0:
320,192,60370,128,0,60557:0:0:0:0:
64,192,60557,1,0,0:0:0:0:
448,192,60651,1,0,0:0:0:0:
64,192,60745,1,0,0:0:0:0:
320,192,60839,1,0,0:0:0:0:
192,192,60932,1,0,0:0:0:0:
448,192,61026,1,0,0:0:0:0:
192,192,61120,1,0,0:0:0:0:
448,192,61214,1,0,0:0:0:0:
64,192,61307,1,0,0:0:0:0:
320,192,61401,1,0,0:0:0:0:
448,192,61495,1,0,0:0:0:0:
192,192,61495,128,0,61870:0:0:0:0:
320,192,61870,1,0,0:0:0:0:
192,192,62057,1,0,0:0:0:0:
320,192,62151,1,0,0:0:0:0:
448,192,62245,1,0,0:0:0:0:
64,192,62245,1,0,0:0:0:0:
192,192,62432,1,0,0:0:0:0:
64,192,62620,1,0,0:0:0:0:
448,192,62620,1,0,0:0:0:0:
192,192,62807,1,0,0:0:0:0:
320,192,62995,128,0,63370:0:0:0:0:
64,192,62995,1,0,0:0:0:0:
192,192,63370,1,0,0:0:0:0:
320,192,63557,1,0,0:0:0:0:
192,192,63651,1,0,0:0:0:0:
64,192,63745,1,0,0:0:0:0:
448,192,63745,1,0,0:0:0:0:
320,192,63932,1,0,0:0:0:0:
448,192,64120,1,0,0:0:0:0:
64,192,64120,1,0,0:0:0:0:
320,192,64307,1,0,0:0:0:0:
64,192,64495,128,0,64682:0:0:0:0:
320,192,64682,1,0,0:0:0:0:
192,192,64776,1,0,0:0:0:0:
448,192,64870,128,0,65057:0:0:0:0:
192,192,65057,1,0,0:0:0:0:
320,192,65151,1,0,0:0:0:0:
64,192,65245,128,0,65432:0:0:0:0:
320,192,65432,1,0,0:0:0:0:
192,192,65526,1,0,0:0:0:0:
448,192,65619,1,0,0:0:0:0:
192,192,65713,1,0,0:0:0:0:
448,192,65807,1,0,0:0:0:0:
64,192,65901,1,0,0:0:0:0:
320,192,65994,128,0,66182:0:0:0:0:
64,192,66182,1,0,0:0:0:0:
448,192,66276,1,0,0:0:0:0:
192,192,66369,128,0,66557:0:0:0:0:
448,192,66557,1,0,0:0:0:0:
64,192,66651,1,0,0:0:0:0:
448,192,66744,1,0,0:0:0:0:
192,192,66838,1,0,0:0:0:0:
320,192,66932,1,0,0:0:0:0:
64,192,67026,1,0,0:0:0:0:
320,192,67119,1,0,0:0:0:0:
64,192,67213,1,0,0:0:0:0:
448,192,67307,1,0,0:0:0:0:
192,192,67401,1,0,0:0:0:0:
64,192,67494,1,0,0:0:0:0:
320,192,67494,128,0,67869:0:0:0:0:
192,192,67869,1,0,0:0:0:0:
320,192,68057,1,0,0:0:0:0:
192,192,68151,1,0,0:0:0:0:
64,192,68244,1,0,0:0:0:0:
448,192,68244,1,0,0:0:0:0:
320,192,68432,1,0,0:0:0:0:
448,192,68619,1,0,0:0:0:0:
64,192,68619,1,0,0:0:0:0:
320,192,68807,1,0,0:0:0:0:
192,192,68994,128,0,69369:0:0:0:0:
448,192,68994,1,0,0:0:0:0:
192,192,69557,1,0,0:0:0:0:
320,192,69650,1,0,0:0:0:0:
448,192,69744,1,0,0:0:0:0:
64,192,69744,1,0,0:0:0:0:
192,192,69932,1,0,0:0:0:0:
64,192,70119,1,0,0:0:0:0:
448,192,70119,1,0,0:0:0:0:
192,192,70307,1,0,0:0:0:0:
448,192,70494,128,0,70682:0:0:0:0:
192,192,70682,1,0,0:0:0:0:
320,192,70775,1,0,0:0:0:0:
64,192,70869,128,0,71057:0:0:0:0:
320,192,71057,1,0,0:0:0:0:
192,192,71150,1,0,0:0:0:0:
448,192,71244,128,0,71432:0:0:0:0:
192,192,71432,1,0,0:0:0:0:
320,192,71525,1,0,0:0:0:0:
64,192,71619,1,0,0:0:0:0:
320,192,71713,1,0,0:0:0:0:
64,192,71807,1,0,0:0:0:0:
448,192,71900,1,0,0:0:0:0:
192,192,71994,128,0,72182:0:0:0:0:
448,192,72182,1,0,0:0:0:0:
64,192,72275,1,0,0:0:0:0:
320,192,72369,1,0,0:0:0:0:
192,192,72463,1,0,0:0:0:0:
448,192,72557,1,0,0:0:0:0:
192,192,72650,1,0,0:0:0:0:
64,192,72744,1,0,0:0:0:0:
448,192,72744,128,0,72869:0:0:0:0:
64,192,72932,1,0,0:0:0:0:
192,192,72932,1,0,0:0:0:0:
320,192,72932,1,0,0:0:0:0:
320,192,73025,1,0,0:0:0:0:
64,192,73119,1,0,0:0:0:0:
192,192,73119,1,0,0:0:0:0:
448,192,73119,1,0,0:0:0:0:
448,192,73494,128,0,73869:0:0:0:0:
192,192,73494,1,0,0:0:0:0:
64,192,73494,1,0,0:0:0:0:
320,192,74056,1,0,0:0:0:0:
192,192,74150,1,0,0:0:0:0:
64,192,74244,128,0,74619:0:0:0:0:
192,192,74806,1,0,0:0:0:0:
320,192,74900,1,0,0:0:0:0:
448,192,74994,128,0,75369:0:0:0:0:
448,192,75556,1,0,0:0:0:0:
320,192,75650,1,0,0:0:0:0:
192,192,75744,128,0,76119:0:0:0:0:
64,192,76306,1,0,0:0:0:0:
192,192,76400,1,0,0:0:0:0:
320,192,76494,128,0,76869:0:0:0:0:
320,192,77056,1,0,0:0:0:0:
192,192,77150,1,0,0:0:0:0:
64,192,77244,1,0,0:0:0:0:
320,192,77431,1,0,0:0:0:0:
64,192,77619,1,0,0:0:0:0:
448,192,77806,1,0,0:0:0:0:
192,192,77994,128,0,78369:0:0:0:0:
320,192,78462,1,0,0:0:0:0:
192,192,78556,1,0,0:0:0:0:
320,192,78681,1,0,0:0:0:0:
448,192,78744,1,0,0:0:0:0:
64,192,78931,1,0,0:0:0:0:
320,192,79119,1,0,0:0:0:0:
192,192,79306,1,0,0:0:0:0:
192,192,79494,1,0,0:0:0:0:
64,192,79494,1,0,0:0:0:0:
448,192,79494,128,0,79775:0:0:0:0:
64,192,79775,1,0,0:0:0:0:
320,192,80025,1,0,0:0:0:0:
448,192,80056,128,0,80431:0:0:0:0:
192,192,80431,1,0,0:0:0:0:
320,192,80619,1,0,0:0:0:0:
448,192,80806,1,0,0:0:0:0:
64,192,80994,128,0,81181:0:0:0:0:
320,192,81181,1,0,0:0:0:0:
192,192,81275,1,0,0:0:0:0:
448,192,81369,1,0,0:0:0:0:
192,192,81462,1,0,0:0:0:0:
448,192,81556,1,0,0:0:0:0:
64,192,81650,1,0,0:0:0:0:
320,192,81743,1,0,0:0:0:0:
448,192,81806,128,0,81993:0:0:0:0:
64,192,82118,1,0,0:0:0:0:
320,192,82306,1,0,0:0:0:0:
192,192,82493,1,0,0:0:0:0:
448,192,82681,1,0,0:0:0:0:
448,192,82868,128,0,83056:0:0:0:0:
64,192,83056,1,0,0:0:0:0:
320,192,83150,1,0,0:0:0:0:
192,192,83337,128,0,83525:0:0:0:0:
320,192,83525,1,0,0:0:0:0:
64,192,83618,1,0,0:0:0:0:
320,192,83712,1,0,0:0:0:0:
192,192,83806,1,0,0:0:0:0:
448,192,83900,1,0,0:0:0:0:
64,192,83993,128,0,84181:0:0:0:0:
320,192,84181,1,0,0:0:0:0:
64,192,84368,1,0,0:0:0:0:
320,192,84462,1,0,0:0:0:0:
192,192,84556,1,0,0:0:0:0:
448,192,84650,128,0,84931:0:0:0:0:
64,192,84931,1,0,0:0:0:0:
320,192,85118,1,0,0:0:0:0:
192,192,85306,1,0,0:0:0:0:
320,192,85493,128,0,85868:0:0:0:0:
64,192,85681,1,0,0:0:0:0:
64,192,85868,1,0,0:0:0:0:
448,192,86056,1,0,0:0:0:0:
64,192,86149,1,0,0:0:0:0:
320,192,86149,1,0,0:0:0:0:
192,192,86243,128,0,86618:0:0:0:0:
64,192,86337,1,0,0:0:0:0:
64,192,86618,1,0,0:0:0:0:
192,192,86806,1,0,0:0:0:0:
320,192,86899,1,0,0:0:0:0:
448,192,86993,128,0,87368:0:0:0:0:
64,192,87181,1,0,0:0:0:0:
64,192,87368,1,0,0:0:0:0:
64,192,87556,1,0,0:0:0:0:
192,192,87649,1,0,0:0:0:0:
448,192,87649,1,0,0:0:0:0:
320,192,87743,128,0,88118:0:0:0:0:
448,192,87837,1,0,0:0:0:0:
448,192,88118,1,0,0:0:0:0:
320,192,88306,1,0,0:0:0:0:
192,192,88399,1,0,0:0:0:0:
64,192,88493,128,0,88868:0:0:0:0:
448,192,88681,1,0,0:0:0:0:
448,192,88868,1,0,0:0:0:0:
192,192,89056,1,0,0:0:0:0:
64,192,89149,1,0,0:0:0:0:
320,192,89149,1,0,0:0:0:0:
448,192,89243,1,0,0:0:0:0:
64,192,89337,1,0,0:0:0:0:
192,192,89431,1,0,0:0:0:0:
64,192,89618,1,0,0:0:0:0:
320,192,89618,1,0,0:0:0:0:
448,192,89805,1,0,0:0:0:0:
320,192,89993,128,0,90368:0:0:0:0:
64,192,90180,1,0,0:0:0:0:
64,192,90368,1,0,0:0:0:0:
64,192,90555,1,0,0:0:0:0:
448,192,90649,1,0,0:0:0:0:
192,192,90649,1,0,0:0:0:0:
320,192,90743,1,0,0:0:0:0:
448,192,90837,1,0,0:0:0:0:
192,192,90930,1,0,0:0:0:0:
64,192,91118,1,0,0:0:0:0:
448,192,91118,1,0,0:0:0:0:
192,192,91305,1,0,0:0:0:0:
64,192,91493,128,0,91680:0:0:0:0:
448,192,91680,1,0,0:0:0:0:
192,192,91774,1,0,0:0:0:0:
448,192,91868,1,0,0:0:0:0:
192,192,92055,1,0,0:0:0:0:
64,192,92118,128,0,92430:0:0:0:0:
448,192,92149,1,0,0:0:0:0:
448,192,92337,1,0,0:0:0:0:
192,192,92524,1,0,0:0:0:0:
64,192,92618,1,0,0:0:0:0:
320,192,92618,1,0,0:0:0:0:
448,192,92805,1,0,0:0:0:0:
320,192,92993,1,0,0:0:0:0:
448,192,93055,128,0,93180:0:0:0:0:
64,192,93180,1,0,0:0:0:0:
320,192,93274,1,0,0:0:0:0:
64,192,93368,1,0,0:0:0:0:
448,192,93462,1,0,0:0:0:0:
192,192,93555,1,0,0:0:0:0:
448,192,93649,1,0,0:0:0:0:
192,192,93743,128,0,93836:0:0:0:0:
320,192,93836,1,0,0:0:0:0:
448,192,93868,1,0,0:0:0:0:
64,192,93930,1,0,0:0:0:0:
320,192,94024,1,0,0:0:0:0:
192,192,94118,1,0,0:0:0:0:
448,192,94211,1,0,0:0:0:0:
64,192,94305,1,0,0:0:0:0:
320,192,94399,1,0,0:0:0:0:
64,192,94493,1,0,0:0:0:0:
320,192,94493,1,0,0:0:0:0:
64,192,94680,1,0,0:0:0:0:
448,192,94680,1,0,0:0:0:0:
64,192,94868,1,0,0:0:0:0:
320,192,94868,1,0,0:0:0:0:
192,192,95055,1,0,0:0:0:0:
448,192,95149,1,0,0:0:0:0:
64,192,95336,128,0,95524:0:0:0:0:
448,192,95524,1,0,0:0:0:0:
192,192,95618,1,0,0:0:0:0:
320,192,95711,1,0,0:0:0:0:
64,192,95805,1,0,0:0:0:0:
448,192,95899,1,0,0:0:0:0:
64,192,95993,128,0,96274:0:0:0:0:
320,192,95993,128,0,96274:0:0:0:0:
192,192,96274,128,0,96555:0:0:0:0:
448,192,96274,128,0,96555:0:0:0:0:
64,192,96555,128,0,97118:0:0:0:0:
320,192,96555,128,0,97118:0:0:0:0:
64,192,97493,1,0,0:0:0:0:
448,192,97493,128,0,98055:0:0:0:0:
448,192,98242,1,0,0:0:0:0:
320,192,98242,1,0,0:0:0:0:
64,192,98242,1,0,0:0:0:0:
192,192,98336,1,0,0:0:0:0:
320,192,98430,1,0,0:0:0:0:
192,192,98524,1,0,0:0:0:0:
64,192,98617,1,0,0:0:0:0:
192,192,98711,1,0,0:0:0:0:
320,192,98805,1,0,0:0:0:0:
192,192,98899,1,0,0:0:0:0:
448,192,98992,1,0,0:0:0:0:
64,192,98992,128,0,99555:0:0:0:0:
64,192,99742,1,0,0:0:0:0:
192,192,99742,1,0,0:0:0:0:
448,192,99742,1,0,0:0:0:0:
320,192,99836,1,0,0:0:0:0:
192,192,99930,1,0,0:0:0:0:
320,192,100024,1,0,0:0:0:0:
448,192,100117,1,0,0:0:0:0:
320,192,100211,1,0,0:0:0:0:
192,192,100305,1,0,0:0:0:0:
320,192,100399,1,0,0:0:0:0:
64,192,100492,1,0,0:0:0:0:
448,192,100492,128,0,101055:0:0:0:0:
448,192,101242,1,0,0:0:0:0:
320,192,101242,1,0,0:0:0:0:
64,192,101242,1,0,0:0:0:0:
192,192,101336,1,0,0:0:0:0:
320,192,101430,1,0,0:0:0:0:
192,192,101523,1,0,0:0:0:0:
64,192,101617,1,0,0:0:0:0:
192,192,101711,1,0,0:0:0:0:
320,192,101805,1,0,0:0:0:0:
192,192,101898,1,0,0:0:0:0:
64,192,101992,1,0,0:0:0:0:
64,192,102180,1,0,0:0:0:0:
320,192,102180,1,0,0:0:0:0:
192,192,102273,1,0,0:0:0:0:
448,192,102273,1,0,0:0:0:0:
64,192,102367,1,0,0:0:0:0:
320,192,102367,1,0,0:0:0:0:
192,192,102555,1,0,0:0:0:0:
448,192,102555,1,0,0:0:0:0:
64,192,102648,1,0,0:0:0:0:
320,192,102648,1,0,0:0:0:0:
192,192,102742,1,0,0:0:0:0:
448,192,102742,1,0,0:0:0:0:
64,192,102930,1,0,0:0:0:0:
320,192,102930,1,0,0:0:0:0:
64,192,103117,1,0,0:0:0:0:
448,192,103117,1,0,0:0:0:0:
192,192,103305,1,0,0:0:0:0:
448,192,103305,1,0,0:0:0:0:
320,192,103492,1,0,0:0:0:0:
448,192,103492,1,0,0:0:0:0:
64,192,103492,128,0,104055:0:0:0:0:
320,192,104055,1,0,0:0:0:0:
64,192,104242,1,0,0:0:0:0:
192,192,104242,1,0,0:0:0:0:
448,192,104242,1,0,0:0:0:0:
320,192,104336,1,0,0:0:0:0:
192,192,104430,1,0,0:0:0:0:
320,192,104523,1,0,0:0:0:0:
448,192,104617,1,0,0:0:0:0:
320,192,104711,1,0,0:0:0:0:
192,192,104805,1,0,0:0:0:0:
320,192,104898,1,0,0:0:0:0:
64,192,104992,1,0,0:0:0:0:
448,192,104992,128,0,105554:0:0:0:0:
320,192,105742,1,0,0:0:0:0:
448,192,105742,1,0,0:0:0:0:
64,192,105742,1,0,0:0:0:0:
192,192,105836,1,0,0:0:0:0:
320,192,105929,1,0,0:0:0:0:
192,192,106023,1,0,0:0:0:0:
64,192,106117,1,0,0:0:0:0:
192,192,106211,1,0,0:0:0:0:
448,192,106304,1,0,0:0:0:0:
320,192,106304,1,0,0:0:0:0:
192,192,106398,1,0,0:0:0:0:
448,192,106492,1,0,0:0:0:0:
64,192,106492,128,0,107054:0:0:0:0:
64,192,107242,1,0,0:0:0:0:
192,192,107242,1,0,0:0:0:0:
448,192,107242,1,0,0:0:0:0:
320,192,107336,1,0,0:0:0:0:
192,192,107429,1,0,0:0:0:0:
320,192,107523,1,0,0:0:0:0:
448,192,107617,1,0,0:0:0:0:
320,192,107711,1,0,0:0:0:0:
192,192,107804,1,0,0:0:0:0:
320,192,107898,1,0,0:0:0:0:
448,192,107992,1,0,0:0:0:0:
192,192,108086,1,0,0:0:0:0:
448,192,108086,1,0,0:0:0:0:
64,192,108179,1,0,0:0:0:0:
320,192,108179,1,0,0:0:0:0:
448,192,108273,1,0,0:0:0:0:
192,192,108273,1,0,0:0:0:0:
64,192,108367,1,0,0:0:0:0:
320,192,108367,1,0,0:0:0:0:
448,192,108461,1,0,0:0:0:0:
192,192,108461,1,0,0:0:0:0:
64,192,108554,1,0,0:0:0:0:
320,192,108554,1,0,0:0:0:0:
448,192,108648,128,0,108836:0:0:0:0:
320,192,108867,128,0,109054:0:0:0:0:
64,192,108929,1,0,0:0:0:0:
64,192,109023,1,0,0:0:0:0:
192,192,109117,1,0,0:0:0:0:
448,192,109117,128,0,109304:0:0:0:0:
64,192,109304,1,0,0:0:0:0:
320,192,109492,1,0,0:0:0:0:
448,192,109492,1,0,0:0:0:0:
192,192,109492,128,0,109867:0:0:0:0:
192,192,110054,1,0,0:0:0:0:
320,192,110148,1,0,0:0:0:0:
448,192,110242,1,0,0:0:0:0:
64,192,110429,1,0,0:0:0:0:
448,192,110617,1,0,0:0:0:0:
192,192,110804,1,0,0:0:0:0:
64,192,110992,1,0,0:0:0:0:
320,192,110992,128,0,111367:0:0:0:0:
64,192,111367,1,0,0:0:0:0:
320,192,111554,1,0,0:0:0:0:
448,192,111554,1,0,0:0:0:0:
192,192,111648,1,0,0:0:0:0:
64,192,111742,1,0,0:0:0:0:
192,192,111929,1,0,0:0:0:0:
448,192,111929,1,0,0:0:0:0:
320,192,112117,1,0,0:0:0:0:
448,192,112117,1,0,0:0:0:0:
64,192,112117,1,0,0:0:0:0:
320,192,112304,1,0,0:0:0:0:
64,192,112492,128,0,112679:0:0:0:0:
320,192,112679,1,0,0:0:0:0:
192,192,112773,1,0,0:0:0:0:
448,192,112867,128,0,113054:0:0:0:0:
192,192,113054,1,0,0:0:0:0:
320,192,113148,1,0,0:0:0:0:
64,192,113242,128,0,113429:0:0:0:0:
320,192,113429,1,0,0:0:0:0:
192,192,113523,1,0,0:0:0:0:
448,192,113616,1,0,0:0:0:0:
192,192,113710,1,0,0:0:0:0:
448,192,113804,1,0,0:0:0:0:
64,192,113898,1,0,0:0:0:0:
320,192,113991,128,0,114179:0:0:0:0:
64,192,114179,1,0,0:0:0:0:
448,192,114273,1,0,0:0:0:0:
192,192,114366,128,0,114554:0:0:0:0:
448,192,114554,1,0,0:0:0:0:
64,192,114648,1,0,0:0:0:0:
448,192,114741,1,0,0:0:0:0:
192,192,114835,1,0,0:0:0:0:
320,192,114929,1,0,0:0:0:0:
64,192,115023,1,0,0:0:0:0:
320,192,115116,1,0,0:0:0:0:
64,192,115210,1,0,0:0:0:0:
448,192,115304,1,0,0:0:0:0:
192,192,115398,1,0,0:0:0:0:
320,192,115491,128,0,115866:0:0:0:0:
64,192,115866,1,0,0:0:0:0:
320,192,116054,1,0,0:0:0:0:
192,192,116148,1,0,0:0:0:0:
64,192,116241,1,0,0:0:0:0:
448,192,116241,1,0,0:0:0:0:
320,192,116429,1,0,0:0:0:0:
448,192,116616,1,0,0:0:0:0:
192,192,116616,1,0,0:0:0:0:
320,192,116804,1,0,0:0:0:0:
192,192,116991,128,0,117366:0:0:0:0:
448,192,117366,1,0,0:0:0:0:
192,192,117554,1,0,0:0:0:0:
320,192,117647,1,0,0:0:0:0:
448,192,117741,1,0,0:0:0:0:
64,192,117741,1,0,0:0:0:0:
192,192,117929,1,0,0:0:0:0:
64,192,118116,1,0,0:0:0:0:
320,192,118116,1,0,0:0:0:0:
192,192,118304,1,0,0:0:0:0:
448,192,118491,128,0,118679:0:0:0:0:
192,192,118679,1,0,0:0:0:0:
320,192,118772,1,0,0:0:0:0:
64,192,118866,128,0,119054:0:0:0:0:
320,192,119054,1,0,0:0:0:0:
192,192,119147,1,0,0:0:0:0:
448,192,119241,128,0,119429:0:0:0:0:
192,192,119429,1,0,0:0:0:0:
320,192,119522,1,0,0:0:0:0:
64,192,119616,1,0,0:0:0:0:
320,192,119710,1,0,0:0:0:0:
64,192,119804,1,0,0:0:0:0:
448,192,119897,1,0,0:0:0:0:
192,192,119991,128,0,120179:0:0:0:0:
448,192,120179,1,0,0:0:0:0:
64,192,120272,1,0,0:0:0:0:
320,192,120366,128,0,120554:0:0:0:0:
64,192,120554,1,0,0:0:0:0:
448,192,120647,1,0,0:0:0:0:
64,192,120741,1,0,0:0:0:0:
320,192,120835,1,0,0:0:0:0:
192,192,120929,1,0,0:0:0:0:
448,192,121022,1,0,0:0:0:0:
192,192,121116,1,0,0:0:0:0:
448,192,121210,1,0,0:0:0:0:
64,192,121304,1,0,0:0:0:0:
320,192,121397,1,0,0:0:0:0:
448,192,121491,1,0,0:0:0:0:
192,192,121491,128,0,121866:0:0:0:0:
320,192,121866,1,0,0:0:0:0:
192,192,122053,1,0,0:0:0:0:
320,192,122147,1,0,0:0:0:0:
448,192,122241,1,0,0:0:0:0:
64,192,122241,1,0,0:0:0:0:
192,192,122428,1,0,0:0:0:0:
64,192,122616,1,0,0:0:0:0:
448,192,122616,1,0,0:0:0:0:
192,192,122803,1,0,0:0:0:0:
320,192,122991,128,0,123366:0:0:0:0:
64,192,122991,1,0,0:0:0:0:
192,192,123366,1,0,0:0:0:0:
320,192,123553,1,0,0:0:0:0:
192,192,123647,1,0,0:0:0:0:
64,192,123741,1,0,0:0:0:0:
448,192,123741,1,0,0:0:0:0:
320,192,123928,1,0,0:0:0:0:
64,192,124116,1,0,0:0:0:0:
448,192,124116,1,0,0:0:0:0:
320,192,124303,1,0,0:0:0:0:
64,192,124491,128,0,124678:0:0:0:0:
320,192,124678,1,0,0:0:0:0:
192,192,124772,1,0,0:0:0:0:
448,192,124866,128,0,125053:0:0:0:0:
192,192,125053,1,0,0:0:0:0:
320,192,125147,1,0,0:0:0:0:
64,192,125241,128,0,125428:0:0:0:0:
320,192,125428,1,0,0:0:0:0:
192,192,125522,1,0,0:0:0:0:
448,192,125616,1,0,0:0:0:0:
192,192,125709,1,0,0:0:0:0:
448,192,125803,1,0,0:0:0:0:
64,192,125897,1,0,0:0:0:0:
320,192,125991,128,0,126178:0:0:0:0:
64,192,126178,1,0,0:0:0:0:
448,192,126272,1,0,0:0:0:0:
192,192,126366,128,0,126553:0:0:0:0:
448,192,126553,1,0,0:0:0:0:
64,192,126647,1,0,0:0:0:0:
448,192,126741,1,0,0:0:0:0:
192,192,126834,1,0,0:0:0:0:
320,192,126928,1,0,0:0:0:0:
64,192,127022,1,0,0:0:0:0:
320,192,127116,1,0,0:0:0:0:
64,192,127209,1,0,0:0:0:0:
448,192,127303,1,0,0:0:0:0:
192,192,127397,1,0,0:0:0:0:
64,192,127491,1,0,0:0:0:0:
320,192,127491,128,0,127866:0:0:0:0:
192,192,127866,1,0,0:0:0:0:
320,192,128053,1,0,0:0:0:0:
192,192,128147,1,0,0:0:0:0:
64,192,128241,1,0,0:0:0:0:
448,192,128241,1,0,0:0:0:0:
320,192,128428,1,0,0:0:0:0:
448,192,128616,1,0,0:0:0:0:
64,192,128616,1,0,0:0:0:0:
320,192,128803,1,0,0:0:0:0:
192,192,128991,128,0,129366:0:0:0:0:
448,192,128991,1,0,0:0:0:0:
192,192,129553,1,0,0:0:0:0:
320,192,129647,1,0,0:0:0:0:
448,192,129740,1,0,0:0:0:0:
64,192,129740,1,0,0:0:0:0:
192,192,129928,1,0,0:0:0:0:
64,192,130115,1,0,0:0:0:0:
448,192,130115,1,0,0:0:0:0:
192,192,130303,1,0,0:0:0:0:
448,192,130490,128,0,130678:0:0:0:0:
192,192,130678,1,0,0:0:0:0:
320,192,130772,1,0,0:0:0:0:
64,192,130865,128,0,131053:0:0:0:0:
320,192,131053,1,0,0:0:0:0:
192,192,131147,1,0,0:0:0:0:
448,192,131240,128,0,131428:0:0:0:0:
192,192,131428,1,0,0:0:0:0:
320,192,131522,1,0,0:0:0:0:
64,192,131615,1,0,0:0:0:0:
320,192,131709,1,0,0:0:0:0:
64,192,131803,1,0,0:0:0:0:
448,192,131897,1,0,0:0:0:0:
192,192,131990,128,0,132178:0:0:0:0:
448,192,132178,1,0,0:0:0:0:
64,192,132272,1,0,0:0:0:0:
320,192,132365,1,0,0:0:0:0:
192,192,132459,1,0,0:0:0:0:
448,192,132553,1,0,0:0:0:0:
192,192,132647,1,0,0:0:0:0:
64,192,132740,1,0,0:0:0:0:
448,192,132740,128,0,132865:0:0:0:0:
64,192,132928,1,0,0:0:0:0:
320,192,132928,1,0,0:0:0:0:
192,192,132928,1,0,0:0:0:0:
320,192,133022,1,0,0:0:0:0:
192,192,133115,1,0,0:0:0:0:
64,192,133115,1,0,0:0:0:0:
448,192,133115,1,0,0:0:0:0:
64,192,133490,1,0,0:0:0:0:
320,192,133490,128,0,134053:0:0:0:0:
64,192,133771,1,0,0:0:0:0:
64,192,134053,1,0,0:0:0:0:
448,192,134053,1,0,0:0:0:0:
448,192,134240,128,0,134803:0:0:0:0:
64,192,134334,1,0,0:0:0:0:
64,192,134615,1,0,0:0:0:0:
192,192,134709,1,0,0:0:0:0:
64,192,134803,1,0,0:0:0:0:
192,192,134896,1,0,0:0:0:0:
64,192,134990,1,0,0:0:0:0:
320,192,134990,128,0,135490:0:0:0:0:
64,192,135271,1,0,0:0:0:0:
192,192,135490,128,0,135678:0:0:0:0:
64,192,135553,1,0,0:0:0:0:
448,192,135678,128,0,136303:0:0:0:0:
320,192,135678,1,0,0:0:0:0:
64,192,135834,1,0,0:0:0:0:
64,192,136115,1,0,0:0:0:0:
192,192,136209,1,0,0:0:0:0:
64,192,136303,1,0,0:0:0:0:
192,192,136396,1,0,0:0:0:0:
64,192,136490,1,0,0:0:0:0:
448,192,136490,128,0,137053:0:0:0:0:
64,192,136771,1,0,0:0:0:0:
64,192,137053,1,0,0:0:0:0:
320,192,137053,1,0,0:0:0:0:
192,192,137053,128,0,137240:0:0:0:0:
320,192,137240,128,0,137802:0:0:0:0:
64,192,137334,1,0,0:0:0:0:
64,192,137615,1,0,0:0:0:0:
192,192,137709,1,0,0:0:0:0:
64,192,137802,1,0,0:0:0:0:
192,192,137896,1,0,0:0:0:0:
64,192,137990,1,0,0:0:0:0:
448,192,137990,128,0,138552:0:0:0:0:
64,192,138271,1,0,0:0:0:0:
64,192,138552,1,0,0:0:0:0:
320,192,138552,128,0,138740:0:0:0:0:
448,192,138740,128,0,139302:0:0:0:0:
64,192,138834,1,0,0:0:0:0:
64,192,139021,1,0,0:0:0:0:
192,192,139115,1,0,0:0:0:0:
320,192,139209,1,0,0:0:0:0:
192,192,139302,1,0,0:0:0:0:
64,192,139396,1,0,0:0:0:0:
320,192,139490,1,0,0:0:0:0:
448,192,139490,1,0,0:0:0:0:
192,192,139490,128,0,140052:0:0:0:0:
448,192,140052,1,0,0:0:0:0:
64,192,140052,1,0,0:0:0:0:
64,192,140240,128,0,140802:0:0:0:0:
448,192,140334,1,0,0:0:0:0:
448,192,140615,1,0,0:0:0:0:
320,192,140709,1,0,0:0:0:0:
448,192,140802,1,0,0:0:0:0:
320,192,140896,1,0,0:0:0:0:
448,192,140990,1,0,0:0:0:0:
192,192,140990,128,0,141552:0:0:0:0:
448,192,141271,1,0,0:0:0:0:
320,192,141552,128,0,141740:0:0:0:0:
448,192,141552,1,0,0:0:0:0:
192,192,141740,1,0,0:0:0:0:
64,192,141740,128,0,142302:0:0:0:0:
448,192,141833,1,0,0:0:0:0:
448,192,142115,1,0,0:0:0:0:
320,192,142208,1,0,0:0:0:0:
448,192,142302,1,0,0:0:0:0:
320,192,142396,1,0,0:0:0:0:
448,192,142490,1,0,0:0:0:0:
64,192,142490,128,0,143052:0:0:0:0:
448,192,142771,1,0,0:0:0:0:
448,192,143052,1,0,0:0:0:0:
192,192,143052,1,0,0:0:0:0:
320,192,143052,128,0,143240:0:0:0:0:
192,192,143240,128,0,143802:0:0:0:0:
448,192,143333,1,0,0:0:0:0:
448,192,143615,1,0,0:0:0:0:
320,192,143708,1,0,0:0:0:0:
448,192,143802,1,0,0:0:0:0:
320,192,143896,1,0,0:0:0:0:
64,192,143990,128,0,144552:0:0:0:0:
448,192,143990,1,0,0:0:0:0:
448,192,144083,1,0,0:0:0:0:
448,192,144365,1,0,0:0:0:0:
192,192,144552,128,0,144740:0:0:0:0:
320,192,144552,1,0,0:0:0:0:
64,192,144740,128,0,145302:0:0:0:0:
320,192,144740,1,0,0:0:0:0:
448,192,145115,1,0,0:0:0:0:
448,192,145490,128,0,148489:0:0:0:0:
192,192,145490,1,0,0:0:0:0:
