osu file format v12

[General]
AudioFilename: m2u.mp3
AudioLeadIn: 0
PreviewTime: 81748
Countdown: 0
SampleSet: Normal
StackLeniency: 0.6
Mode: 0
LetterboxInBreaks: 0
WidescreenStoryboard: 1

[Editor]
Bookmarks: 14781,29550,30014,30360,30590,30937,31283,31629,31975,32321,32667,33014,33244,33706,34052,34283,34629,34975,35437,35783,36014,36360,36706,36937,37398,37744,37975,38321,38667,39014,39360,39706,40052,40398,40629,41090,41437,41667,42014,42360,42821,43167,43398,43860,44319,59088,70167,81242,96012,110781,125550,139858
DistanceSpacing: 1.4
BeatDivisor: 4
GridSize: 16

[Metadata]
Title:Hades in the Heaven
TitleUnicode:Hades in the Heaven
Artist:Gentle Stick X M2U
ArtistUnicode:Gentle Stick X M2U
Creator:AngelHoney
Version:Normal
Source:O2jam U
Tags:SOLENA DJPop OnosakiHito K i A i KIAI Lan wings SUBSTAC9
BeatmapID:305080
BeatmapSetID:114488

[Difficulty]
HPDrainRate:4
CircleSize:3
OverallDifficulty:4
ApproachRate:5
SliderMultiplier:1.1
SliderTickRate:1

[Events]
//Background and Video events
0,0,"BG.jpg",0,0
//Break Periods
//Storyboard Layer 0 (Background)
//Storyboard Layer 1 (Fail)
//Storyboard Layer 2 (Pass)
//Storyboard Layer 3 (Foreground)
//Storyboard Sound Samples
//Background Colour Transformations
3,100,0,0,0

[TimingPoints]
518,461.538461538462,4,2,1,40,1,0
15054,-100,4,1,1,50,0,0
28671,-100,4,1,1,60,0,0
29133,-100,4,1,1,40,0,0
29594,-100,4,1,1,60,0,0
30056,-100,4,1,1,50,0,0
44594,-133.333333333333,4,2,1,40,0,0
59133,-100,4,1,1,45,0,0
59364,-100,4,1,1,50,0,0
59594,-100,4,1,1,55,0,0
66287,-100,4,1,1,70,0,0
67325,-100,4,1,1,60,0,0
68825,-100,4,1,1,65,0,0
70671,-100,4,1,1,70,0,0
73787,-100,4,1,1,60,0,0
74248,-100,4,1,1,50,0,0
76210,-100,4,1,1,60,0,0
78056,-100,4,1,1,70,0,0
79902,-100,4,1,1,80,0,0
81287,-200,4,1,1,70,0,1
81633,-66.6666666666667,4,1,1,70,0,0
83479,-57.1428571428571,4,1,1,70,0,0
85325,-66.6666666666667,4,1,1,70,0,0
87171,-57.1428571428571,4,1,1,70,0,0
89018,-66.6666666666667,4,1,1,70,0,0
90864,-57.1428571428571,4,1,1,70,0,0
92710,-66.6666666666667,4,1,1,70,0,0
94556,-57.1428571428571,4,1,1,70,0,0
96402,-66.6666666666667,4,1,1,70,0,0
98248,-57.1428571428571,4,1,1,70,0,0
100094,-66.6666666666667,4,1,1,70,0,0
101941,-57.1428571428571,4,1,1,70,0,0
103787,-66.6666666666667,4,1,1,70,0,0
105633,-57.1428571428571,4,1,1,70,0,0
107479,-66.6666666666667,4,1,1,70,0,0
109325,-57.1428571428571,4,1,1,70,0,0
111056,-100,4,1,1,70,0,0
111402,-100,4,1,1,45,0,0
118671,-100,4,1,1,50,0,0

[Colours]
Combo1 : 245,193,135
Combo2 : 130,251,179
Combo3 : 137,204,254
Combo4 : 244,253,145
Combo5 : 239,69,69

[HitObjects]
256,192,13441,12,8,14825,0:2:0:0:
32,288,15287,6,0,P|96:288|160:256,1,110,4|2,0:0|0:3,0:0:0:0:
224,304,15979,1,0,0:0:0:0:
224,304,16210,2,0,L|240:176,1,110,0|2,0:0|0:3,0:0:0:0:
368,80,17133,6,0,L|352:176,1,55
448,160,17594,2,0,L|432:256,1,55,2|0,0:3|0:0,0:0:0:0:
352,256,18056,2,0,P|327:311|256:368,1,110,0|2,0:0|0:3,0:0:0:0:
144,288,18979,6,0,P|96:304|16:304,1,110,0|2,0:0|0:3,0:0:0:0:
16,224,19671,1,0,0:0:0:0:
16,224,19902,2,0,P|53:176|64:96,1,110,0|2,0:0|0:3,0:0:0:0:
224,48,20825,6,0,L|288:80,1,55
256,160,21287,2,0,L|320:192,1,55,2|0,0:3|0:0,0:0:0:0:
384,144,21748,2,0,P|448:176|480:240,1,110,0|2,0:0|0:3,0:0:0:0:
368,336,22671,5,0,0:0:0:0:
208,288,23133,1,2,0:3:0:0:
128,320,23364,1,0,0:0:0:0:
48,288,23594,2,0,P|16:240|16:144,1,110,0|2,0:0|0:3,0:0:0:0:
128,64,24518,6,0,L|144:128,1,55
224,96,24979,2,0,L|240:160,1,55,2|0,0:3|0:0,0:0:0:0:
320,128,25441,2,0,L|352:256,1,110,0|2,0:0|0:3,0:0:0:0:
480,336,26364,5,0,0:0:0:0:
320,352,26825,1,2,0:3:0:0:
240,320,27056,1,0,0:0:0:0:
160,352,27287,2,0,P|96:368|32:336,1,110,0|2,0:0|0:3,0:0:0:0:
16,192,28210,6,0,L|80:176,1,55
80,96,28671,2,0,L|144:80,1,55,2|0,0:3|0:0,0:0:0:0:
208,128,29133,2,0,L|336:96,1,110,0|2,0:0|0:3,0:0:0:0:
480,48,30056,5,6,0:2:0:0:
448,176,30518,2,0,P|454:239|496:304,1,110,2|0,0:2|0:0,0:0:0:0:
336,336,31441,1,2,0:2:0:0:
192,288,31902,6,0,L|208:224,1,55,0|2,0:0|0:2,0:0:0:0:
128,208,32364,2,0,L|144:144,1,55,0|2,0:0|0:2,0:0:0:0:
64,128,32825,2,0,L|96:0,1,110,2|2,0:2|0:2,0:0:0:0:
256,16,33748,5,2,0:2:0:0:
336,144,34210,1,2,0:2:0:0:
336,144,34441,1,2,0:2:0:0:
336,144,34671,2,0,P|400:144|464:128,1,110,0|2,0:0|0:2,0:0:0:0:
384,288,35594,6,0,L|304:320,1,55,0|2,0:0|0:2,0:0:0:0:
256,272,36056,2,0,L|176:304,1,55,0|2,0:0|0:2,0:0:0:0:
128,256,36518,2,0,P|144:192|128:128,1,110,2|2,0:2|0:2,0:0:0:0:
32,32,37441,5,2,0:2:0:0:
192,64,37902,1,2,0:2:0:0:
192,64,38133,1,0,0:0:0:0:
192,64,38364,2,0,P|256:64|336:32,1,110,0|2,0:0|0:2,0:0:0:0:
480,96,39287,6,0,P|448:144|432:224,1,110,0|0,0:0|0:0,0:0:0:0:
464,272,39979,1,2,0:2:0:0:
464,272,40210,2,0,P|400:288|336:336,1,110,2|0,0:2|0:0,0:0:0:0:
192,224,41133,6,0,L|160:304,1,55,2|0,0:2|0:0,0:0:0:0:
96,320,41594,2,0,P|69:267|64:192,2,110,2|0|2,0:2|0:0|0:2,0:0:0:0:
256,352,42979,5,0,0:0:0:0:
368,240,43441,1,2,0:2:0:0:
368,240,43671,1,2,0:2:0:0:
368,240,43902,2,0,L|528:224,1,110,2|0,0:2|0:0,0:0:0:0:
496,80,44825,6,0,L|144:112,1,330.000012588501,4|0,0:0|0:0,0:0:0:0:
167,109,47594,1,0,0:0:0:0:
64,272,48518,6,0,L|416:240,1,330.000012588501
392,242,51287,1,0,0:0:0:0:
496,80,52210,6,0,P|352:128|160:96,1,330.000012588501
16,192,54979,1,0,0:0:0:0:
144,304,55902,2,0,P|208:288|288:304,2,123.750004720688
448,160,58671,6,0,P|368:176|272:144,1,165.000006294251,0|4,0:0|0:2,0:0:0:0:
176,64,60056,1,0,0:0:0:0:
80,176,60518,1,0,0:0:0:0:
192,256,60979,1,0,0:0:0:0:
336,288,61441,6,0,P|224:288|144:368,1,220
32,256,62825,1,0,0:0:0:0:
80,96,63287,2,0,P|176:176|288:144,1,220
400,80,64671,1,0,0:0:0:0:
496,192,65133,1,0,0:0:0:0:
224,336,66056,6,0,P|256:224|208:128,1,220
80,64,67441,1,0,0:0:0:0:
0,192,67902,1,0,0:0:0:0:
128,272,68364,1,0,0:0:0:0:
256,192,68825,6,0,P|308:212|384:208,1,110
432,96,69748,2,0,P|380:76|304:80,1,110
192,96,70671,2,0,P|144:224|304:304,1,330
256,192,72518,12,4,81287,0:0:0:0:
48,112,81748,6,0,L|240:96,1,165.000006294251
288,240,82671,2,0,L|112:256,1,165.000006294251
48,112,83594,6,0,L|240:96,1,192.500001835823
288,240,84517,2,0,L|96:256,1,192.500001835823
176,96,85441,6,0,L|192:272,1,165.000006294251
368,288,86364,2,0,L|352:112,1,165.000006294251
176,96,87287,5,0,0:0:0:0:
176,96,87748,1,2,0:2:0:0:
144,192,87979,1,2,0:2:0:0:
112,288,88210,2,0,P|208:336|320:320,1,192.500001835823,2|0,0:2|0:0,0:0:0:0:
448,240,89133,6,0,L|432:48,1,165.000006294251
272,48,90056,2,0,L|288:240,1,165.000006294251
128,288,90979,6,0,P|144:176|96:96,1,192.500001835823
320,160,91902,2,0,P|304:272|352:352,1,192.500001835823
480,240,92825,6,0,L|272:224,1,165.000006294251
208,96,93748,2,0,L|416:112,1,165.000006294251
192,224,94671,5,0,0:0:0:0:
192,224,95133,1,2,0:2:0:0:
128,304,95364,1,2,0:2:0:0:
208,368,95594,2,0,P|307:378|416:336,1,192.500001835823,2|0,0:2|0:0,0:0:0:0:
480,192,96518,6,0,L|464:16,1,165.000006294251
320,96,97441,2,0,P|256:80|192:32,2,123.750004720688,2|2|2,0:2|0:2|0:2,0:0:0:0:
368,176,98364,6,0,P|288:240|176:240,1,192.500001835823
16,304,99287,2,0,P|0:240|32:144,2,144.375001376867,2|2|2,0:2|0:2|0:2,0:0:0:0:
96,352,100210,6,0,P|176:320|288:336,1,165.000006294251
416,352,101133,2,0,L|448:224,2,123.750004720688,2|2|2,0:2|0:2|0:2,0:0:0:0:
336,304,102056,5,0,0:0:0:0:
336,304,102518,1,2,0:2:0:0:
368,224,102748,1,2,0:2:0:0:
400,144,102979,2,0,P|432:80|496:32,2,144.375001376867,2|2|2,0:2|0:2|0:2,0:0:0:0:
320,96,103902,5,0,0:0:0:0:
176,48,104364,1,0,0:0:0:0:
48,144,104825,2,0,P|10:200|0:272,2,123.750004720688,2|2|2,0:2|0:2|0:2,0:0:0:0:
128,192,105748,5,0,0:0:0:0:
208,352,106210,1,0,0:0:0:0:
336,224,106671,2,0,P|409:198|464:144,2,144.375001376867,2|2|2,0:2|0:2|0:2,0:0:0:0:
240,224,107594,5,0,0:0:0:0:
240,224,108056,1,0,0:0:0:0:
240,224,108518,2,0,P|242:155|224:64,2,123.750004720688,2|2|2,0:2|0:2|0:2,0:0:0:0:
176,304,109441,6,0,P|96:336|32:320,1,144.375001376867,0|2,0:0|0:2,0:0:0:0:
16,176,110133,2,0,P|29:102|64:16,2,144.375001376867,2|2|0,0:2|0:2|0:0,0:0:0:0:
107,155,111056,1,0,0:0:0:0:
192,144,111287,6,0,L|304:160,1,110,0|2,0:0|0:3,0:0:0:0:
448,112,112210,2,0,L|432:224,1,110,0|2,0:0|0:3,0:0:0:0:
304,288,113133,5,0,0:0:0:0:
304,288,113594,1,2,0:3:0:0:
224,304,113825,1,0,0:0:0:0:
144,320,114056,2,0,P|92:317|32:288,1,110,0|2,0:0|0:3,0:0:0:0:
63,121,114979,6,0,P|82:174|127:217,1,110,0|2,0:0|0:3,0:0:0:0:
192,48,115902,2,0,P|214:101|208:192,1,110,0|2,0:0|0:3,0:0:0:0:
336,240,116825,5,0,0:0:0:0:
400,112,117287,1,2,0:3:0:0:
400,112,117518,1,0,0:0:0:0:
400,112,117748,2,0,L|544:96,1,110,0|2,0:0|0:3,0:0:0:0:
480,256,118671,5,0,0:0:0:0:
352,320,119133,1,2,0:3:0:0:
272,304,119364,1,0,0:0:0:0:
192,288,119594,2,0,P|132:284|48:320,1,110,0|2,0:0|0:3,0:0:0:0:
16,176,120518,6,0,L|48:96,1,55
128,112,120979,2,0,L|160:32,1,55,2|0,0:3|0:0,0:0:0:0:
240,80,121441,2,0,P|288:48|352:32,1,110,0|2,0:0|0:3,0:0:0:0:
496,128,122364,5,0,0:0:0:0:
384,240,122825,1,2,0:3:0:0:
384,240,123056,1,0,0:0:0:0:
384,240,123287,2,0,P|336:256|272:256,1,110,0|2,0:0|0:3,0:0:0:0:
128,160,124210,6,0,L|128:240,1,55
48,224,124671,2,0,L|48:320,1,55,2|0,0:3|0:0,0:0:0:0:
112,336,125133,2,0,P|160:352|240:352,1,110,0|0,0:0|0:0,0:0:0:0:
400,304,126056,5,4,0:0:0:0:
