osu file format v12

[General]
AudioFilename: m2u.mp3
AudioLeadIn: 0
PreviewTime: 81748
Countdown: 0
SampleSet: Normal
StackLeniency: 0.6
Mode: 0
LetterboxInBreaks: 0
WidescreenStoryboard: 0

[Editor]
Bookmarks: 14781,29550,30014,30360,30590,30937,31283,31629,31975,32321,32667,33014,33244,33706,34052,34283,34629,34975,35437,35783,36014,36360,36706,36937,37398,37744,37975,38321,38667,39014,39360,39706,40052,40398,40629,41090,41437,41667,42014,42360,42821,43167,43398,43860,44319,59088,70167,81242,96012,110781,113479,125550,139858
DistanceSpacing: 0.9
BeatDivisor: 4
GridSize: 16

[Metadata]
Title:Hades in the Heaven
TitleUnicode:Hades in the Heaven
Artist:Gentle Stick X M2U
ArtistUnicode:Gentle Stick X M2U
Creator:AngelHoney
Version:Hard
Source:O2jam U
Tags:SOLENA DJPop OnosakiHito K i A i KIAI Lan wings SUBSTAC9
BeatmapID:298493
BeatmapSetID:114488

[Difficulty]
HPDrainRate:6
CircleSize:3
OverallDifficulty:6
ApproachRate:8
SliderMultiplier:1.4
SliderTickRate:1

[Events]
//Background and Video events
0,0,"BG.jpg",0,0
//Break Periods
//Storyboard Layer 0 (Background)
//Storyboard Layer 1 (Fail)
//Storyboard Layer 2 (Pass)
//Storyboard Layer 3 (Foreground)
//Storyboard Sound Samples
//Background Colour Transformations
3,100,0,0,0

[TimingPoints]
518,461.538461538462,4,2,1,40,1,0
15054,-100,4,1,1,50,0,0
28671,-100,4,1,1,60,0,0
29133,-100,4,1,1,40,0,0
29594,-100,4,1,1,60,0,0
30056,-100,4,1,1,50,0,0
44594,-133.333333333333,4,2,1,30,0,0
59133,-100,4,1,1,45,0,0
59364,-100,4,1,1,50,0,0
59594,-100,4,1,1,55,0,0
66287,-100,4,1,1,70,0,0
67325,-100,4,1,1,60,0,0
68825,-100,4,1,1,65,0,0
70671,-100,4,1,1,70,0,0
73787,-100,4,1,1,60,0,0
74248,-100,4,1,1,50,0,0
76210,-100,4,1,1,60,0,0
78056,-100,4,1,1,70,0,0
79902,-100,4,1,1,80,0,0
81287,-200,4,1,1,70,0,1
81633,-66.6666666666667,4,1,1,70,0,0
83479,-50,4,1,1,70,0,0
85325,-66.6666666666667,4,1,1,70,0,0
87171,-50,4,1,1,70,0,0
89018,-66.6666666666667,4,1,1,70,0,0
90864,-50,4,1,1,70,0,0
92710,-66.6666666666667,4,1,1,70,0,0
94556,-50,4,1,1,70,0,0
96402,-66.6666666666667,4,1,1,70,0,0
98248,-50,4,1,1,70,0,0
100094,-66.6666666666667,4,1,1,70,0,0
101941,-50,4,1,1,70,0,0
103787,-66.6666666666667,4,1,1,70,0,0
105633,-50,4,1,1,70,0,0
107479,-66.6666666666667,4,1,1,70,0,0
109325,-50,4,1,1,70,0,0
111402,-100,4,1,1,45,0,0
118671,-100,4,1,1,50,0,0

[Colours]
Combo1 : 245,193,135
Combo2 : 130,251,179
Combo3 : 137,204,254
Combo4 : 244,253,145
Combo5 : 239,69,69

[HitObjects]
256,192,13441,12,8,14825,0:0:0:0:
80,64,15287,6,0,L|176:80,1,70,4|0,0:0|0:0,0:0:0:0:
288,112,15748,1,2,3:0:0:0:
288,112,15864,1,0,0:0:0:0:
288,112,15979,1,0,0:0:0:0:
288,112,16094,1,0,0:0:0:0:
288,112,16210,2,0,L|400:128,1,105
418,131,16671,1,2,3:0:0:0:
496,240,16902,2,0,L|480:272,1,35
480,271,17133,6,0,L|352:288,1,105
352,304,17594,1,2,3:0:0:0:
324,312,17710,1,0,0:0:0:0:
292,320,17825,1,0,0:0:0:0:
264,328,17941,1,0,0:0:0:0:
236,336,18056,2,0,L|140:320,1,70
64,224,18518,2,0,L|48:304,1,70,2|0,3:0|0:0,0:0:0:0:
16,112,18979,6,0,L|96:96,1,70
224,64,19441,1,2,3:0:0:0:
224,64,19556,1,0,0:0:0:0:
224,64,19671,1,0,0:0:0:0:
224,64,19787,1,0,0:0:0:0:
224,64,19902,2,0,L|208:160,1,70
288,240,20364,1,2,3:0:0:0:
352,112,20594,2,0,L|400:144,1,35
400,144,20825,5,0,0:0:0:0:
416,160,20941,1,0,0:0:0:0:
428,180,21056,1,0,0:0:0:0:
432,204,21171,1,0,0:0:0:0:
432,232,21287,2,0,L|400:320,1,70,2|0,3:0|0:0,0:0:0:0:
160,256,21748,2,0,P|224:256|288:288,1,105
272,288,22210,2,0,L|256:384,1,70,2|0,3:0|0:0,0:0:0:0:
48,320,22671,6,0,L|32:224,1,70
104,132,23133,1,2,3:0:0:0:
88,108,23248,1,0,0:0:0:0:
84,80,23364,1,0,0:0:0:0:
92,52,23479,1,0,0:0:0:0:
108,32,23594,2,0,L|188:48,1,70
320,32,24056,2,0,L|304:112,1,70,2|0,3:0|0:0,0:0:0:0:
256,224,24518,5,0,0:0:0:0:
272,248,24633,1,0,0:0:0:0:
296,264,24748,1,0,0:0:0:0:
324,272,24864,1,0,0:0:0:0:
356,276,24979,2,0,L|436:240,1,70,2|0,3:0|0:0,0:0:0:0:
480,80,25441,2,0,L|376:124,1,105
352,128,25902,2,0,P|311:126|272:112,1,70,2|0,3:0|0:0,0:0:0:0:
144,48,26364,6,0,P|112:128|128:176,1,140,0|2,0:0|3:0,0:0:0:0:
16,304,27056,1,0,0:0:0:0:
16,304,27171,1,0,0:0:0:0:
16,304,27287,2,0,L|48:224,1,70
160,288,27748,2,0,P|215:268|286:277,1,105,2|0,3:0|0:0,0:0:0:0:
288,288,28210,6,0,L|368:256,1,70
480,224,28671,2,0,L|464:304,1,70,2|0,3:0|0:0,0:0:0:0:
400,96,29133,2,0,L|384:176,1,70
272,32,29594,2,0,L|288:112,1,70,2|0,3:0|0:0,0:0:0:0:
144,80,30056,6,0,P|160:144|144:192,1,105,4|0,0:0|0:0,0:0:0:0:
128,208,30518,1,2,0:2:0:0:
20,292,30748,1,0,0:0:0:0:
36,320,30864,1,2,0:2:0:0:
64,336,30979,1,0,0:0:0:0:
96,344,31094,1,2,0:2:0:0:
128,340,31210,1,0,0:0:0:0:
272,352,31441,2,0,L|256:240,1,105,2|2,0:2|0:2,0:0:0:0:
272,224,31902,6,0,L|349:247,1,70,0|2,0:0|0:2,0:0:0:0:
464,192,32364,1,0,0:0:0:0:
464,192,32479,2,0,L|432:64,1,105,2|2,0:2|0:2,0:0:0:0:
304,48,33056,1,0,0:0:0:0:
276,64,33171,1,2,0:2:0:0:
244,68,33287,2,0,P|204:64|172:52,1,70,0|2,0:0|0:2,0:0:0:0:
32,192,33748,6,0,P|96:176|160:192,1,105,2|0,0:2|0:0,0:0:0:0:
160,176,34210,2,0,L|128:288,1,105,2|2,0:2|0:2,0:0:0:0:
124,308,34671,1,0,0:0:0:0:
116,336,34787,1,2,0:2:0:0:
400,336,35133,2,0,L|368:240,1,70,2|0,0:2|0:0,0:0:0:0:
368,240,35479,1,2,0:2:0:0:
384,208,35594,6,0,P|384:128|368:96,1,105,0|2,0:0|0:2,0:0:0:0:
357,82,36056,1,0,0:0:0:0:
208,176,36287,2,0,L|288:160,1,70,0|2,0:0|0:2,0:0:0:0:
128,80,36748,1,0,0:0:0:0:
100,96,36864,1,2,0:2:0:0:
72,112,36979,2,0,L|48:200,1,70,0|2,0:0|0:2,0:0:0:0:
160,256,37441,6,0,L|80:288,1,70,2|0,0:2|0:0,0:0:0:0:
272,320,37902,1,2,0:2:0:0:
416,304,38133,1,0,0:0:0:0:
433,277,38248,1,2,0:2:0:0:
442,246,38364,1,0,0:0:0:0:
442,214,38479,1,2,0:2:0:0:
435,183,38594,2,0,P|421:139|392:96,1,70,0|2,0:0|0:2,0:0:0:0:
256,64,39056,1,0,0:0:0:0:
228,76,39171,1,2,0:2:0:0:
196,84,39287,6,0,P|157:90|108:92,1,70,0|2,0:0|0:2,0:0:0:0:
32,224,39748,1,0,0:0:0:0:
60,208,39864,2,0,P|124:192|172:192,1,105,2|2,0:2|0:2,0:0:0:0:
384,288,40556,1,2,0:2:0:0:
144,320,40902,1,2,0:2:0:0:
256,352,41133,6,0,L|272:240,1,105,2|0,0:2|0:0,0:0:0:0:
288,224,41594,2,0,L|304:128,1,70,2|0,0:2|0:0,0:0:0:0:
320,128,41941,1,2,0:2:0:0:
336,104,42056,1,0,0:0:0:0:
352,80,42171,2,0,P|404:62|480:68,1,105,2|2,0:2|0:2,0:0:0:0:
400,336,42864,1,2,0:2:0:0:
400,336,42979,6,0,P|336:336|272:320,1,105,0|2,0:0|0:2,0:0:0:0:
272,336,43441,2,0,L|283:266,1,70,0|2,0:0|0:2,0:0:0:0:
368,128,43902,2,0,L|208:128,1,140,2|2,0:2|0:2,0:0:0:0:
32,320,44825,6,0,P|160:288|192:352,1,210.000008010865,4|0,0:2|0:0,0:0:0:0:
190,336,46210,1,0,0:0:0:0:
432,272,46671,2,0,L|320:288,1,105.000004005432
96,224,47594,2,0,L|224:240,1,105.000004005432
416,96,48518,2,0,P|288:160|192:32,1,315.000012016297
48,272,51287,6,0,L|192:240,1,105.000004005432
256,336,52210,2,0,P|336:272|432:304,1,210.000008010865
430,302,53594,1,0,0:0:0:0:
512,176,54056,2,0,L|384:160,1,105.000004005432
304,64,54979,2,0,P|224:128|112:112,1,210.000008010865
16,272,56248,5,0,0:0:0:0:
192,336,56594,2,0,P|288:208|480:224,1,367.500014019013
320,32,58671,6,0,P|240:96|112:96,1,210.000008010865,0|4,0:0|0:0,0:0:0:0:
135,103,60056,1,0,0:0:0:0:
135,103,60518,1,0,0:0:0:0:
135,103,60979,1,0,0:0:0:0:
32,256,61441,1,0,0:0:0:0:
144,240,61902,1,0,0:0:0:0:
256,224,62364,1,0,0:0:0:0:
368,208,62825,1,0,0:0:0:0:
480,304,63287,5,0,0:0:0:0:
480,304,63748,1,0,0:0:0:0:
480,304,64210,1,0,0:0:0:0:
480,304,64671,1,0,0:0:0:0:
320,336,65133,1,0,0:0:0:0:
336,224,65594,1,0,0:0:0:0:
352,112,66056,1,0,0:0:0:0:
352,112,66402,1,0,0:0:0:0:
352,112,66748,1,0,0:0:0:0:
224,48,66979,6,0,L|240:144,1,70
192,272,67441,2,0,L|176:176,1,70
112,32,67902,2,0,L|128:128,1,70
80,288,68364,2,0,L|64:192,1,70
80,112,68825,2,0,L|0:128,1,70
176,144,69287,2,0,L|256:128,1,70
96,224,69748,2,0,L|16:240,1,70
192,256,70210,2,0,L|272:240,1,70
352,304,70671,5,0,0:0:0:0:
464,256,71018,1,0,0:0:0:0:
336,208,71364,1,0,0:0:0:0:
480,176,71710,1,0,0:0:0:0:
368,128,72056,1,0,0:0:0:0:
464,96,72402,1,0,0:0:0:0:
400,48,72748,1,0,0:0:0:0:
320,32,73094,1,0,0:0:0:0:
240,48,73441,1,0,0:0:0:0:
176,96,73787,1,0,0:0:0:0:
144,176,74133,1,0,0:0:0:0:
256,192,74364,12,4,76210,2:0:0:0:
256,192,76441,12,4,78056,2:0:0:0:
256,192,78287,12,4,79902,2:0:0:0:
256,192,80133,12,4,81287,0:0:0:0:
48,128,81748,6,0,P|112:96|176:96,1,105.000004005432,4|2,0:0|0:2,0:0:0:0:
229,250,82210,2,0,P|177:255|128:240,1,105.000004005432,0|2,0:0|0:2,0:0:0:0:
256,144,82671,2,0,L|432:128,2,157.500006008148,2|2|2,0:2|0:2|0:2,0:0:0:0:
480,272,83594,6,0,P|416:240|336:256,1,140,0|2,0:0|0:2,0:0:0:0:
144,352,84056,2,0,P|229:339|288:288,1,140,0|2,0:0|0:2,0:0:0:0:
176,224,84518,2,0,P|64:192|32:112,2,210,2|2|2,0:2|0:2|0:2,0:0:0:0:
160,112,85441,6,0,L|288:96,1,105.000004005432,0|2,0:0|0:2,0:0:0:0:
448,176,85902,2,0,L|320:192,1,105.000004005432,0|2,0:0|0:2,0:0:0:0:
160,304,86364,2,0,P|240:272|336:304,1,157.500006008148,2|2,0:2|0:2,0:0:0:0:
336,304,86825,1,0,0:0:0:0:
480,288,87056,1,2,0:2:0:0:
480,128,87287,6,0,L|336:144,1,140,0|2,0:0|0:2,0:0:0:0:
192,96,87748,1,2,0:2:0:0:
80,192,87979,1,2,0:2:0:0:
224,240,88210,1,2,0:2:0:0:
64,48,88556,1,2,0:2:0:0:
336,32,88902,1,2,0:2:0:0:
464,128,89133,6,0,P|480:192|464:240,1,105.000004005432,0|2,0:0|0:2,0:0:0:0:
336,192,89594,2,0,P|320:256|336:304,1,105.000004005432,0|2,0:0|0:2,0:0:0:0:
176,320,90056,2,0,P|112:288|0:304,2,157.500006008148,2|2|2,0:2|0:2|0:2,0:0:0:0:
96,192,90979,6,0,P|128:128|112:64,1,140,0|2,0:0|0:2,0:0:0:0:
256,176,91441,2,0,P|256:96|304:16,1,140,0|2,0:0|0:2,0:0:0:0:
400,112,91902,2,0,P|432:208|384:320,2,210,2|2|2,0:2|0:2|0:2,0:0:0:0:
272,272,92825,6,0,L|160:304,1,105.000004005432,0|2,0:0|0:2,0:0:0:0:
192,128,93287,2,0,L|304:96,1,105.000004005432,0|2,0:0|0:2,0:0:0:0:
416,192,93748,1,2,0:2:0:0:
224,336,94094,1,2,0:2:0:0:
80,144,94441,1,2,0:2:0:0:
32,272,94671,5,0,0:0:0:0:
144,240,94902,1,2,0:2:0:0:
256,208,95133,1,2,0:2:0:0:
368,176,95364,1,2,0:2:0:0:
496,272,95594,2,0,P|391:269|288:336,2,210,2|2|2,0:2|0:2|0:2,0:0:0:0:
432,144,96518,6,0,P|400:96|384:32,1,105.000004005432,0|2,0:0|0:2,0:0:0:0:
272,128,96979,2,0,P|224:96|144:80,1,105.000004005432,0|2,0:0|0:2,0:0:0:0:
160,208,97441,2,0,P|80:208|0:256,2,157.500006008148,2|2|2,0:2|0:2|0:2,0:0:0:0:
112,320,98364,6,0,P|176:352|256:352,1,140,0|2,0:0|0:2,0:0:0:0:
480,304,98825,2,0,P|416:288|320:320,1,140,0|2,0:0|0:2,0:0:0:0:
256,208,99287,2,0,P|368:192|448:96,2,210,2|2|2,0:2|0:2|0:2,0:0:0:0:
304,96,100210,6,0,P|240:86|192:48,1,105.000004005432,0|2,0:0|0:2,0:0:0:0:
0,160,100671,2,0,P|64:144|128:96,1,105.000004005432,0|2,0:0|0:2,0:0:0:0:
208,192,101133,2,0,P|144:256|144:336,2,157.500006008148,2|2|2,0:2|0:2|0:2,0:0:0:0:
304,304,102056,5,0,0:0:0:0:
448,208,102287,1,2,0:2:0:0:
272,192,102518,1,2,0:2:0:0:
416,320,102748,1,2,0:2:0:0:
368,128,102979,1,2,0:2:0:0:
160,304,103325,1,2,0:2:0:0:
32,128,103671,1,2,0:2:0:0:
208,64,103902,6,0,L|192:192,1,105.000004005432,0|2,0:0|0:2,0:0:0:0:
64,304,104364,2,0,L|80:176,1,105.000004005432,0|2,0:0|0:2,0:0:0:0:
192,336,104825,1,2,0:2:0:0:
304,176,105171,1,2,0:2:0:0:
432,304,105518,1,2,0:2:0:0:
496,96,105748,6,0,P|423:120|336:112,1,140,0|2,0:0|0:2,0:0:0:0:
144,112,106210,2,0,P|226:107|288:64,1,140,0|2,0:0|0:2,0:0:0:0:
288,192,106671,1,2,0:2:0:0:
128,336,107018,1,2,0:2:0:0:
352,352,107364,1,2,0:2:0:0:
464,256,107594,6,0,P|480:192|464:128,1,105.000004005432,0|2,0:0|0:2,0:0:0:0:
336,64,108056,2,0,P|320:112|336:176,1,105.000004005432,0|2,0:0|0:2,0:0:0:0:
272,272,108518,1,2,0:2:0:0:
160,64,108864,1,2,0:2:0:0:
64,288,109210,1,2,0:2:0:0:
16,176,109441,5,2,0:2:0:0:
128,160,109787,1,2,0:2:0:0:
240,144,110133,1,2,0:2:0:0:
352,128,110479,1,2,0:2:0:0:
464,112,110825,1,2,0:2:0:0:
464,112,111056,1,0,0:0:0:0:
464,112,111287,5,4,0:0:0:0:
384,320,111748,1,2,0:3:0:0:
384,320,111864,1,0,0:0:0:0:
384,320,111979,1,0,0:0:0:0:
384,320,112094,1,0,0:0:0:0:
384,320,112210,2,0,L|288:336,1,70
160,288,112671,2,0,L|256:272,1,70,2|0,0:3|0:0,0:0:0:0:
36,245,113133,5,0,0:0:0:0:
20,214,113248,1,0,0:0:0:0:
14,179,113364,1,0,0:0:0:0:
16,144,113479,1,0,0:0:0:0:
27,110,113594,2,0,L|77:34,1,70,2|0,0:3|0:0,0:0:0:0:
96,48,113941,1,0,0:0:0:0:
96,48,114056,2,0,P|167:76|256:53,1,140,0|2,0:0|0:3,0:0:0:0:
384,32,114748,1,0,0:0:0:0:
480,128,114979,6,0,P|448:208|464:272,1,140,0|2,0:0|0:3,0:0:0:0:
440,285,115556,1,0,0:0:0:0:
417,307,115671,1,0,0:0:0:0:
387,319,115787,1,0,0:0:0:0:
357,328,115902,2,0,P|317:329|261:312,1,70
136,332,116364,2,0,P|146:268|127:206,1,105,2|0,0:3|0:0,0:0:0:0:
124,200,116825,5,0,0:0:0:0:
48,80,117056,1,0,0:0:0:0:
192,96,117287,2,0,L|272:80,1,70,2|0,0:3|0:0,0:0:0:0:
400,32,117748,2,0,P|432:96|416:176,1,140,0|2,0:0|0:3,0:0:0:0:
410,190,118325,1,0,0:0:0:0:
390,214,118441,1,0,0:0:0:0:
363,230,118556,1,0,0:0:0:0:
333,239,118671,6,0,P|270:216|171:231,1,140,0|2,0:0|0:3,0:0:0:0:
64,288,119364,1,0,0:0:0:0:
64,288,119479,1,2,0:2:0:0:
64,288,119594,2,0,P|51:203|67:134,1,140,0|2,0:0|0:3,0:0:0:0:
167,57,120287,2,0,L|215:41,1,35,0|2,0:0|0:2,0:0:0:0:
231,40,120518,5,0,0:0:0:0:
261,48,120633,1,0,0:0:0:0:
282,70,120748,1,2,0:2:0:0:
289,100,120864,1,0,0:0:0:0:
285,131,120979,1,2,0:3:0:0:
271,159,121094,1,2,0:2:0:0:
249,181,121210,1,0,0:0:0:0:
220,194,121325,1,0,0:0:0:0:
188,198,121441,2,0,P|129:170|41:174,1,140,2|2,0:2|0:3,0:0:0:0:
5,310,122133,1,2,0:2:0:0:
160,336,122364,6,0,P|240:304|320:320,1,140,2|2,0:2|0:3,0:0:0:0:
456,338,123056,1,0,0:0:0:0:
446,308,123171,1,2,0:2:0:0:
435,278,123287,2,0,P|428:206|451:133,1,140,0|2,0:0|0:3,0:0:0:0:
332,66,123979,2,0,L|275:78,1,35,0|2,0:0|0:2,0:0:0:0:
273,93,124210,2,0,L|177:77,1,70,0|2,0:0|0:2,0:0:0:0:
256,192,124671,12,4,126056,0:0:0:0:
