osu file format v12

[General]
AudioFilename: m2u.mp3
AudioLeadIn: 0
PreviewTime: 81748
Countdown: 0
SampleSet: Normal
StackLeniency: 0.6
Mode: 0
LetterboxInBreaks: 0
WidescreenStoryboard: 0

[Editor]
Bookmarks: 14781,29550,30014,30360,30590,30937,31283,31629,31975,32321,32667,33014,33244,33706,34052,34283,34629,34975,35437,35783,36014,36360,36706,36937,37398,37744,37975,38321,38667,39014,39360,39706,40052,40398,40629,41090,41437,41667,42014,42360,42821,43167,43398,43860,44319,59088,70167,81242,96012,110781,125550,139858
DistanceSpacing: 1.4
BeatDivisor: 4
GridSize: 16

[Metadata]
Title:Hades in the Heaven
TitleUnicode:Hades in the Heaven
Artist:Gentle Stick X M2U
ArtistUnicode:Gentle Stick X M2U
Creator:AngelHoney
Version:ExtrA
Source:O2jam U
Tags:SOLENA DJPop OnosakiHito K i A i KIAI Lan wings SUBSTAC9
BeatmapID:296432
BeatmapSetID:114488

[Difficulty]
HPDrainRate:7
CircleSize:4
OverallDifficulty:7
ApproachRate:9
SliderMultiplier:1.9
SliderTickRate:1

[Events]
//Background and Video events
0,0,"BG.jpg",0,0
//Break Periods
//Storyboard Layer 0 (Background)
//Storyboard Layer 1 (Fail)
//Storyboard Layer 2 (Pass)
//Storyboard Layer 3 (Foreground)
//Storyboard Sound Samples
//Background Colour Transformations
3,100,0,0,0

[TimingPoints]
518,461.538461538462,4,2,1,40,1,0
15054,-100,4,1,1,50,0,0
28671,-100,4,1,1,60,0,0
29133,-100,4,1,1,40,0,0
29594,-100,4,1,1,60,0,0
30056,-100,4,1,1,50,0,0
44594,-100,4,1,1,40,0,0
59133,-100,4,1,1,45,0,0
59364,-100,4,1,1,50,0,0
59594,-100,4,1,1,55,0,0
66287,-100,4,1,1,70,0,0
67325,-100,4,1,1,60,0,0
68825,-100,4,1,1,65,0,0
70671,-100,4,1,1,70,0,0
73787,-100,4,1,1,60,0,0
74248,-100,4,1,1,50,0,0
76210,-100,4,1,1,60,0,0
78056,-100,4,1,1,70,0,0
79902,-100,4,1,1,80,0,0
81287,-200,4,1,1,90,0,1
81633,-66.6666666666667,4,1,1,70,0,0
83479,-50,4,1,1,70,0,0
85325,-66.6666666666667,4,1,1,70,0,0
87171,-50,4,1,1,70,0,0
89018,-66.6666666666667,4,1,1,70,0,0
90864,-50,4,1,1,70,0,0
92710,-66.6666666666667,4,1,1,70,0,0
94556,-50,4,1,1,70,0,0
96402,-66.6666666666667,4,1,1,70,0,0
98248,-50,4,1,1,70,0,0
100094,-66.6666666666667,4,1,1,70,0,0
101941,-50,4,1,1,70,0,0
103787,-66.6666666666667,4,1,1,70,0,0
105633,-50,4,1,1,70,0,0
107479,-66.6666666666667,4,1,1,70,0,0
109325,-50,4,1,1,70,0,0
111402,-100,4,1,1,45,0,0
118671,-100,4,1,1,50,0,0

[Colours]
Combo1 : 245,193,135
Combo2 : 130,251,179
Combo3 : 137,204,254
Combo4 : 244,253,145
Combo5 : 239,69,69

[HitObjects]
48,64,13441,2,0,L|96:48,1,47.5
208,80,13671,2,0,L|160:96,1,47.5
128,176,13902,2,0,L|176:192,1,47.5
272,240,14133,2,0,L|224:256,1,47.5
352,272,14364,2,0,L|368:320,1,47.5
400,160,14594,2,0,L|416:208,1,47.5
448,48,14825,2,0,L|464:96,1,47.5,8|0,0:2|0:0,0:0:0:0:
144,192,15287,38,0,P|96:171|16:176,1,95,4|0,0:0|0:0,0:0:0:0:
256,64,15748,1,2,0:3:0:0:
304,80,15864,1,0,0:0:0:0:
353,73,15979,1,0,0:0:0:0:
397,44,16094,1,0,0:0:0:0:
448,32,16210,2,0,P|464:144|448:176,1,142.5
368,160,16671,2,0,P|352:256|368:304,1,142.5,2|0,0:3|0:0,0:0:0:0:
304,352,17133,5,0,0:0:0:0:
259,332,17248,1,0,0:0:0:0:
213,321,17364,1,0,0:0:0:0:
166,330,17479,1,0,0:0:0:0:
121,353,17594,1,2,0:3:0:0:
95,309,17710,1,0,0:0:0:0:
55,274,17825,1,0,0:0:0:0:
6,262,17941,1,0,0:0:0:0:
48,192,18056,2,0,L|192:176,1,142.5
352,80,18518,2,0,L|208:96,1,142.5,2|0,0:3|0:0,0:0:0:0:
352,192,18979,6,0,P|416:160|512:176,1,142.5
464,336,19441,2,0,P|450:285|413:228,1,95,2|0,0:3|0:0,0:0:0:0:
352,272,19787,1,0,0:0:0:0:
352,272,19902,1,0,0:0:0:0:
208,320,20133,1,0,0:0:0:0:
32,208,20364,2,0,P|96:176|192:192,1,142.5,2|0,0:3|0:0,0:0:0:0:
256,176,20825,5,0,0:0:0:0:
304,192,20941,1,0,0:0:0:0:
352,176,21056,1,0,0:0:0:0:
384,128,21171,1,0,0:0:0:0:
368,80,21287,1,2,0:3:0:0:
336,48,21402,1,0,0:0:0:0:
368,16,21518,1,0,0:0:0:0:
400,48,21633,1,0,0:0:0:0:
448,64,21748,2,0,P|448:144|496:192,1,142.5
400,336,22210,2,0,P|400:256|368:192,1,142.5,2|0,0:3|0:0,0:0:0:0:
304,160,22671,5,0,0:0:0:0:
160,256,22902,2,0,P|106:262|48:240,1,95,0|2,0:0|0:3,0:0:0:0:
16,80,23364,1,0,0:0:0:0:
64,64,23479,1,0,0:0:0:0:
112,80,23594,2,0,P|192:90|256:48,1,142.5
320,32,24056,1,2,0:3:0:0:
480,192,24287,2,0,L|448:256,1,47.5
400,288,24518,5,0,0:0:0:0:
352,304,24633,1,0,0:0:0:0:
309,340,24748,1,0,0:0:0:0:
264,320,24864,1,0,0:0:0:0:
211,312,24979,1,2,0:3:0:0:
161,324,25094,1,0,0:0:0:0:
117,352,25210,1,0,0:0:0:0:
71,327,25325,1,0,0:0:0:0:
25,306,25441,2,0,P|38:231|16:160,1,142.5
109,58,25902,2,0,P|112:128|144:192,1,142.5,2|0,0:3|0:0,0:0:0:0:
336,96,26364,6,0,P|272:128|192:96,1,142.5
192,32,26825,1,2,0:3:0:0:
192,32,26941,1,0,0:0:0:0:
272,48,27056,1,0,0:0:0:0:
272,48,27171,1,0,0:0:0:0:
352,32,27287,2,0,L|416:16,1,47.5
480,32,27518,2,0,P|464:80|473:143,1,95,0|2,0:0|0:3,0:0:0:0:
304,160,27979,2,0,L|320:224,1,47.5
336,288,28210,6,0,P|257:285|192:336,1,142.5,0|0,0:0|2:0,0:0:0:0:
80,272,28671,2,0,P|148:242|192:176,1,142.5,0|0,0:0|2:0,0:0:0:0:
416,80,29133,2,0,P|352:112|272:96,1,142.5,0|0,0:0|2:0,0:0:0:0:
48,96,29594,2,0,P|128:64|208:80,1,142.5,0|0,0:0|2:0,0:0:0:0:
256,16,30056,6,0,L|416:32,1,142.5,4|0,0:0|0:0,0:0:0:0:
464,80,30518,1,2,0:2:0:0:
496,256,30748,1,0,0:0:0:0:
448,272,30864,1,2,0:2:0:0:
400,288,30979,1,0,0:0:0:0:
352,304,31094,1,2,0:2:0:0:
304,320,31210,1,0,0:0:0:0:
304,320,31441,1,2,0:2:0:0:
96,224,31671,1,0,0:0:0:0:
112,272,31787,1,8,0:2:0:0:
192,224,31902,5,0,0:0:0:0:
208,176,32018,1,0,0:0:0:0:
224,128,32133,1,2,0:2:0:0:
240,80,32248,1,0,0:0:0:0:
336,64,32364,1,0,0:0:0:0:
320,112,32479,1,2,0:2:0:0:
304,160,32594,1,0,0:0:0:0:
288,208,32710,1,0,0:0:0:0:
384,192,32825,2,0,L|480:176,1,95,2|0,0:2|0:0,0:0:0:0:
496,256,33171,1,2,0:2:0:0:
480,304,33287,1,0,0:0:0:0:
288,336,33518,1,2,0:2:0:0:
16,224,33748,6,0,L|160:240,1,142.5,2|0,0:2|0:0,0:0:0:0:
224,176,34210,1,2,0:2:0:0:
416,48,34441,1,0,0:0:0:0:
448,96,34556,1,2,0:2:0:0:
480,144,34671,1,0,0:0:0:0:
432,112,34787,1,2,0:2:0:0:
384,80,34902,1,0,0:0:0:0:
160,48,35133,1,2,0:2:0:0:
272,256,35364,1,0,0:0:0:0:
288,304,35479,1,8,0:2:0:0:
224,352,35594,6,0,L|112:320,1,95
48,336,35941,1,2,0:2:0:0:
64,288,36056,1,0,0:0:0:0:
128,160,36287,2,0,L|112:96,1,47.5,2|0,0:2|0:0,0:0:0:0:
64,48,36518,1,2,0:2:0:0:
304,32,36748,1,0,0:0:0:0:
288,80,36864,1,0,0:0:0:0:
352,128,36979,2,0,L|330:193,1,47.5
400,224,37210,1,0,0:0:0:0:
384,272,37325,1,0,0:0:0:0:
448,320,37441,5,2,0:2:0:0:
208,256,37671,1,0,0:0:0:0:
480,112,37902,1,2,0:2:0:0:
432,80,38018,1,0,0:0:0:0:
384,48,38133,1,0,0:0:0:0:
400,96,38248,1,2,0:2:0:0:
416,144,38364,1,0,0:0:0:0:
336,160,38479,2,0,L|224:144,1,95,2|0,0:2|0:0,0:0:0:0:
144,208,38825,2,0,L|256:224,1,95,2|0,0:2|0:0,0:0:0:0:
304,272,39171,1,8,0:2:0:0:
272,352,39287,5,0,0:0:0:0:
224,336,39402,1,0,0:0:0:0:
176,320,39518,1,2,0:2:0:0:
144,352,39633,1,0,0:0:0:0:
128,304,39748,1,0,0:0:0:0:
112,256,39864,1,2,0:2:0:0:
64,224,39979,1,0,0:0:0:0:
96,176,40094,1,0,0:0:0:0:
128,128,40210,2,0,L|96:32,1,95,2|0,0:2|0:0,0:0:0:0:
288,96,40556,2,0,L|176:64,1,95,2|0,0:2|0:0,0:0:0:0:
352,48,40902,1,2,0:2:0:0:
240,256,41133,6,0,L|400:224,1,142.5,2|0,0:2|0:0,0:0:0:0:
448,272,41594,1,2,0:2:0:0:
256,352,41825,1,0,0:0:0:0:
208,336,41941,1,2,0:2:0:0:
128,352,42056,2,0,L|48:320,1,47.5,0|2,0:0|0:2,0:0:0:0:
0,352,42287,1,0,0:0:0:0:
176,192,42518,1,2,0:2:0:0:
64,48,42748,1,0,0:0:0:0:
80,96,42864,1,8,0:2:0:0:
160,64,42979,6,0,L|256:48,1,95
352,192,43325,2,0,L|256:128,1,95,2|0,0:2|0:0,0:0:0:0:
352,80,43671,1,2,0:2:0:0:
96,192,43902,1,2,0:2:0:0:
96,192,44364,5,2,0:2:0:0:
464,320,44825,5,4,0:0:0:0:
384,320,45171,1,0,0:0:0:0:
304,320,45518,1,0,0:0:0:0:
224,320,45864,1,0,0:0:0:0:
144,320,46210,1,0,0:0:0:0:
64,320,46556,1,0,0:0:0:0:
144,320,46902,1,0,0:0:0:0:
224,320,47248,1,0,0:0:0:0:
304,320,47594,1,0,0:0:0:0:
384,320,47941,1,0,0:0:0:0:
464,320,48287,1,0,0:0:0:0:
48,64,48518,5,0,0:0:0:0:
128,64,48864,1,0,0:0:0:0:
208,64,49211,1,0,0:0:0:0:
288,64,49557,1,0,0:0:0:0:
368,64,49903,1,0,0:0:0:0:
448,64,50249,1,0,0:0:0:0:
368,64,50595,1,0,0:0:0:0:
288,64,50941,1,0,0:0:0:0:
208,64,51287,1,0,0:0:0:0:
128,64,51634,1,0,0:0:0:0:
48,64,51980,1,0,0:0:0:0:
480,192,52210,5,0,0:0:0:0:
384,192,52556,1,0,0:0:0:0:
288,192,52902,1,0,0:0:0:0:
192,192,53248,1,0,0:0:0:0:
96,192,53594,1,0,0:0:0:0:
0,192,53941,1,0,0:0:0:0:
96,192,54287,1,0,0:0:0:0:
192,192,54633,1,0,0:0:0:0:
288,192,54979,1,0,0:0:0:0:
384,192,55325,1,0,0:0:0:0:
480,192,55671,1,0,0:0:0:0:
0,192,55902,5,0,0:0:0:0:
96,192,56248,1,0,0:0:0:0:
192,192,56594,1,0,0:0:0:0:
192,192,56710,1,2,0:2:0:0:
288,192,56941,1,0,0:0:0:0:
288,192,57056,1,2,0:2:0:0:
384,192,57287,1,0,0:0:0:0:
480,192,57633,1,0,0:0:0:0:
384,192,57979,1,0,0:0:0:0:
288,192,58325,1,0,0:0:0:0:
192,192,58671,1,0,0:0:0:0:
96,192,59018,1,0,0:0:0:0:
96,192,59133,1,0,0:0:0:0:
96,192,59248,1,0,0:0:0:0:
96,192,59364,2,0,L|112:256,1,47.5
80,320,59594,5,4,0:0:0:0:
80,320,59710,1,2,0:2:0:0:
80,320,59825,1,2,0:2:0:0:
240,352,60056,1,0,0:0:0:0:
256,304,60171,1,2,0:2:0:0:
272,256,60287,1,2,0:2:0:0:
304,288,60402,1,2,0:2:0:0:
368,336,60518,2,0,L|432:320,1,47.5,0|2,0:0|0:2,0:0:0:0:
496,336,60748,1,2,0:2:0:0:
496,128,60979,2,0,L|432:112,1,47.5,0|2,0:0|0:2,0:0:0:0:
368,144,61210,1,2,0:2:0:0:
368,144,61325,1,2,0:2:0:0:
288,112,61441,6,0,L|224:128,1,47.5,0|2,0:0|0:2,0:0:0:0:
160,96,61671,1,2,0:2:0:0:
32,320,61902,1,0,0:0:0:0:
48,272,62018,1,2,0:2:0:0:
64,224,62133,1,2,0:2:0:0:
112,240,62248,1,2,0:2:0:0:
192,224,62364,2,0,L|208:288,1,47.5,0|2,0:0|0:2,0:0:0:0:
272,320,62594,1,2,0:2:0:0:
288,272,62710,1,2,0:2:0:0:
384,240,62825,2,0,L|368:304,1,47.5,0|2,0:0|0:2,0:0:0:0:
464,208,63056,2,0,L|480:272,1,47.5,2|0,0:2|0:0,0:0:0:0:
512,352,63287,6,0,L|352:336,1,142.5,2|2,0:2|0:2,0:0:0:0:
288,352,63748,1,0,0:0:0:0:
64,304,63979,1,2,0:2:0:0:
128,240,64094,2,0,L|96:160,1,47.5,2|0,0:2|0:0,0:0:0:0:
144,112,64325,1,2,0:2:0:0:
144,112,64441,2,0,L|208:128,1,47.5,2|0,0:2|0:0,0:0:0:0:
256,64,64671,1,0,0:0:0:0:
304,48,64787,1,2,0:2:0:0:
352,32,64902,1,2,0:2:0:0:
368,80,65018,1,2,0:2:0:0:
384,128,65133,5,0,0:0:0:0:
400,208,65594,1,0,0:0:0:0:
416,288,66056,1,0,0:0:0:0:
224,336,66402,1,0,0:0:0:0:
64,224,66748,1,0,0:0:0:0:
480,96,66979,6,0,L|336:112,1,142.5,2|2,0:2|0:2,0:0:0:0:
272,160,67441,1,0,0:0:0:0:
224,144,67556,1,2,0:2:0:0:
176,128,67671,1,2,0:2:0:0:
128,112,67787,1,2,0:2:0:0:
64,64,67902,2,0,L|32:144,1,47.5,0|2,0:0|0:2,0:0:0:0:
64,192,68133,1,2,0:2:0:0:
16,336,68364,1,0,0:0:0:0:
64,352,68479,1,0,0:0:0:0:
128,288,68594,2,0,L|144:352,1,47.5,2|2,0:2|0:2,0:0:0:0:
224,256,68825,6,0,L|208:320,1,47.5,0|2,0:0|0:2,0:0:0:0:
304,240,69056,1,2,0:2:0:0:
496,192,69287,2,0,L|416:208,1,47.5,0|2,0:0|0:2,0:0:0:0:
384,160,69518,1,2,0:2:0:0:
336,144,69633,1,2,0:2:0:0:
256,112,69748,2,0,L|256:176,1,47.5,0|2,0:0|0:2,0:0:0:0:
176,192,69979,2,0,L|176:128,1,47.5,2|2,0:2|0:2,0:0:0:0:
96,64,70210,2,0,L|96:144,1,47.5,0|2,0:0|0:2,0:0:0:0:
176,64,70441,2,0,L|176:-16,1,47.5,2|0,0:2|0:0,0:0:0:0:
16,112,70671,6,0,L|16:192,2,47.5,2|0|0,0:2|0:0|0:0,0:0:0:0:
96,256,71018,2,0,L|96:208,2,47.5,2|0|0,0:2|0:0|0:0,0:0:0:0:
176,80,71364,2,0,L|176:128,2,47.5,2|0|0,0:2|0:0|0:0,0:0:0:0:
256,288,71710,2,0,L|256:240,2,47.5,2|0|0,0:2|0:0|0:0,0:0:0:0:
352,48,72056,2,0,L|304:80,2,47.5,2|0|0,0:2|0:0|0:0,0:0:0:0:
480,224,72402,2,0,L|432:192,2,47.5,2|0|0,0:2|0:0|0:0,0:0:0:0:
256,288,72748,2,0,L|288:240,2,47.5,2|0|0,0:2|0:0|0:0,0:0:0:0:
144,64,73094,2,0,L|176:112,2,47.5,2|0|0,0:2|0:0|0:0,0:0:0:0:
32,240,73441,2,0,L|80:224,2,47.5,2|0|0,0:2|0:0|0:0,0:0:0:0:
368,144,73787,2,0,L|320:160,2,47.5,2|0|0,0:2|0:0|0:0,0:0:0:0:
208,192,74133,1,2,0:2:0:0:
64,336,74364,5,4,0:0:0:0:
98,352,74479,1,0,0:0:0:0:
135,357,74594,1,2,0:2:0:0:
173,354,74710,1,0,0:0:0:0:
208,341,74825,1,0,0:0:0:0:
240,321,74941,1,0,0:0:0:0:
268,295,75056,1,2,0:2:0:0:
285,261,75171,1,0,0:0:0:0:
298,225,75287,1,0,0:0:0:0:
298,187,75402,1,0,0:0:0:0:
293,149,75518,1,2,0:2:0:0:
276,115,75633,1,0,0:0:0:0:
252,85,75748,1,0,0:0:0:0:
219,65,75864,1,0,0:0:0:0:
183,52,75979,1,2,0:2:0:0:
145,47,76094,1,0,0:0:0:0:
97,54,76210,5,4,0:0:0:0:
80,98,76325,1,0,0:0:0:0:
80,145,76441,1,2,0:2:0:0:
94,189,76556,1,0,0:0:0:0:
122,226,76671,1,0,0:0:0:0:
161,252,76787,1,0,0:0:0:0:
207,261,76902,1,2,0:2:0:0:
254,258,77018,1,0,0:0:0:0:
294,234,77133,1,0,0:0:0:0:
321,195,77248,1,0,0:0:0:0:
326,147,77364,1,2,0:2:0:0:
373,142,77479,1,0,0:0:0:0:
418,156,77594,1,0,0:0:0:0:
455,186,77710,1,0,0:0:0:0:
473,229,77825,1,2,0:2:0:0:
475,276,77941,1,0,0:0:0:0:
431,312,78056,5,4,0:0:0:0:
376,329,78171,1,0,0:0:0:0:
318,325,78287,1,2,0:2:0:0:
261,317,78402,1,0,0:0:0:0:
204,325,78518,1,0,0:0:0:0:
147,319,78633,1,0,0:0:0:0:
91,331,78748,1,2,0:2:0:0:
34,324,78864,1,0,0:0:0:0:
90,319,78979,1,0,0:0:0:0:
145,333,79094,1,0,0:0:0:0:
197,311,79210,1,2,0:2:0:0:
251,327,79325,1,0,0:0:0:0:
305,309,79441,1,0,0:0:0:0:
361,317,79556,1,0,0:0:0:0:
416,306,79671,1,2,0:2:0:0:
472,316,79787,1,0,0:0:0:0:
483,250,79902,5,4,0:0:0:0:
483,250,80018,1,0,0:0:0:0:
418,236,80133,1,2,0:2:0:0:
418,236,80248,1,0,0:0:0:0:
351,229,80364,1,2,0:2:0:0:
351,229,80479,1,0,0:0:0:0:
286,241,80594,1,2,0:2:0:0:
286,241,80710,1,0,0:0:0:0:
220,228,80825,1,2,0:2:0:0:
220,228,80941,1,0,0:0:0:0:
154,235,81056,1,2,0:2:0:0:
154,235,81171,1,0,0:0:0:0:
92,229,81287,6,0,L|43:255,1,47.5,0|0,0:0|2:0,0:0:0:0:
32,144,81748,6,0,P|80:112|96:64,1,106.875004076958,4|0,0:0|2:0,0:0:0:0:
240,96,81979,2,0,P|176:64|160:16,1,106.875004076958,2|0,0:2|2:0,0:0:0:0:
112,208,82210,2,0,P|160:176|224:176,1,106.875004076958,0|0,0:0|2:0,0:0:0:0:
288,240,82441,2,0,P|240:272|176:256,1,106.875004076958,2|0,0:2|2:0,0:0:0:0:
304,160,82671,2,0,P|416:160|480:112,1,178.12500679493,2|0,0:2|2:0,0:0:0:0:
512,240,83018,2,0,P|416:256|368:336,1,178.12500679493,2|0,0:2|2:0,0:0:0:0:
288,336,83364,1,2,0:2:0:0:
32,304,83594,6,0,P|80:288|138:297,1,95,0|0,0:0|2:0,0:0:0:0:
160,176,83825,2,0,P|113:195|64:192,1,95,2|0,0:2|2:0,0:0:0:0:
112,96,84056,2,0,P|161:69|228:63,1,95,0|0,0:0|2:0,0:0:0:0:
336,160,84287,2,0,P|282:162|224:128,1,95,2|0,0:2|2:0,0:0:0:0:
304,71,84518,2,0,P|389:29|491:59,1,190,2|0,0:2|2:0,0:0:0:0:
512,176,84864,2,0,P|438:247|320:240,1,190,2|0,0:2|2:0,0:0:0:0:
272,320,85210,1,2,0:2:0:0:
0,240,85441,6,0,P|61:242|103:288,1,106.875004076958,0|0,0:0|2:0,0:0:0:0:
144,160,85672,2,0,P|80:128|64:80,1,106.875004076958,2|0,0:2|2:0,0:0:0:0:
240,96,85903,2,0,P|288:64|352:64,1,106.875004076958,0|0,0:0|2:0,0:0:0:0:
432,224,86134,2,0,P|381:248|320:240,1,106.875004076958,2|0,0:2|2:0,0:0:0:0:
332,154,86364,2,0,L|508:106,1,178.12500679493,2|0,0:2|2:0,0:0:0:0:
256,208,86710,2,0,L|80:256,1,178.12500679493,2|0,0:2|2:0,0:0:0:0:
256,304,87057,1,2,0:2:0:0:
64,352,87287,6,0,P|112:336|160:336,1,95,0|0,0:0|2:0,0:0:0:0:
288,192,87518,2,0,P|240:208|192:208,1,95,2|0,0:2|2:0,0:0:0:0:
32,160,87748,2,0,P|81:133|144:128,1,95,2|0,0:2|2:0,0:0:0:0:
352,80,87980,2,0,P|304:80|240:48,1,95,2|0,0:2|2:0,0:0:0:0:
320,320,88211,2,0,P|416:288|496:320,1,190,2|0,0:2|2:0,0:0:0:0:
240,112,88557,2,0,P|176:176|48:160,1,190,2|0,0:2|2:0,0:0:0:0:
16,64,88903,1,2,0:2:0:0:
432,112,89133,6,0,L|304:144,1,106.875004076958,0|0,0:0|2:0,0:0:0:0:
272,224,89364,2,0,L|144:256,1,106.875004076958,2|0,0:2|2:0,0:0:0:0:
80,304,89595,2,0,L|48:192,1,106.875004076958,0|0,0:0|2:0,0:0:0:0:
128,48,89825,2,0,L|160:160,1,106.875004076958,2|0,0:2|2:0,0:0:0:0:
272,128,90056,2,0,P|374:132|448:80,1,178.12500679493,2|0,0:2|2:0,0:0:0:0:
512,240,90403,2,0,P|400:256|336:320,1,178.12500679493,2|0,0:2|2:0,0:0:0:0:
224,336,90749,1,2,0:2:0:0:
16,192,90979,6,0,L|128:160,1,95,0|0,0:0|2:0,0:0:0:0:
192,16,91210,2,0,L|224:128,1,95,2|0,0:2|2:0,0:0:0:0:
448,128,91441,2,0,L|336:160,1,95,0|0,0:0|2:0,0:0:0:0:
240,304,91672,2,0,L|352:272,1,95,2|0,0:2|2:0,0:0:0:0:
96,304,91903,2,0,L|48:96,1,190,2|0,0:2|2:0,0:0:0:0:
240,192,92249,2,0,L|455:145,1,190,2|0,0:2|2:0,0:0:0:0:
480,48,92595,1,2,0:2:0:0:
384,288,92826,6,0,P|432:304|496:288,1,106.875004076958,0|0,0:0|2:0,0:0:0:0:
416,192,93057,2,0,P|362:168|288:176,1,106.875004076958,2|0,0:2|2:0,0:0:0:0:
160,272,93288,2,0,P|208:240|272:240,1,106.875004076958,0|0,0:0|2:0,0:0:0:0:
112,192,93519,2,0,P|64:214|0:208,1,106.875004076958,2|0,0:2|2:0,0:0:0:0:
64,96,93749,2,0,P|144:112|240:48,1,178.12500679493,2|0,0:2|2:0,0:0:0:0:
400,128,94095,2,0,P|305:125|240:176,1,178.12500679493,2|0,0:2|2:0,0:0:0:0:
320,32,94441,1,2,0:2:0:0:
416,224,94672,6,0,L|512:208,1,95,0|0,0:0|2:0,0:0:0:0:
272,304,94903,2,0,L|176:320,1,95,2|0,0:2|2:0,0:0:0:0:
16,144,95134,2,0,L|128:176,1,95,2|0,0:2|2:0,0:0:0:0:
400,128,95365,2,0,L|288:96,1,95,2|0,0:2|2:0,0:0:0:0:
16,288,95594,2,0,P|110:268|206:328,1,190,2|0,0:2|2:0,0:0:0:0:
464,224,95942,2,0,P|400:288|272:272,1,190,2|0,0:2|2:0,0:0:0:0:
240,208,96288,1,2,0:2:0:0:
416,48,96518,6,0,P|390:97|399:157,1,106.875004076958,0|0,0:0|2:0,0:0:0:0:
304,288,96748,2,0,P|313:227|288:160,1,106.875004076958,2|0,0:2|2:0,0:0:0:0:
192,32,96979,2,0,P|208:96|208:160,1,106.875004076958,0|0,0:0|2:0,0:0:0:0:
96,304,97210,2,0,P|144:272|192:208,1,106.875004076958,2|0,0:2|2:0,0:0:0:0:
0,176,97441,2,0,P|98:161|160:112,1,178.12500679493,2|0,0:2|2:0,0:0:0:0:
400,112,97787,2,0,P|320:160|224:144,1,178.12500679493,2|0,0:2|2:0,0:0:0:0:
256,48,98133,1,2,0:2:0:0:
48,48,98364,6,0,L|32:160,1,95,0|0,0:0|2:0,0:0:0:0:
160,240,98595,2,0,L|144:352,1,95,2|0,0:2|2:0,0:0:0:0:
320,96,98825,2,0,L|304:208,1,95,0|0,0:0|2:0,0:0:0:0:
480,320,99056,2,0,L|368:304,1,95,2|0,0:2|2:0,0:0:0:0:
48,208,99287,2,0,L|240:176,1,190,2|0,0:2|2:0,0:0:0:0:
448,48,99633,2,0,L|256:80,1,190,2|0,0:2|2:0,0:0:0:0:
160,48,99979,1,2,0:2:0:0:
32,304,100210,6,0,P|91:288|128:256,1,106.875004076958,0|0,0:0|2:0,0:0:0:0:
240,288,100440,2,0,P|216:238|224:160,1,106.875004076958,2|0,0:2|2:0,0:0:0:0:
416,240,100671,2,0,P|360:216|304:208,1,106.875004076958,0|0,0:0|2:0,0:0:0:0:
432,80,100902,2,0,P|465:133|528:160,1,106.875004076958,2|0,0:2|2:0,0:0:0:0:
320,96,101133,2,0,P|227:94|143:38,1,178.12500679493,2|0,0:2|2:0,0:0:0:0:
176,224,101479,2,0,P|75:224|0:256,1,178.12500679493,2|0,0:2|2:0,0:0:0:0:
48,112,101825,1,2,0:2:0:0:
480,240,102056,6,0,L|256:272,1,190,0|2,0:0|2:2,0:0:0:0:
144,336,102402,1,0,0:0:0:0:
16,240,102518,2,0,P|64:224|112:160,1,95,2|0,0:2|2:0,0:0:0:0:
400,128,102748,2,0,P|352:128|288:96,1,95,2|0,0:2|2:0,0:0:0:0:
64,48,102979,2,0,P|175:57|256:0,1,190,2|0,0:2|2:0,0:0:0:0:
416,240,103325,2,0,P|304:240|224:320,1,190,2|0,0:2|2:0,0:0:0:0:
144,192,103671,1,2,0:2:0:0:
336,144,103902,6,0,P|432:128|448:112,1,106.875004076958,0|0,0:0|2:0,0:0:0:0:
256,208,104132,2,0,P|201:201|128:224,1,106.875004076958,2|0,0:2|2:0,0:0:0:0:
32,80,104363,2,0,P|48:144|32:208,1,106.875004076958,0|0,0:0|2:0,0:0:0:0:
160,96,104594,2,0,P|215:67|240:16,1,106.875004076958,2|0,0:2|2:0,0:0:0:0:
496,96,104825,2,0,P|402:90|336:32,1,178.12500679493,2|0,0:2|2:0,0:0:0:0:
352,224,105171,2,0,P|272:272|176:256,1,178.12500679493,2|0,0:2|2:0,0:0:0:0:
96,160,105517,1,2,0:2:0:0:
96,160,105748,6,0,L|192:144,1,95,0|0,0:0|2:0,0:0:0:0:
320,32,105979,2,0,L|304:144,1,95,2|0,0:2|2:0,0:0:0:0:
64,304,106209,2,0,L|160:288,1,95,0|0,0:0|2:0,0:0:0:0:
464,288,106440,2,0,L|368:272,1,95,2|0,0:2|2:0,0:0:0:0:
32,112,106671,2,0,L|224:144,1,190,2|0,0:2|2:0,0:0:0:0:
496,128,107017,2,0,L|304:96,1,190,2|0,0:2|2:0,0:0:0:0:
208,32,107363,1,2,0:2:0:0:
16,240,107594,6,0,P|69:223|112:176,1,106.875004076958,0|0,0:0|2:0,0:0:0:0:
224,96,107825,2,0,P|211:150|224:208,1,106.875004076958,2|0,0:2|2:0,0:0:0:0:
384,320,108056,2,0,P|352:272|289:230,1,106.875004076958,0|0,0:0|2:0,0:0:0:0:
368,128,108287,2,0,P|423:125|496:96,1,106.875004076958,2|0,0:2|2:0,0:0:0:0:
256,48,108518,2,0,P|144:32|80:64,1,178.12500679493,2|0,0:2|2:0,0:0:0:0:
0,224,108864,2,0,P|112:224|176:176,1,178.12500679493,2|0,0:2|2:0,0:0:0:0:
32,128,109210,1,2,0:2:0:0:
464,320,109441,6,0,L|256:288,1,190,0|2,0:0|0:2,0:0:0:0:
176,336,109787,1,0,0:0:0:0:
144,256,109902,1,0,0:0:0:0:
112,176,110018,1,0,0:0:0:0:
176,80,110133,2,0,L|256:288,1,190,2|0,0:2|0:0,0:0:0:0:
496,112,110479,2,0,B|384:144,1,95,2|0,0:2|0:0,0:0:0:0:
320,64,110710,1,0,0:0:0:0:
320,288,110825,2,0,L|512:240,2,190,2|2|4,0:2|0:2|0:0,0:0:0:0:
80,320,111748,5,2,0:3:0:0:
64,272,111864,1,0,0:0:0:0:
48,224,111979,1,0,0:0:0:0:
32,176,112094,1,0,0:0:0:0:
96,112,112210,2,0,P|128:176|192:208,1,142.5
319,99,112671,2,0,P|239:85|176:112,1,142.5,2|0,0:3|0:0,0:0:0:0:
288,208,113133,5,0,0:0:0:0:
336,224,113248,1,0,0:0:0:0:
384,240,113364,1,0,0:0:0:0:
432,256,113479,1,0,0:0:0:0:
496,160,113594,2,0,L|432:176,1,47.5,2|0,0:3|0:0,0:0:0:0:
400,96,113825,1,0,0:0:0:0:
400,96,113941,1,0,0:0:0:0:
320,48,114056,2,0,P|256:80|171:90,1,142.5
80,64,114518,2,0,L|128:176,1,95,2|0,0:3|0:0,0:0:0:0:
16,304,114979,6,0,P|80:272|160:288,1,142.5
224,320,115441,1,2,0:3:0:0:
416,336,115671,1,0,0:0:0:0:
416,336,115787,1,0,0:0:0:0:
352,272,115902,2,0,L|336:176,1,95
512,48,116364,2,0,L|368:80,1,142.5,2|0,0:3|0:0,0:0:0:0:
288,48,116825,6,0,L|144:80,1,142.5
64,48,117287,1,2,0:3:0:0:
48,288,117518,2,0,L|64:224,1,47.5
144,272,117748,2,0,L|256:256,1,95
448,336,118210,1,2,0:3:0:0:
432,288,118325,1,0,0:0:0:0:
416,240,118441,1,0,0:0:0:0:
400,192,118556,1,0,0:0:0:0:
336,128,118671,6,0,L|304:288,1,142.5,2|0,0:2|0:0,0:0:0:0:
240,320,119133,1,2,0:3:0:0:
144,112,119364,2,0,L|80:80,1,47.5,0|2,0:0|0:2,0:0:0:0:
16,208,119594,2,0,L|160:192,1,142.5,0|0,0:0|0:0,0:0:0:0:
256,240,120056,2,0,L|240:64,1,142.5,2|2,0:3|0:2,0:0:0:0:
320,48,120518,5,0,0:0:0:0:
368,64,120633,1,0,0:0:0:0:
416,80,120748,1,2,0:2:0:0:
464,96,120864,1,0,0:0:0:0:
496,176,120979,2,0,L|464:256,1,47.5,2|2,0:3|0:2,0:0:0:0:
384,192,121210,2,0,L|400:272,1,47.5
160,256,121441,2,0,P|224:256|320:224,1,142.5,2|2,0:2|0:2,0:0:0:0:
176,160,121902,2,0,P|109:187|32:192,1,142.5,2|0,0:3|0:0,0:0:0:0:
0,112,122364,5,2,0:2:0:0:
416,48,122710,1,0,0:0:0:0:
352,112,122825,2,0,P|327:161|320:240,1,95,2|0,0:3|0:0,0:0:0:0:
368,272,123171,1,2,0:2:0:0:
304,336,123287,2,0,L|224:352,1,47.5,0|2,0:0|0:2,0:0:0:0:
176,320,123518,2,0,L|96:336,1,47.5
48,240,123748,2,0,P|128:240|208:208,1,142.5,2|2,0:3|0:2,0:0:0:0:
240,144,124210,5,0,0:0:0:0:
480,32,124441,2,0,L|448:112,1,47.5,0|2,0:0|0:2,0:0:0:0:
368,112,124671,2,0,P|405:182|416:256,1,142.5,2|0,0:3|0:0,0:0:0:0:
464,336,125133,2,0,L|336:336,1,95
256,192,125594,12,4,126056,0:0:0:0:
