osu file format v14

[General]
AudioFilename: m2u.mp3
AudioLeadIn: 1500
PreviewTime: 81692
Countdown: 0
SampleSet: None
StackLeniency: 0.7
Mode: 3
LetterboxInBreaks: 0
SpecialStyle: 0
WidescreenStoryboard: 0

[Editor]
DistanceSpacing: 1
BeatDivisor: 16
GridSize: 16
TimelineZoom: 1.8

[Metadata]
Title:Hades In The Heaven
TitleUnicode:Hades In The Heaven
Artist:Gentle Stick & M2U
ArtistUnicode:Gentle Stick & M2U
Creator:Fullerene-
Version:Ascension
Source:O2jam U
Tags:
BeatmapID:777354
BeatmapSetID:352758

[Difficulty]
HPDrainRate:8
CircleSize:4
OverallDifficulty:5.5
ApproachRate:9
SliderMultiplier:1.4
SliderTickRate:1

[Events]
//Background and Video events
0,0,"hades.png",0,0
//Break Periods
//Storyboard Layer 0 (Background)
//Storyboard Layer 1 (Fail)
//Storyboard Layer 2 (Pass)
//Storyboard Layer 3 (Foreground)
//Storyboard Sound Samples

[TimingPoints]
519.878,461.538,4,1,0,15,1,0

[HitObjects]
64,0,519,5,0,0:0:0:0:
320,0,519,1,0,0:0:0:0:
448,0,519,1,0,0:0:0:0:
64,0,750,1,0,0:0:0:0:
192,0,866,1,0,0:0:0:0:
64,0,1096,1,0,0:0:0:0:
192,0,1212,1,0,0:0:0:0:
64,0,1442,1,0,0:0:0:0:
192,0,1558,1,0,0:0:0:0:
64,0,1789,1,0,0:0:0:0:
192,0,1904,1,0,0:0:0:0:
64,0,2135,1,0,0:0:0:0:
192,0,2250,1,0,0:0:0:0:
192,0,2481,1,0,0:0:0:0:
320,0,2596,1,0,0:0:0:0:
192,0,2827,1,0,0:0:0:0:
320,0,2942,1,0,0:0:0:0:
192,0,3173,1,0,0:0:0:0:
320,0,3289,1,0,0:0:0:0:
320,0,3519,1,0,0:0:0:0:
448,0,3635,1,0,0:0:0:0:
320,0,3866,1,0,0:0:0:0:
192,0,3981,1,0,0:0:0:0:
64,0,4212,1,0,0:0:0:0:
64,0,4442,1,0,0:0:0:0:
192,0,4558,1,0,0:0:0:0:
64,0,4789,1,0,0:0:0:0:
192,0,4904,1,0,0:0:0:0:
64,0,5135,1,0,0:0:0:0:
320,0,5250,1,0,0:0:0:0:
64,0,5481,1,0,0:0:0:0:
320,0,5596,1,0,0:0:0:0:
64,0,5827,1,0,0:0:0:0:
320,0,5942,1,0,0:0:0:0:
64,0,6173,1,0,0:0:0:0:
320,0,6289,1,0,0:0:0:0:
64,0,6519,1,0,0:0:0:0:
448,0,6635,1,0,0:0:0:0:
64,0,6866,1,0,0:0:0:0:
192,0,6981,128,0,7039:0:0:0:0:
448,0,6981,1,0,0:0:0:0:
320,0,7212,1,0,0:0:0:0:
448,0,7327,1,0,0:0:0:0:
320,0,7558,1,0,0:0:0:0:
192,0,7673,1,0,0:0:0:0:
64,0,7904,1,0,0:0:0:0:
64,0,8135,1,0,0:0:0:0:
192,0,8250,1,0,0:0:0:0:
64,0,8481,1,0,0:0:0:0:
192,0,8596,1,0,0:0:0:0:
64,0,8827,1,0,0:0:0:0:
320,0,8942,1,0,0:0:0:0:
64,0,9173,1,0,0:0:0:0:
320,0,9289,1,0,0:0:0:0:
64,0,9519,1,0,0:0:0:0:
320,0,9635,1,0,0:0:0:0:
192,0,9866,1,0,0:0:0:0:
320,0,9981,1,0,0:0:0:0:
192,0,10212,1,0,0:0:0:0:
320,0,10327,1,0,0:0:0:0:
192,0,10558,1,0,0:0:0:0:
448,0,10673,1,0,0:0:0:0:
320,0,10904,1,0,0:0:0:0:
448,0,11019,1,0,0:0:0:0:
320,0,11250,1,0,0:0:0:0:
192,0,11366,1,0,0:0:0:0:
64,0,11596,1,0,0:0:0:0:
320,0,11596,1,0,0:0:0:0:
64,0,11827,1,0,0:0:0:0:
192,0,11942,1,0,0:0:0:0:
448,0,11942,1,0,0:0:0:0:
64,0,12173,1,0,0:0:0:0:
192,0,12289,1,0,0:0:0:0:
448,0,12289,1,0,0:0:0:0:
64,0,12519,1,0,0:0:0:0:
320,0,12635,1,0,0:0:0:0:
448,0,12635,1,0,0:0:0:0:
64,0,12866,1,0,0:0:0:0:
320,0,12981,1,0,0:0:0:0:
448,0,12981,1,0,0:0:0:0:
192,0,13212,1,0,0:0:0:0:
64,0,13327,1,0,0:0:0:0:
320,0,13327,1,0,0:0:0:0:
64,0,13558,1,0,0:0:0:0:
192,0,13673,1,0,0:0:0:0:
192,0,13789,1,0,0:0:0:0:
192,0,13904,1,0,0:0:0:0:
192,0,14019,1,0,0:0:0:0:
192,0,14135,1,0,0:0:0:0:
320,0,14192,1,0,0:0:0:0:
448,0,14250,1,0,0:0:0:0:
448,0,14366,1,0,0:0:0:0:
448,0,14481,1,0,0:0:0:0:
448,0,14596,1,0,0:0:0:0:
448,0,14712,1,0,0:0:0:0:
64,0,14827,1,0,0:0:0:0:
448,0,14827,1,0,0:0:0:0:
320,0,14866,1,0,0:0:0:0:
192,0,14904,128,0,15135:0:0:0:0:
64,0,15173,1,0,0:0:0:0:
192,0,15212,1,0,0:0:0:0:
320,0,15250,1,0,0:0:0:0:
64,0,15289,1,0,0:0:0:0:
448,0,15289,128,0,15692:0:0:0:0:
192,0,15366,1,0,0:0:0:0:
320,0,15442,1,0,0:0:0:0:
192,0,15519,1,0,0:0:0:0:
64,0,15750,1,0,0:0:0:0:
192,192,15779,128,0,15837:0:0:0:0:
448,0,15866,1,0,0:0:0:0:
320,192,15894,128,0,15952:0:0:0:0:
64,0,15981,1,0,0:0:0:0:
192,192,16010,128,0,16067:0:0:0:0:
448,0,16096,1,0,0:0:0:0:
320,192,16125,128,0,16183:0:0:0:0:
64,0,16212,128,0,16673:0:0:0:0:
192,0,16212,1,0,0:0:0:0:
320,0,16289,1,0,0:0:0:0:
192,0,16366,1,0,0:0:0:0:
320,0,16442,1,0,0:0:0:0:
448,0,16673,1,0,0:0:0:0:
320,0,16712,1,0,0:0:0:0:
192,0,16750,1,0,0:0:0:0:
64,0,16789,1,0,0:0:0:0:
448,0,16904,1,0,0:0:0:0:
64,0,17019,1,0,0:0:0:0:
192,0,17077,1,0,0:0:0:0:
320,0,17135,1,0,0:0:0:0:
448,192,17164,128,0,17221:0:0:0:0:
192,0,17250,1,0,0:0:0:0:
64,192,17279,128,0,17337:0:0:0:0:
448,0,17366,1,0,0:0:0:0:
320,192,17394,128,0,17452:0:0:0:0:
64,0,17481,1,0,0:0:0:0:
192,192,17510,128,0,17567:0:0:0:0:
320,0,17596,1,0,0:0:0:0:
448,192,17625,128,0,17683:0:0:0:0:
64,0,17712,1,0,0:0:0:0:
192,192,17741,128,0,17798:0:0:0:0:
448,0,17827,1,0,0:0:0:0:
320,192,17856,128,0,17914:0:0:0:0:
192,0,17942,1,0,0:0:0:0:
64,192,17971,128,0,18029:0:0:0:0:
320,0,18058,1,0,0:0:0:0:
448,0,18058,1,0,0:0:0:0:
192,0,18116,1,0,0:0:0:0:
64,0,18289,1,0,0:0:0:0:
192,0,18346,1,0,0:0:0:0:
320,0,18404,1,0,0:0:0:0:
448,0,18442,1,0,0:0:0:0:
64,0,18481,1,0,0:0:0:0:
192,0,18519,1,0,0:0:0:0:
320,0,18519,1,0,0:0:0:0:
320,192,18750,128,0,18808:0:0:0:0:
64,192,18808,128,0,18866:0:0:0:0:
192,192,18866,128,0,18923:0:0:0:0:
320,192,18923,128,0,18981:0:0:0:0:
64,0,18981,1,0,0:0:0:0:
448,0,18981,128,0,19385:0:0:0:0:
192,0,19058,1,0,0:0:0:0:
320,0,19135,1,0,0:0:0:0:
192,0,19212,1,0,0:0:0:0:
64,0,19442,1,0,0:0:0:0:
320,192,19471,128,0,19529:0:0:0:0:
192,0,19558,1,0,0:0:0:0:
448,192,19587,128,0,19644:0:0:0:0:
64,0,19673,1,0,0:0:0:0:
320,192,19702,128,0,19760:0:0:0:0:
192,0,19789,1,0,0:0:0:0:
448,192,19817,128,0,19875:0:0:0:0:
64,0,19904,128,0,20366:0:0:0:0:
320,0,19904,1,0,0:0:0:0:
192,0,19981,1,0,0:0:0:0:
320,0,20058,1,0,0:0:0:0:
192,0,20135,1,0,0:0:0:0:
320,0,20366,1,0,0:0:0:0:
448,0,20404,1,0,0:0:0:0:
192,0,20442,1,0,0:0:0:0:
64,0,20481,1,0,0:0:0:0:
320,0,20596,1,0,0:0:0:0:
192,0,20712,1,0,0:0:0:0:
320,0,20769,1,0,0:0:0:0:
448,0,20827,1,0,0:0:0:0:
64,192,20856,128,0,20914:0:0:0:0:
320,0,20942,1,0,0:0:0:0:
192,192,20971,128,0,21029:0:0:0:0:
448,0,21058,1,0,0:0:0:0:
64,192,21087,128,0,21144:0:0:0:0:
192,0,21173,1,0,0:0:0:0:
320,192,21202,128,0,21260:0:0:0:0:
64,0,21289,1,0,0:0:0:0:
448,192,21317,128,0,21375:0:0:0:0:
192,0,21404,1,0,0:0:0:0:
320,192,21433,128,0,21491:0:0:0:0:
448,0,21519,1,0,0:0:0:0:
64,192,21548,128,0,21606:0:0:0:0:
320,0,21635,1,0,0:0:0:0:
192,192,21664,128,0,21721:0:0:0:0:
448,0,21750,1,0,0:0:0:0:
64,0,21808,1,0,0:0:0:0:
320,0,21981,1,0,0:0:0:0:
64,0,22039,1,0,0:0:0:0:
448,0,22096,1,0,0:0:0:0:
192,0,22154,1,0,0:0:0:0:
64,0,22212,1,0,0:0:0:0:
320,0,22212,1,0,0:0:0:0:
448,0,22250,1,0,0:0:0:0:
192,0,22289,1,0,0:0:0:0:
64,192,22442,128,0,22500:0:0:0:0:
192,192,22500,128,0,22558:0:0:0:0:
320,192,22558,128,0,22616:0:0:0:0:
448,192,22616,128,0,22673:0:0:0:0:
64,0,22673,128,0,23077:0:0:0:0:
192,0,22673,1,0,0:0:0:0:
320,0,22750,1,0,0:0:0:0:
192,0,22827,1,0,0:0:0:0:
320,0,22904,1,0,0:0:0:0:
448,0,23135,1,0,0:0:0:0:
320,192,23164,128,0,23221:0:0:0:0:
64,0,23250,1,0,0:0:0:0:
192,192,23279,128,0,23337:0:0:0:0:
448,0,23366,1,0,0:0:0:0:
320,192,23394,128,0,23452:0:0:0:0:
64,0,23481,1,0,0:0:0:0:
192,192,23510,128,0,23567:0:0:0:0:
320,0,23596,1,0,0:0:0:0:
448,0,23596,128,0,24058:0:0:0:0:
192,0,23673,1,0,0:0:0:0:
320,0,23750,1,0,0:0:0:0:
192,0,23827,1,0,0:0:0:0:
64,0,24058,1,0,0:0:0:0:
192,0,24096,1,0,0:0:0:0:
320,0,24135,1,0,0:0:0:0:
448,0,24173,1,0,0:0:0:0:
192,0,24289,1,0,0:0:0:0:
448,0,24404,1,0,0:0:0:0:
320,0,24462,1,0,0:0:0:0:
192,0,24519,1,0,0:0:0:0:
64,192,24548,128,0,24606:0:0:0:0:
320,0,24635,1,0,0:0:0:0:
448,192,24664,128,0,24721:0:0:0:0:
64,0,24750,1,0,0:0:0:0:
192,192,24779,128,0,24837:0:0:0:0:
448,0,24866,1,0,0:0:0:0:
320,192,24894,128,0,24952:0:0:0:0:
192,0,24981,1,0,0:0:0:0:
64,192,25010,128,0,25067:0:0:0:0:
448,0,25096,1,0,0:0:0:0:
320,192,25125,128,0,25183:0:0:0:0:
64,0,25212,1,0,0:0:0:0:
192,192,25241,128,0,25298:0:0:0:0:
320,0,25327,1,0,0:0:0:0:
448,192,25356,128,0,25414:0:0:0:0:
64,0,25442,1,0,0:0:0:0:
192,0,25442,1,0,0:0:0:0:
320,0,25500,1,0,0:0:0:0:
448,0,25673,1,0,0:0:0:0:
320,0,25731,1,0,0:0:0:0:
192,0,25789,1,0,0:0:0:0:
64,0,25827,1,0,0:0:0:0:
448,0,25866,1,0,0:0:0:0:
192,0,25904,1,0,0:0:0:0:
320,0,25904,1,0,0:0:0:0:
192,192,26135,128,0,26192:0:0:0:0:
448,192,26192,128,0,26250:0:0:0:0:
320,192,26250,128,0,26308:0:0:0:0:
192,192,26308,128,0,26366:0:0:0:0:
64,0,26366,128,0,26769:0:0:0:0:
448,0,26366,1,0,0:0:0:0:
320,0,26442,1,0,0:0:0:0:
192,0,26519,1,0,0:0:0:0:
320,0,26596,1,0,0:0:0:0:
448,0,26827,1,0,0:0:0:0:
192,192,26856,128,0,26914:0:0:0:0:
320,0,26942,1,0,0:0:0:0:
64,192,26971,128,0,27029:0:0:0:0:
448,0,27058,1,0,0:0:0:0:
192,192,27087,128,0,27144:0:0:0:0:
320,0,27173,1,0,0:0:0:0:
64,192,27202,128,0,27260:0:0:0:0:
192,0,27289,1,0,0:0:0:0:
448,0,27289,128,0,27750:0:0:0:0:
320,0,27366,1,0,0:0:0:0:
192,0,27442,1,0,0:0:0:0:
320,0,27519,1,0,0:0:0:0:
192,0,27750,1,0,0:0:0:0:
64,0,27789,1,0,0:0:0:0:
320,0,27827,1,0,0:0:0:0:
448,0,27866,1,0,0:0:0:0:
192,0,27981,1,0,0:0:0:0:
320,0,28096,1,0,0:0:0:0:
448,0,28154,1,0,0:0:0:0:
64,0,28212,128,0,28673:0:0:0:0:
192,0,28212,1,0,0:0:0:0:
320,0,28289,1,0,0:0:0:0:
448,0,28366,1,0,0:0:0:0:
320,0,28442,1,0,0:0:0:0:
192,0,28519,1,0,0:0:0:0:
320,0,28673,1,0,0:0:0:0:
448,0,28673,128,0,29135:0:0:0:0:
192,0,28750,1,0,0:0:0:0:
64,0,28827,1,0,0:0:0:0:
192,0,28904,1,0,0:0:0:0:
320,0,28981,1,0,0:0:0:0:
64,0,29135,128,0,29596:0:0:0:0:
192,0,29135,1,0,0:0:0:0:
320,0,29212,1,0,0:0:0:0:
448,0,29289,1,0,0:0:0:0:
320,0,29366,1,0,0:0:0:0:
192,0,29442,1,0,0:0:0:0:
320,0,29596,1,0,0:0:0:0:
448,0,29596,128,0,30058:0:0:0:0:
192,0,29673,1,0,0:0:0:0:
64,0,29750,1,0,0:0:0:0:
192,0,29827,1,0,0:0:0:0:
320,0,29885,1,0,0:0:0:0:
64,0,29942,1,0,0:0:0:0:
192,0,30000,1,0,0:0:0:0:
64,0,30058,1,0,0:0:0:0:
320,0,30058,1,0,0:0:0:0:
192,0,30135,1,0,0:0:0:0:
320,0,30212,1,0,0:0:0:0:
448,0,30289,1,0,0:0:0:0:
320,0,30366,1,0,0:0:0:0:
192,0,30442,1,0,0:0:0:0:
320,0,30519,1,0,0:0:0:0:
64,192,30548,128,0,30606:0:0:0:0:
320,0,30635,1,0,0:0:0:0:
64,192,30664,128,0,30721:0:0:0:0:
320,0,30750,1,0,0:0:0:0:
64,192,30779,128,0,30837:0:0:0:0:
320,0,30866,1,0,0:0:0:0:
64,192,30894,128,0,30952:0:0:0:0:
192,0,30981,1,0,0:0:0:0:
448,0,30981,1,0,0:0:0:0:
320,0,31058,1,0,0:0:0:0:
192,0,31135,1,0,0:0:0:0:
64,0,31212,1,0,0:0:0:0:
192,0,31289,1,0,0:0:0:0:
320,0,31366,1,0,0:0:0:0:
64,0,31442,1,0,0:0:0:0:
192,0,31442,128,0,31789:0:0:0:0:
320,0,31789,1,0,0:0:0:0:
192,0,31846,1,0,0:0:0:0:
64,0,31904,1,0,0:0:0:0:
448,192,31933,128,0,31991:0:0:0:0:
64,0,32019,1,0,0:0:0:0:
448,192,32048,128,0,32106:0:0:0:0:
64,0,32135,1,0,0:0:0:0:
448,192,32164,128,0,32221:0:0:0:0:
64,0,32250,1,0,0:0:0:0:
448,192,32279,128,0,32337:0:0:0:0:
192,0,32366,1,0,0:0:0:0:
320,192,32394,128,0,32452:0:0:0:0:
192,0,32481,1,0,0:0:0:0:
320,192,32510,128,0,32567:0:0:0:0:
192,0,32596,1,0,0:0:0:0:
320,192,32625,128,0,32683:0:0:0:0:
192,0,32712,1,0,0:0:0:0:
320,192,32740,128,0,32798:0:0:0:0:
64,0,32827,1,0,0:0:0:0:
448,0,32827,1,0,0:0:0:0:
320,0,32904,1,0,0:0:0:0:
64,0,32981,1,0,0:0:0:0:
192,0,33058,1,0,0:0:0:0:
64,0,33116,1,0,0:0:0:0:
320,0,33173,1,0,0:0:0:0:
192,0,33231,1,0,0:0:0:0:
320,0,33289,1,0,0:0:0:0:
448,0,33289,1,0,0:0:0:0:
320,192,33519,128,0,33577:0:0:0:0:
448,192,33577,128,0,33635:0:0:0:0:
192,192,33635,128,0,33692:0:0:0:0:
320,192,33692,128,0,33750:0:0:0:0:
64,0,33750,1,0,0:0:0:0:
192,0,33750,1,0,0:0:0:0:
448,0,33827,1,0,0:0:0:0:
64,0,33904,1,0,0:0:0:0:
192,0,33981,1,0,0:0:0:0:
64,0,34058,1,0,0:0:0:0:
448,0,34135,1,0,0:0:0:0:
64,0,34212,1,0,0:0:0:0:
320,192,34240,128,0,34298:0:0:0:0:
64,0,34327,1,0,0:0:0:0:
320,192,34356,128,0,34414:0:0:0:0:
64,0,34442,1,0,0:0:0:0:
320,192,34471,128,0,34529:0:0:0:0:
64,0,34558,1,0,0:0:0:0:
320,192,34587,128,0,34644:0:0:0:0:
192,0,34673,1,0,0:0:0:0:
448,0,34673,1,0,0:0:0:0:
64,0,34750,1,0,0:0:0:0:
448,0,34827,1,0,0:0:0:0:
320,0,34904,1,0,0:0:0:0:
448,0,34981,1,0,0:0:0:0:
64,0,35058,1,0,0:0:0:0:
320,0,35135,1,0,0:0:0:0:
448,0,35135,128,0,35481:0:0:0:0:
64,0,35481,1,0,0:0:0:0:
448,0,35539,1,0,0:0:0:0:
192,0,35596,1,0,0:0:0:0:
320,0,35673,1,0,0:0:0:0:
192,0,35750,1,0,0:0:0:0:
64,0,35827,1,0,0:0:0:0:
64,0,36058,1,0,0:0:0:0:
448,0,36058,1,0,0:0:0:0:
192,0,36087,1,0,0:0:0:0:
320,0,36116,1,0,0:0:0:0:
64,0,36289,1,0,0:0:0:0:
448,0,36289,1,0,0:0:0:0:
320,0,36317,1,0,0:0:0:0:
192,0,36346,1,0,0:0:0:0:
64,0,36519,1,0,0:0:0:0:
320,0,36577,1,0,0:0:0:0:
192,0,36750,1,0,0:0:0:0:
448,0,36808,1,0,0:0:0:0:
320,0,36866,1,0,0:0:0:0:
64,0,36923,1,0,0:0:0:0:
192,0,36981,1,0,0:0:0:0:
448,0,36981,1,0,0:0:0:0:
64,0,37096,1,0,0:0:0:0:
320,0,37096,1,0,0:0:0:0:
64,0,37212,1,0,0:0:0:0:
320,0,37212,1,0,0:0:0:0:
64,0,37327,1,0,0:0:0:0:
320,0,37327,1,0,0:0:0:0:
192,0,37442,1,0,0:0:0:0:
448,0,37442,1,0,0:0:0:0:
320,0,37519,1,0,0:0:0:0:
192,0,37596,1,0,0:0:0:0:
64,0,37673,1,0,0:0:0:0:
192,0,37750,1,0,0:0:0:0:
320,0,37827,1,0,0:0:0:0:
192,0,37904,1,0,0:0:0:0:
448,192,37933,128,0,37990:0:0:0:0:
192,0,38019,1,0,0:0:0:0:
448,192,38048,128,0,38106:0:0:0:0:
192,0,38135,1,0,0:0:0:0:
448,192,38164,128,0,38221:0:0:0:0:
192,0,38250,1,0,0:0:0:0:
448,192,38279,128,0,38337:0:0:0:0:
64,0,38366,1,0,0:0:0:0:
320,0,38366,1,0,0:0:0:0:
192,0,38442,1,0,0:0:0:0:
320,0,38519,1,0,0:0:0:0:
448,0,38596,1,0,0:0:0:0:
320,0,38673,1,0,0:0:0:0:
192,0,38750,1,0,0:0:0:0:
320,0,38827,128,0,39173:0:0:0:0:
448,0,38827,1,0,0:0:0:0:
192,0,39173,1,0,0:0:0:0:
320,0,39231,1,0,0:0:0:0:
448,0,39289,1,0,0:0:0:0:
64,192,39317,128,0,39375:0:0:0:0:
320,0,39404,1,0,0:0:0:0:
192,192,39433,128,0,39490:0:0:0:0:
448,0,39519,1,0,0:0:0:0:
64,192,39548,128,0,39606:0:0:0:0:
448,0,39635,1,0,0:0:0:0:
64,192,39664,128,0,39721:0:0:0:0:
320,0,39750,1,0,0:0:0:0:
192,192,39779,128,0,39837:0:0:0:0:
320,0,39866,1,0,0:0:0:0:
192,192,39894,128,0,39952:0:0:0:0:
320,0,39981,1,0,0:0:0:0:
192,192,40010,128,0,40067:0:0:0:0:
320,0,40096,1,0,0:0:0:0:
192,192,40125,128,0,40183:0:0:0:0:
64,0,40212,1,0,0:0:0:0:
448,0,40212,1,0,0:0:0:0:
192,0,40289,1,0,0:0:0:0:
448,0,40366,1,0,0:0:0:0:
320,0,40442,1,0,0:0:0:0:
448,0,40500,1,0,0:0:0:0:
192,0,40558,1,0,0:0:0:0:
320,0,40616,1,0,0:0:0:0:
64,0,40673,1,0,0:0:0:0:
192,0,40673,1,0,0:0:0:0:
192,192,40904,128,0,40962:0:0:0:0:
64,192,40962,128,0,41019:0:0:0:0:
320,192,41019,128,0,41077:0:0:0:0:
192,192,41077,128,0,41135:0:0:0:0:
320,0,41135,1,0,0:0:0:0:
448,0,41135,1,0,0:0:0:0:
64,0,41212,1,0,0:0:0:0:
448,0,41289,1,0,0:0:0:0:
320,0,41366,1,0,0:0:0:0:
448,0,41442,1,0,0:0:0:0:
64,0,41519,1,0,0:0:0:0:
448,0,41596,1,0,0:0:0:0:
192,192,41625,128,0,41683:0:0:0:0:
448,0,41712,1,0,0:0:0:0:
192,192,41740,128,0,41798:0:0:0:0:
192,0,41741,1,0,0:0:0:0:
448,0,41827,1,0,0:0:0:0:
192,192,41856,128,0,41914:0:0:0:0:
448,0,41942,1,0,0:0:0:0:
192,192,41971,128,0,42029:0:0:0:0:
64,0,42058,1,0,0:0:0:0:
320,0,42058,1,0,0:0:0:0:
448,0,42135,1,0,0:0:0:0:
64,0,42212,1,0,0:0:0:0:
192,0,42289,1,0,0:0:0:0:
64,0,42366,1,0,0:0:0:0:
448,0,42442,1,0,0:0:0:0:
64,0,42519,1,0,0:0:0:0:
192,0,42519,128,0,42866:0:0:0:0:
448,0,42866,1,0,0:0:0:0:
320,0,42923,1,0,0:0:0:0:
64,0,42981,128,0,43442:0:0:0:0:
192,0,42981,1,0,0:0:0:0:
320,0,43058,1,0,0:0:0:0:
448,0,43135,1,0,0:0:0:0:
320,0,43212,1,0,0:0:0:0:
192,0,43289,1,0,0:0:0:0:
320,0,43442,1,0,0:0:0:0:
448,0,43442,128,0,43904:0:0:0:0:
192,0,43519,1,0,0:0:0:0:
64,0,43596,1,0,0:0:0:0:
192,0,43673,1,0,0:0:0:0:
320,0,43750,1,0,0:0:0:0:
64,0,43904,128,0,44366:0:0:0:0:
192,0,43904,1,0,0:0:0:0:
320,0,43981,1,0,0:0:0:0:
448,0,44058,1,0,0:0:0:0:
320,0,44135,1,0,0:0:0:0:
192,0,44212,1,0,0:0:0:0:
448,0,44366,128,0,44827:0:0:0:0:
320,0,44404,1,0,0:0:0:0:
192,0,44442,1,0,0:0:0:0:
64,0,44481,1,0,0:0:0:0:
192,0,44712,1,0,0:0:0:0:
64,0,44827,1,0,0:0:0:0:
320,0,44827,1,0,0:0:0:0:
64,0,45173,1,0,0:0:0:0:
320,0,45173,1,0,0:0:0:0:
64,0,45519,1,0,0:0:0:0:
320,0,45519,1,0,0:0:0:0:
64,0,45866,1,0,0:0:0:0:
320,0,45866,1,0,0:0:0:0:
64,0,46212,1,0,0:0:0:0:
320,0,46212,1,0,0:0:0:0:
64,0,46558,1,0,0:0:0:0:
320,0,46558,1,0,0:0:0:0:
192,0,46904,1,0,0:0:0:0:
320,0,46904,1,0,0:0:0:0:
192,0,47250,1,0,0:0:0:0:
320,0,47250,1,0,0:0:0:0:
192,0,47596,1,0,0:0:0:0:
448,0,47596,1,0,0:0:0:0:
320,0,47942,1,0,0:0:0:0:
448,0,47942,1,0,0:0:0:0:
192,0,48289,1,0,0:0:0:0:
320,0,48289,1,0,0:0:0:0:
64,0,48519,1,0,0:0:0:0:
192,0,48519,1,0,0:0:0:0:
64,0,48866,1,0,0:0:0:0:
192,0,48866,1,0,0:0:0:0:
64,0,49212,1,0,0:0:0:0:
192,0,49212,1,0,0:0:0:0:
64,0,49558,1,0,0:0:0:0:
320,0,49558,1,0,0:0:0:0:
64,0,49904,1,0,0:0:0:0:
320,0,49904,1,0,0:0:0:0:
64,0,50250,1,0,0:0:0:0:
320,0,50250,1,0,0:0:0:0:
64,0,50596,1,0,0:0:0:0:
320,0,50596,1,0,0:0:0:0:
64,0,50942,1,0,0:0:0:0:
320,0,50942,1,0,0:0:0:0:
192,0,51289,1,0,0:0:0:0:
448,0,51289,1,0,0:0:0:0:
192,0,51635,1,0,0:0:0:0:
448,0,51635,1,0,0:0:0:0:
64,0,51981,1,0,0:0:0:0:
192,0,51981,1,0,0:0:0:0:
64,0,52212,1,0,0:0:0:0:
192,0,52212,1,0,0:0:0:0:
64,0,52558,1,0,0:0:0:0:
192,0,52558,1,0,0:0:0:0:
64,0,52904,1,0,0:0:0:0:
192,0,52904,1,0,0:0:0:0:
64,0,53250,1,0,0:0:0:0:
320,0,53250,1,0,0:0:0:0:
64,0,53596,1,0,0:0:0:0:
320,0,53596,1,0,0:0:0:0:
64,0,53942,1,0,0:0:0:0:
320,0,53942,1,0,0:0:0:0:
192,0,54289,1,0,0:0:0:0:
320,0,54289,1,0,0:0:0:0:
192,0,54635,1,0,0:0:0:0:
320,0,54635,1,0,0:0:0:0:
192,0,54981,1,0,0:0:0:0:
448,0,54981,1,0,0:0:0:0:
320,0,55327,1,0,0:0:0:0:
448,0,55327,1,0,0:0:0:0:
192,0,55673,1,0,0:0:0:0:
320,0,55673,1,0,0:0:0:0:
64,0,55904,1,0,0:0:0:0:
192,0,55904,1,0,0:0:0:0:
64,0,56250,1,0,0:0:0:0:
192,0,56250,1,0,0:0:0:0:
64,0,56481,1,0,0:0:0:0:
64,0,56596,1,0,0:0:0:0:
192,0,56596,1,0,0:0:0:0:
192,0,56712,1,0,0:0:0:0:
64,0,56942,1,0,0:0:0:0:
192,0,56942,1,0,0:0:0:0:
192,0,57058,1,0,0:0:0:0:
192,0,57289,1,0,0:0:0:0:
320,0,57289,1,0,0:0:0:0:
192,0,57635,1,0,0:0:0:0:
320,0,57635,1,0,0:0:0:0:
448,0,57750,1,0,0:0:0:0:
320,0,57866,1,0,0:0:0:0:
192,0,57981,1,0,0:0:0:0:
448,0,57981,1,0,0:0:0:0:
64,0,58096,1,0,0:0:0:0:
320,0,58212,1,0,0:0:0:0:
192,0,58327,1,0,0:0:0:0:
448,0,58327,1,0,0:0:0:0:
64,0,58442,1,0,0:0:0:0:
192,0,58558,1,0,0:0:0:0:
64,0,58673,1,0,0:0:0:0:
448,0,58673,1,0,0:0:0:0:
64,0,58789,1,0,0:0:0:0:
64,0,58904,1,0,0:0:0:0:
64,0,59019,1,0,0:0:0:0:
448,0,59019,1,0,0:0:0:0:
64,0,59135,1,0,0:0:0:0:
64,0,59250,1,0,0:0:0:0:
64,0,59366,1,0,0:0:0:0:
320,0,59366,1,0,0:0:0:0:
64,0,59481,1,0,0:0:0:0:
64,0,59596,1,0,0:0:0:0:
320,0,59596,1,0,0:0:0:0:
448,0,59596,1,0,0:0:0:0:
192,0,59827,1,0,0:0:0:0:
64,0,60058,1,0,0:0:0:0:
448,0,60058,1,0,0:0:0:0:
320,0,60289,1,0,0:0:0:0:
64,0,60519,1,0,0:0:0:0:
448,0,60519,1,0,0:0:0:0:
192,0,60750,1,0,0:0:0:0:
64,0,60981,1,0,0:0:0:0:
448,0,60981,1,0,0:0:0:0:
320,0,61212,1,0,0:0:0:0:
64,0,61442,1,0,0:0:0:0:
448,0,61442,1,0,0:0:0:0:
192,0,61673,1,0,0:0:0:0:
64,0,61904,1,0,0:0:0:0:
448,0,61904,1,0,0:0:0:0:
320,0,62135,1,0,0:0:0:0:
64,0,62366,1,0,0:0:0:0:
448,0,62366,1,0,0:0:0:0:
192,0,62596,1,0,0:0:0:0:
64,0,62827,1,0,0:0:0:0:
448,0,62827,1,0,0:0:0:0:
320,0,63058,1,0,0:0:0:0:
64,0,63173,1,0,0:0:0:0:
448,0,63173,1,0,0:0:0:0:
64,0,63289,1,0,0:0:0:0:
448,0,63289,1,0,0:0:0:0:
192,0,63519,1,0,0:0:0:0:
64,0,63750,1,0,0:0:0:0:
448,0,63750,1,0,0:0:0:0:
320,0,63981,1,0,0:0:0:0:
64,0,64212,1,0,0:0:0:0:
448,0,64212,1,0,0:0:0:0:
192,0,64442,1,0,0:0:0:0:
64,0,64673,1,0,0:0:0:0:
448,0,64673,1,0,0:0:0:0:
320,0,64904,1,0,0:0:0:0:
64,0,65135,1,0,0:0:0:0:
448,0,65135,1,0,0:0:0:0:
192,0,65366,1,0,0:0:0:0:
64,0,65596,1,0,0:0:0:0:
448,0,65596,1,0,0:0:0:0:
320,0,65827,1,0,0:0:0:0:
64,0,66058,1,0,0:0:0:0:
448,0,66058,1,0,0:0:0:0:
192,0,66289,1,0,0:0:0:0:
192,0,66404,1,0,0:0:0:0:
320,0,66404,1,0,0:0:0:0:
64,0,66519,1,0,0:0:0:0:
448,0,66519,1,0,0:0:0:0:
192,0,66750,1,0,0:0:0:0:
320,0,66750,1,0,0:0:0:0:
64,0,66866,1,0,0:0:0:0:
448,0,66866,1,0,0:0:0:0:
64,0,66981,1,0,0:0:0:0:
448,0,66981,1,0,0:0:0:0:
192,0,67096,1,0,0:0:0:0:
64,0,67442,1,0,0:0:0:0:
448,0,67442,1,0,0:0:0:0:
320,0,67558,1,0,0:0:0:0:
320,0,67673,1,0,0:0:0:0:
320,0,67789,1,0,0:0:0:0:
64,0,67904,1,0,0:0:0:0:
448,0,67904,1,0,0:0:0:0:
192,0,68019,1,0,0:0:0:0:
192,0,68135,1,0,0:0:0:0:
64,0,68366,1,0,0:0:0:0:
448,0,68366,1,0,0:0:0:0:
320,0,68481,1,0,0:0:0:0:
320,0,68596,1,0,0:0:0:0:
320,0,68712,1,0,0:0:0:0:
64,0,68827,1,0,0:0:0:0:
448,0,68827,1,0,0:0:0:0:
192,0,68942,1,0,0:0:0:0:
192,0,69058,1,0,0:0:0:0:
64,0,69289,1,0,0:0:0:0:
448,0,69289,1,0,0:0:0:0:
320,0,69404,1,0,0:0:0:0:
320,0,69635,1,0,0:0:0:0:
64,0,69750,1,0,0:0:0:0:
448,0,69750,1,0,0:0:0:0:
192,0,69866,1,0,0:0:0:0:
192,0,69981,1,0,0:0:0:0:
192,0,70096,1,0,0:0:0:0:
64,0,70212,1,0,0:0:0:0:
448,0,70212,1,0,0:0:0:0:
320,0,70327,1,0,0:0:0:0:
320,0,70442,1,0,0:0:0:0:
64,0,70558,1,0,0:0:0:0:
448,0,70558,1,0,0:0:0:0:
64,0,70673,1,0,0:0:0:0:
448,0,70673,1,0,0:0:0:0:
64,0,71019,1,0,0:0:0:0:
192,0,71019,1,0,0:0:0:0:
320,0,71135,1,0,0:0:0:0:
448,0,71135,1,0,0:0:0:0:
64,0,71366,1,0,0:0:0:0:
320,0,71366,1,0,0:0:0:0:
64,0,71596,1,0,0:0:0:0:
448,0,71596,1,0,0:0:0:0:
192,0,71712,1,0,0:0:0:0:
320,0,71712,1,0,0:0:0:0:
64,0,71942,1,0,0:0:0:0:
320,0,71942,1,0,0:0:0:0:
192,0,72058,1,0,0:0:0:0:
448,0,72058,1,0,0:0:0:0:
64,0,72289,1,0,0:0:0:0:
192,0,72289,1,0,0:0:0:0:
320,0,72404,1,0,0:0:0:0:
448,0,72404,1,0,0:0:0:0:
320,0,72519,1,0,0:0:0:0:
192,0,72635,1,0,0:0:0:0:
64,0,72750,1,0,0:0:0:0:
192,0,72750,1,0,0:0:0:0:
448,0,72866,1,0,0:0:0:0:
448,0,72981,1,0,0:0:0:0:
64,0,73096,1,0,0:0:0:0:
320,0,73096,1,0,0:0:0:0:
64,0,73212,1,0,0:0:0:0:
192,0,73327,1,0,0:0:0:0:
192,0,73442,1,0,0:0:0:0:
320,0,73442,1,0,0:0:0:0:
448,0,73558,1,0,0:0:0:0:
448,0,73673,1,0,0:0:0:0:
320,0,73789,1,0,0:0:0:0:
192,0,73904,1,0,0:0:0:0:
320,0,73904,1,0,0:0:0:0:
64,0,74019,1,0,0:0:0:0:
64,0,74135,1,0,0:0:0:0:
192,0,74250,1,0,0:0:0:0:
192,0,74366,1,0,0:0:0:0:
320,0,74366,1,0,0:0:0:0:
64,0,74481,1,0,0:0:0:0:
448,0,74481,1,0,0:0:0:0:
320,0,74596,1,0,0:0:0:0:
192,0,74712,1,0,0:0:0:0:
448,0,74712,1,0,0:0:0:0:
320,0,74827,1,0,0:0:0:0:
64,0,74942,1,0,0:0:0:0:
448,0,74942,1,0,0:0:0:0:
64,0,75058,1,0,0:0:0:0:
320,0,75058,1,0,0:0:0:0:
64,0,75173,1,0,0:0:0:0:
448,0,75173,1,0,0:0:0:0:
320,0,75289,1,0,0:0:0:0:
64,0,75404,1,0,0:0:0:0:
448,0,75404,1,0,0:0:0:0:
64,0,75519,1,0,0:0:0:0:
320,0,75519,1,0,0:0:0:0:
448,0,75635,1,0,0:0:0:0:
64,0,75750,1,0,0:0:0:0:
320,0,75750,1,0,0:0:0:0:
64,0,75866,1,0,0:0:0:0:
448,0,75866,1,0,0:0:0:0:
64,0,75981,1,0,0:0:0:0:
320,0,75981,1,0,0:0:0:0:
64,0,76096,1,0,0:0:0:0:
448,0,76096,1,0,0:0:0:0:
192,0,76212,1,0,0:0:0:0:
320,0,76212,1,0,0:0:0:0:
64,0,76327,1,0,0:0:0:0:
448,0,76327,1,0,0:0:0:0:
64,0,76442,1,0,0:0:0:0:
320,0,76442,1,0,0:0:0:0:
192,0,76558,1,0,0:0:0:0:
448,0,76558,1,0,0:0:0:0:
64,0,76673,1,0,0:0:0:0:
320,0,76673,1,0,0:0:0:0:
64,0,76789,1,0,0:0:0:0:
448,0,76789,1,0,0:0:0:0:
320,0,76904,1,0,0:0:0:0:
64,0,77019,1,0,0:0:0:0:
448,0,77019,1,0,0:0:0:0:
320,0,77135,1,0,0:0:0:0:
64,0,77250,1,0,0:0:0:0:
448,0,77250,1,0,0:0:0:0:
64,0,77366,1,0,0:0:0:0:
320,0,77366,1,0,0:0:0:0:
64,0,77481,1,0,0:0:0:0:
448,0,77481,1,0,0:0:0:0:
320,0,77596,1,0,0:0:0:0:
64,0,77712,1,0,0:0:0:0:
448,0,77712,1,0,0:0:0:0:
64,0,77827,1,0,0:0:0:0:
320,0,77827,1,0,0:0:0:0:
448,0,77942,1,0,0:0:0:0:
192,0,78058,1,0,0:0:0:0:
320,0,78058,1,0,0:0:0:0:
448,0,78116,1,0,0:0:0:0:
64,0,78173,1,0,0:0:0:0:
192,0,78231,1,0,0:0:0:0:
320,0,78289,1,0,0:0:0:0:
64,0,78346,1,0,0:0:0:0:
192,0,78404,1,0,0:0:0:0:
320,0,78462,1,0,0:0:0:0:
448,0,78519,1,0,0:0:0:0:
192,0,78577,1,0,0:0:0:0:
320,0,78635,1,0,0:0:0:0:
448,0,78692,1,0,0:0:0:0:
64,0,78750,1,0,0:0:0:0:
192,0,78808,1,0,0:0:0:0:
320,0,78866,1,0,0:0:0:0:
64,0,78923,1,0,0:0:0:0:
192,0,78981,1,0,0:0:0:0:
448,0,78981,1,0,0:0:0:0:
320,0,79039,1,0,0:0:0:0:
64,0,79096,1,0,0:0:0:0:
448,0,79154,1,0,0:0:0:0:
192,0,79212,1,0,0:0:0:0:
320,0,79269,1,0,0:0:0:0:
64,0,79327,1,0,0:0:0:0:
192,0,79385,1,0,0:0:0:0:
320,0,79442,1,0,0:0:0:0:
448,0,79500,1,0,0:0:0:0:
192,0,79558,1,0,0:0:0:0:
64,0,79616,1,0,0:0:0:0:
320,0,79673,1,0,0:0:0:0:
192,0,79731,1,0,0:0:0:0:
448,0,79789,1,0,0:0:0:0:
320,0,79846,1,0,0:0:0:0:
64,0,79904,1,0,0:0:0:0:
192,0,79904,1,0,0:0:0:0:
448,0,79962,1,0,0:0:0:0:
320,0,80019,1,0,0:0:0:0:
64,0,80077,1,0,0:0:0:0:
192,0,80135,1,0,0:0:0:0:
320,0,80192,1,0,0:0:0:0:
448,0,80250,1,0,0:0:0:0:
192,0,80308,1,0,0:0:0:0:
64,0,80366,1,0,0:0:0:0:
320,0,80366,1,0,0:0:0:0:
448,0,80423,1,0,0:0:0:0:
192,0,80481,1,0,0:0:0:0:
320,0,80539,1,0,0:0:0:0:
64,0,80596,1,0,0:0:0:0:
192,0,80654,1,0,0:0:0:0:
320,0,80712,1,0,0:0:0:0:
448,0,80769,1,0,0:0:0:0:
64,0,80827,1,0,0:0:0:0:
192,0,80827,1,0,0:0:0:0:
320,0,80885,1,0,0:0:0:0:
448,0,80942,1,0,0:0:0:0:
192,0,81000,1,0,0:0:0:0:
64,0,81058,1,0,0:0:0:0:
320,0,81058,1,0,0:0:0:0:
448,0,81116,1,0,0:0:0:0:
192,0,81173,1,0,0:0:0:0:
320,0,81231,1,0,0:0:0:0:
64,0,81289,1,0,0:0:0:0:
448,0,81289,1,0,0:0:0:0:
320,0,81327,1,0,0:0:0:0:
192,0,81366,128,0,81673:0:0:0:0:
320,0,81692,1,0,0:0:0:0:
64,0,81750,1,0,0:0:0:0:
448,0,81750,1,0,0:0:0:0:
192,0,81789,1,0,0:0:0:0:
320,0,81827,1,0,0:0:0:0:
448,0,81866,1,0,0:0:0:0:
192,0,81923,1,0,0:0:0:0:
64,0,81981,1,0,0:0:0:0:
320,0,82019,1,0,0:0:0:0:
448,0,82058,1,0,0:0:0:0:
192,0,82096,1,0,0:0:0:0:
320,0,82154,1,0,0:0:0:0:
64,0,82212,1,0,0:0:0:0:
448,0,82250,1,0,0:0:0:0:
320,0,82289,1,0,0:0:0:0:
192,0,82327,1,0,0:0:0:0:
64,0,82385,1,0,0:0:0:0:
448,0,82442,1,0,0:0:0:0:
320,0,82481,1,0,0:0:0:0:
64,0,82519,1,0,0:0:0:0:
192,0,82558,1,0,0:0:0:0:
448,0,82616,1,0,0:0:0:0:
64,0,82673,1,0,0:0:0:0:
192,0,82712,1,0,0:0:0:0:
320,0,82750,1,0,0:0:0:0:
64,0,82789,1,0,0:0:0:0:
448,0,82846,1,0,0:0:0:0:
320,0,82904,1,0,0:0:0:0:
192,0,82962,1,0,0:0:0:0:
64,0,83019,1,0,0:0:0:0:
448,0,83058,1,0,0:0:0:0:
320,0,83096,1,0,0:0:0:0:
192,0,83135,1,0,0:0:0:0:
320,0,83366,1,0,0:0:0:0:
64,0,83404,1,0,0:0:0:0:
448,0,83442,1,0,0:0:0:0:
192,0,83481,1,0,0:0:0:0:
320,0,83539,1,0,0:0:0:0:
64,0,83596,1,0,0:0:0:0:
192,0,83635,1,0,0:0:0:0:
320,0,83673,1,0,0:0:0:0:
448,0,83712,1,0,0:0:0:0:
64,0,83769,1,0,0:0:0:0:
192,0,83827,1,0,0:0:0:0:
448,0,83866,1,0,0:0:0:0:
64,0,83904,1,0,0:0:0:0:
320,0,83942,1,0,0:0:0:0:
192,0,84000,1,0,0:0:0:0:
448,0,84058,1,0,0:0:0:0:
64,0,84096,1,0,0:0:0:0:
320,0,84135,1,0,0:0:0:0:
192,0,84173,1,0,0:0:0:0:
64,0,84231,1,0,0:0:0:0:
320,192,84289,128,0,84346:0:0:0:0:
192,192,84346,128,0,84404:0:0:0:0:
320,192,84404,128,0,84462:0:0:0:0:
192,192,84462,128,0,84519:0:0:0:0:
448,0,84519,1,0,0:0:0:0:
320,0,84558,1,0,0:0:0:0:
64,0,84596,1,0,0:0:0:0:
192,0,84635,1,0,0:0:0:0:
448,0,84692,1,0,0:0:0:0:
320,0,84750,1,0,0:0:0:0:
192,0,84808,1,0,0:0:0:0:
64,0,84866,1,0,0:0:0:0:
320,0,84904,1,0,0:0:0:0:
448,0,84942,1,0,0:0:0:0:
192,0,84981,1,0,0:0:0:0:
64,0,85212,1,0,0:0:0:0:
448,0,85250,1,0,0:0:0:0:
320,0,85289,1,0,0:0:0:0:
192,0,85327,1,0,0:0:0:0:
448,0,85385,1,0,0:0:0:0:
64,0,85442,1,0,0:0:0:0:
192,0,85481,1,0,0:0:0:0:
320,0,85519,1,0,0:0:0:0:
448,0,85558,1,0,0:0:0:0:
64,0,85616,1,0,0:0:0:0:
192,0,85673,1,0,0:0:0:0:
320,0,85712,1,0,0:0:0:0:
448,0,85750,1,0,0:0:0:0:
64,0,85789,1,0,0:0:0:0:
320,0,85846,1,0,0:0:0:0:
192,0,85904,1,0,0:0:0:0:
448,0,85942,1,0,0:0:0:0:
64,0,85981,1,0,0:0:0:0:
320,0,86019,1,0,0:0:0:0:
192,0,86077,1,0,0:0:0:0:
448,0,86135,1,0,0:0:0:0:
64,0,86173,1,0,0:0:0:0:
320,0,86212,1,0,0:0:0:0:
192,0,86250,1,0,0:0:0:0:
64,0,86308,1,0,0:0:0:0:
448,0,86366,1,0,0:0:0:0:
320,0,86404,1,0,0:0:0:0:
192,0,86442,1,0,0:0:0:0:
64,0,86481,1,0,0:0:0:0:
448,0,86539,1,0,0:0:0:0:
192,0,86596,1,0,0:0:0:0:
320,0,86654,1,0,0:0:0:0:
64,0,86712,1,0,0:0:0:0:
192,0,86750,1,0,0:0:0:0:
320,0,86789,1,0,0:0:0:0:
448,0,86827,1,0,0:0:0:0:
448,0,87058,1,0,0:0:0:0:
192,0,87096,1,0,0:0:0:0:
320,0,87135,1,0,0:0:0:0:
64,0,87173,1,0,0:0:0:0:
448,0,87231,1,0,0:0:0:0:
320,0,87289,1,0,0:0:0:0:
192,0,87327,1,0,0:0:0:0:
64,0,87366,1,0,0:0:0:0:
448,0,87404,1,0,0:0:0:0:
192,0,87462,1,0,0:0:0:0:
320,0,87519,1,0,0:0:0:0:
448,0,87558,1,0,0:0:0:0:
64,0,87596,1,0,0:0:0:0:
192,0,87635,1,0,0:0:0:0:
448,0,87692,1,0,0:0:0:0:
320,0,87750,1,0,0:0:0:0:
64,0,87789,1,0,0:0:0:0:
192,0,87827,1,0,0:0:0:0:
320,0,87981,1,0,0:0:0:0:
448,0,88019,1,0,0:0:0:0:
192,0,88058,1,0,0:0:0:0:
64,0,88212,1,0,0:0:0:0:
320,0,88250,1,0,0:0:0:0:
448,0,88289,1,0,0:0:0:0:
192,0,88327,1,0,0:0:0:0:
64,0,88385,1,0,0:0:0:0:
448,0,88442,1,0,0:0:0:0:
320,0,88500,1,0,0:0:0:0:
64,0,88558,1,0,0:0:0:0:
192,0,88596,1,0,0:0:0:0:
320,0,88635,1,0,0:0:0:0:
448,0,88673,1,0,0:0:0:0:
64,0,88904,1,0,0:0:0:0:
192,0,88942,1,0,0:0:0:0:
320,0,88981,1,0,0:0:0:0:
448,0,89019,1,0,0:0:0:0:
192,0,89077,1,0,0:0:0:0:
64,0,89135,1,0,0:0:0:0:
448,0,89173,1,0,0:0:0:0:
192,0,89212,1,0,0:0:0:0:
320,0,89250,1,0,0:0:0:0:
64,0,89308,1,0,0:0:0:0:
192,0,89366,1,0,0:0:0:0:
448,0,89404,1,0,0:0:0:0:
64,0,89442,1,0,0:0:0:0:
320,0,89481,1,0,0:0:0:0:
192,0,89539,1,0,0:0:0:0:
448,0,89596,1,0,0:0:0:0:
64,0,89635,1,0,0:0:0:0:
192,0,89673,1,0,0:0:0:0:
320,0,89712,1,0,0:0:0:0:
448,0,89769,1,0,0:0:0:0:
64,0,89827,1,0,0:0:0:0:
192,0,89866,1,0,0:0:0:0:
320,0,89904,1,0,0:0:0:0:
64,0,89942,1,0,0:0:0:0:
192,0,90000,1,0,0:0:0:0:
448,0,90058,1,0,0:0:0:0:
320,0,90096,1,0,0:0:0:0:
64,0,90135,1,0,0:0:0:0:
448,0,90173,1,0,0:0:0:0:
192,0,90231,1,0,0:0:0:0:
64,0,90289,1,0,0:0:0:0:
320,0,90346,1,0,0:0:0:0:
448,0,90404,1,0,0:0:0:0:
192,0,90442,1,0,0:0:0:0:
64,0,90481,1,0,0:0:0:0:
320,0,90519,1,0,0:0:0:0:
192,0,90750,1,0,0:0:0:0:
448,0,90789,1,0,0:0:0:0:
64,0,90827,1,0,0:0:0:0:
320,0,90866,1,0,0:0:0:0:
192,0,90923,1,0,0:0:0:0:
448,0,90981,1,0,0:0:0:0:
320,0,91019,1,0,0:0:0:0:
192,0,91058,1,0,0:0:0:0:
64,0,91096,1,0,0:0:0:0:
448,0,91154,1,0,0:0:0:0:
320,0,91212,1,0,0:0:0:0:
64,0,91250,1,0,0:0:0:0:
448,0,91289,1,0,0:0:0:0:
192,0,91327,1,0,0:0:0:0:
320,0,91385,1,0,0:0:0:0:
64,0,91442,1,0,0:0:0:0:
448,0,91481,1,0,0:0:0:0:
192,0,91519,1,0,0:0:0:0:
320,0,91558,1,0,0:0:0:0:
448,0,91616,1,0,0:0:0:0:
192,192,91673,128,0,91731:0:0:0:0:
320,192,91731,128,0,91789:0:0:0:0:
192,192,91789,128,0,91846:0:0:0:0:
320,192,91846,128,0,91904:0:0:0:0:
64,0,91904,1,0,0:0:0:0:
192,0,91942,1,0,0:0:0:0:
448,0,91981,1,0,0:0:0:0:
320,0,92019,1,0,0:0:0:0:
64,0,92077,1,0,0:0:0:0:
192,0,92135,1,0,0:0:0:0:
320,0,92192,1,0,0:0:0:0:
448,0,92250,1,0,0:0:0:0:
192,0,92289,1,0,0:0:0:0:
64,0,92327,1,0,0:0:0:0:
320,0,92366,1,0,0:0:0:0:
64,0,92596,1,0,0:0:0:0:
192,0,92635,1,0,0:0:0:0:
320,0,92673,1,0,0:0:0:0:
448,0,92712,1,0,0:0:0:0:
64,0,92750,1,0,0:0:0:0:
192,0,92789,1,0,0:0:0:0:
448,0,92827,1,0,0:0:0:0:
320,0,92866,1,0,0:0:0:0:
192,0,92904,1,0,0:0:0:0:
64,0,92942,1,0,0:0:0:0:
448,0,93000,1,0,0:0:0:0:
320,0,93058,1,0,0:0:0:0:
192,0,93096,1,0,0:0:0:0:
64,0,93135,1,0,0:0:0:0:
448,0,93173,1,0,0:0:0:0:
192,0,93231,1,0,0:0:0:0:
320,0,93289,1,0,0:0:0:0:
64,0,93327,1,0,0:0:0:0:
448,0,93366,1,0,0:0:0:0:
192,0,93404,1,0,0:0:0:0:
320,0,93462,1,0,0:0:0:0:
64,0,93519,1,0,0:0:0:0:
448,0,93558,1,0,0:0:0:0:
192,0,93596,1,0,0:0:0:0:
320,0,93635,1,0,0:0:0:0:
448,0,93692,1,0,0:0:0:0:
64,0,93750,1,0,0:0:0:0:
192,0,93789,1,0,0:0:0:0:
320,0,93827,1,0,0:0:0:0:
448,0,93866,1,0,0:0:0:0:
64,0,93923,1,0,0:0:0:0:
320,0,93981,1,0,0:0:0:0:
192,0,94039,1,0,0:0:0:0:
448,0,94096,1,0,0:0:0:0:
320,0,94135,1,0,0:0:0:0:
192,0,94173,1,0,0:0:0:0:
64,0,94212,1,0,0:0:0:0:
64,0,94442,1,0,0:0:0:0:
320,0,94481,1,0,0:0:0:0:
192,0,94519,1,0,0:0:0:0:
448,0,94558,1,0,0:0:0:0:
64,0,94616,1,0,0:0:0:0:
192,0,94673,1,0,0:0:0:0:
320,0,94712,1,0,0:0:0:0:
448,0,94750,1,0,0:0:0:0:
64,0,94789,1,0,0:0:0:0:
320,0,94846,1,0,0:0:0:0:
192,0,94904,1,0,0:0:0:0:
64,0,94942,1,0,0:0:0:0:
448,0,94981,1,0,0:0:0:0:
320,0,95019,1,0,0:0:0:0:
64,0,95077,1,0,0:0:0:0:
192,0,95135,1,0,0:0:0:0:
448,0,95173,1,0,0:0:0:0:
320,0,95212,1,0,0:0:0:0:
192,0,95366,1,0,0:0:0:0:
64,0,95404,1,0,0:0:0:0:
320,0,95442,1,0,0:0:0:0:
448,0,95596,1,0,0:0:0:0:
192,0,95635,1,0,0:0:0:0:
64,0,95673,1,0,0:0:0:0:
320,0,95712,1,0,0:0:0:0:
448,0,95769,1,0,0:0:0:0:
64,0,95827,1,0,0:0:0:0:
192,0,95885,1,0,0:0:0:0:
448,0,95942,1,0,0:0:0:0:
320,0,95981,1,0,0:0:0:0:
192,0,96019,1,0,0:0:0:0:
64,0,96058,1,0,0:0:0:0:
448,0,96289,1,0,0:0:0:0:
320,0,96327,1,0,0:0:0:0:
192,0,96366,1,0,0:0:0:0:
64,0,96404,1,0,0:0:0:0:
64,0,96519,1,0,0:0:0:0:
448,0,96519,1,0,0:0:0:0:
320,0,96558,1,0,0:0:0:0:
192,0,96596,1,0,0:0:0:0:
448,0,96635,1,0,0:0:0:0:
320,0,96692,1,0,0:0:0:0:
64,0,96750,1,0,0:0:0:0:
192,0,96789,1,0,0:0:0:0:
448,0,96827,1,0,0:0:0:0:
320,0,96866,1,0,0:0:0:0:
192,0,96923,1,0,0:0:0:0:
64,0,96981,1,0,0:0:0:0:
448,0,97019,1,0,0:0:0:0:
192,0,97058,1,0,0:0:0:0:
320,0,97096,1,0,0:0:0:0:
64,0,97154,1,0,0:0:0:0:
448,0,97212,1,0,0:0:0:0:
320,0,97250,1,0,0:0:0:0:
192,0,97289,1,0,0:0:0:0:
64,0,97327,1,0,0:0:0:0:
448,0,97385,1,0,0:0:0:0:
192,0,97442,1,0,0:0:0:0:
320,0,97481,1,0,0:0:0:0:
64,0,97519,1,0,0:0:0:0:
192,0,97558,1,0,0:0:0:0:
448,0,97616,1,0,0:0:0:0:
64,0,97673,1,0,0:0:0:0:
320,0,97731,1,0,0:0:0:0:
192,0,97789,1,0,0:0:0:0:
448,0,97827,1,0,0:0:0:0:
64,0,97866,1,0,0:0:0:0:
320,0,97904,1,0,0:0:0:0:
192,0,97981,1,0,0:0:0:0:
320,0,98058,1,0,0:0:0:0:
192,0,98135,1,0,0:0:0:0:
64,0,98173,1,0,0:0:0:0:
448,0,98212,1,0,0:0:0:0:
320,0,98250,1,0,0:0:0:0:
192,0,98308,1,0,0:0:0:0:
64,0,98366,1,0,0:0:0:0:
320,0,98404,1,0,0:0:0:0:
192,0,98442,1,0,0:0:0:0:
448,0,98481,1,0,0:0:0:0:
64,0,98539,1,0,0:0:0:0:
320,0,98596,1,0,0:0:0:0:
448,0,98635,1,0,0:0:0:0:
64,0,98673,1,0,0:0:0:0:
192,0,98712,1,0,0:0:0:0:
320,0,98769,1,0,0:0:0:0:
448,0,98827,1,0,0:0:0:0:
64,0,98866,1,0,0:0:0:0:
192,0,98904,1,0,0:0:0:0:
320,0,98942,1,0,0:0:0:0:
64,0,99000,1,0,0:0:0:0:
192,192,99058,128,0,99115:0:0:0:0:
320,192,99115,128,0,99173:0:0:0:0:
192,192,99173,128,0,99231:0:0:0:0:
320,192,99231,128,0,99289:0:0:0:0:
448,0,99289,1,0,0:0:0:0:
192,0,99327,1,0,0:0:0:0:
64,0,99366,1,0,0:0:0:0:
320,0,99404,1,0,0:0:0:0:
448,0,99462,1,0,0:0:0:0:
192,0,99519,1,0,0:0:0:0:
320,0,99577,1,0,0:0:0:0:
64,0,99635,1,0,0:0:0:0:
192,0,99673,1,0,0:0:0:0:
448,0,99712,1,0,0:0:0:0:
320,0,99750,1,0,0:0:0:0:
192,0,99827,1,0,0:0:0:0:
320,0,99904,1,0,0:0:0:0:
64,0,99981,1,0,0:0:0:0:
448,0,100019,1,0,0:0:0:0:
192,0,100058,1,0,0:0:0:0:
320,0,100096,1,0,0:0:0:0:
448,0,100154,1,0,0:0:0:0:
64,0,100212,1,0,0:0:0:0:
320,0,100250,1,0,0:0:0:0:
192,0,100289,1,0,0:0:0:0:
448,0,100327,1,0,0:0:0:0:
64,0,100385,1,0,0:0:0:0:
320,0,100442,1,0,0:0:0:0:
192,0,100481,1,0,0:0:0:0:
448,0,100519,1,0,0:0:0:0:
64,0,100558,1,0,0:0:0:0:
192,0,100616,1,0,0:0:0:0:
320,0,100673,1,0,0:0:0:0:
448,0,100712,1,0,0:0:0:0:
64,0,100750,1,0,0:0:0:0:
192,0,100789,1,0,0:0:0:0:
320,0,100846,1,0,0:0:0:0:
448,0,100904,1,0,0:0:0:0:
64,0,100942,1,0,0:0:0:0:
192,0,100981,1,0,0:0:0:0:
320,0,101019,1,0,0:0:0:0:
64,0,101077,1,0,0:0:0:0:
448,0,101135,1,0,0:0:0:0:
192,0,101173,1,0,0:0:0:0:
320,0,101212,1,0,0:0:0:0:
64,0,101250,1,0,0:0:0:0:
448,0,101308,1,0,0:0:0:0:
320,0,101366,1,0,0:0:0:0:
192,0,101423,1,0,0:0:0:0:
64,0,101481,1,0,0:0:0:0:
320,0,101519,1,0,0:0:0:0:
192,0,101558,1,0,0:0:0:0:
448,0,101596,1,0,0:0:0:0:
64,0,101673,1,0,0:0:0:0:
192,0,101750,1,0,0:0:0:0:
448,0,101827,1,0,0:0:0:0:
320,0,101866,1,0,0:0:0:0:
192,0,101904,1,0,0:0:0:0:
64,0,101942,1,0,0:0:0:0:
448,0,102000,1,0,0:0:0:0:
192,0,102058,1,0,0:0:0:0:
320,0,102096,1,0,0:0:0:0:
64,0,102135,1,0,0:0:0:0:
448,0,102173,1,0,0:0:0:0:
320,0,102231,1,0,0:0:0:0:
192,0,102289,1,0,0:0:0:0:
64,0,102327,1,0,0:0:0:0:
448,0,102366,1,0,0:0:0:0:
320,0,102404,1,0,0:0:0:0:
192,0,102462,1,0,0:0:0:0:
448,0,102519,1,0,0:0:0:0:
64,0,102558,1,0,0:0:0:0:
320,0,102596,1,0,0:0:0:0:
64,0,102750,1,0,0:0:0:0:
448,0,102789,1,0,0:0:0:0:
192,0,102827,1,0,0:0:0:0:
64,0,102981,1,0,0:0:0:0:
192,0,103019,1,0,0:0:0:0:
448,0,103058,1,0,0:0:0:0:
320,0,103096,1,0,0:0:0:0:
64,0,103154,1,0,0:0:0:0:
448,0,103212,1,0,0:0:0:0:
192,0,103269,1,0,0:0:0:0:
64,0,103327,1,0,0:0:0:0:
320,0,103366,1,0,0:0:0:0:
192,0,103404,1,0,0:0:0:0:
448,0,103442,1,0,0:0:0:0:
320,0,103519,1,0,0:0:0:0:
192,0,103596,1,0,0:0:0:0:
64,0,103673,1,0,0:0:0:0:
320,0,103712,1,0,0:0:0:0:
192,0,103750,1,0,0:0:0:0:
448,0,103789,1,0,0:0:0:0:
320,0,103846,1,0,0:0:0:0:
64,0,103904,1,0,0:0:0:0:
192,0,103942,1,0,0:0:0:0:
448,0,103981,1,0,0:0:0:0:
320,0,104019,1,0,0:0:0:0:
64,0,104077,1,0,0:0:0:0:
192,0,104135,1,0,0:0:0:0:
320,0,104173,1,0,0:0:0:0:
448,0,104212,1,0,0:0:0:0:
64,0,104250,1,0,0:0:0:0:
192,0,104308,1,0,0:0:0:0:
448,0,104366,1,0,0:0:0:0:
64,0,104404,1,0,0:0:0:0:
320,0,104442,1,0,0:0:0:0:
192,0,104481,1,0,0:0:0:0:
448,0,104539,1,0,0:0:0:0:
64,0,104596,1,0,0:0:0:0:
192,0,104635,1,0,0:0:0:0:
320,0,104673,1,0,0:0:0:0:
448,0,104712,1,0,0:0:0:0:
64,0,104769,1,0,0:0:0:0:
320,0,104827,1,0,0:0:0:0:
192,0,104866,1,0,0:0:0:0:
448,0,104904,1,0,0:0:0:0:
64,0,104942,1,0,0:0:0:0:
192,0,105000,1,0,0:0:0:0:
320,0,105058,1,0,0:0:0:0:
64,0,105116,1,0,0:0:0:0:
448,0,105173,1,0,0:0:0:0:
192,0,105212,1,0,0:0:0:0:
320,0,105250,1,0,0:0:0:0:
64,0,105289,1,0,0:0:0:0:
448,0,105366,1,0,0:0:0:0:
192,0,105442,1,0,0:0:0:0:
320,0,105519,1,0,0:0:0:0:
448,0,105558,1,0,0:0:0:0:
64,0,105596,1,0,0:0:0:0:
192,0,105635,1,0,0:0:0:0:
320,0,105692,1,0,0:0:0:0:
448,0,105750,1,0,0:0:0:0:
192,0,105789,1,0,0:0:0:0:
320,0,105827,1,0,0:0:0:0:
64,0,105866,1,0,0:0:0:0:
448,0,105923,1,0,0:0:0:0:
192,0,105981,1,0,0:0:0:0:
64,0,106019,1,0,0:0:0:0:
320,0,106058,1,0,0:0:0:0:
448,0,106096,1,0,0:0:0:0:
192,0,106154,1,0,0:0:0:0:
64,0,106212,1,0,0:0:0:0:
448,0,106250,1,0,0:0:0:0:
320,0,106289,1,0,0:0:0:0:
192,0,106327,1,0,0:0:0:0:
448,0,106385,1,0,0:0:0:0:
320,192,106442,128,0,106500:0:0:0:0:
192,192,106500,128,0,106558:0:0:0:0:
320,192,106558,128,0,106615:0:0:0:0:
192,192,106615,128,0,106673:0:0:0:0:
64,0,106673,1,0,0:0:0:0:
320,0,106712,1,0,0:0:0:0:
448,0,106750,1,0,0:0:0:0:
192,0,106789,1,0,0:0:0:0:
64,0,106846,1,0,0:0:0:0:
320,0,106904,1,0,0:0:0:0:
192,0,106962,1,0,0:0:0:0:
448,0,107019,1,0,0:0:0:0:
320,0,107058,1,0,0:0:0:0:
64,0,107096,1,0,0:0:0:0:
192,0,107135,1,0,0:0:0:0:
320,0,107212,1,0,0:0:0:0:
448,0,107289,1,0,0:0:0:0:
64,0,107366,1,0,0:0:0:0:
320,0,107404,1,0,0:0:0:0:
192,0,107442,1,0,0:0:0:0:
448,0,107481,1,0,0:0:0:0:
64,0,107519,1,0,0:0:0:0:
320,0,107558,1,0,0:0:0:0:
448,0,107596,1,0,0:0:0:0:
192,0,107635,1,0,0:0:0:0:
320,0,107673,1,0,0:0:0:0:
64,0,107712,1,0,0:0:0:0:
448,0,107769,1,0,0:0:0:0:
320,0,107827,1,0,0:0:0:0:
64,0,107866,1,0,0:0:0:0:
192,0,107904,1,0,0:0:0:0:
448,0,107942,1,0,0:0:0:0:
320,0,108000,1,0,0:0:0:0:
192,0,108058,1,0,0:0:0:0:
64,0,108096,1,0,0:0:0:0:
448,0,108135,1,0,0:0:0:0:
320,0,108173,1,0,0:0:0:0:
192,0,108231,1,0,0:0:0:0:
64,0,108289,1,0,0:0:0:0:
320,0,108327,1,0,0:0:0:0:
448,0,108366,1,0,0:0:0:0:
192,0,108404,1,0,0:0:0:0:
320,0,108462,1,0,0:0:0:0:
64,0,108519,1,0,0:0:0:0:
448,0,108558,1,0,0:0:0:0:
192,0,108596,1,0,0:0:0:0:
320,0,108635,1,0,0:0:0:0:
64,0,108692,1,0,0:0:0:0:
192,0,108750,1,0,0:0:0:0:
320,0,108808,1,0,0:0:0:0:
448,0,108866,1,0,0:0:0:0:
64,0,108904,1,0,0:0:0:0:
320,0,108942,1,0,0:0:0:0:
192,0,108981,1,0,0:0:0:0:
448,0,109058,1,0,0:0:0:0:
320,0,109135,1,0,0:0:0:0:
64,0,109212,1,0,0:0:0:0:
192,0,109250,1,0,0:0:0:0:
320,0,109289,1,0,0:0:0:0:
448,0,109327,1,0,0:0:0:0:
64,0,109385,1,0,0:0:0:0:
192,0,109442,1,0,0:0:0:0:
320,0,109481,1,0,0:0:0:0:
448,0,109519,1,0,0:0:0:0:
64,0,109558,1,0,0:0:0:0:
320,0,109596,1,0,0:0:0:0:
192,0,109635,1,0,0:0:0:0:
448,0,109673,1,0,0:0:0:0:
320,0,109731,1,0,0:0:0:0:
192,0,109789,1,0,0:0:0:0:
448,0,109827,1,0,0:0:0:0:
64,0,109866,1,0,0:0:0:0:
320,0,109904,1,0,0:0:0:0:
192,0,109942,1,0,0:0:0:0:
448,0,109981,1,0,0:0:0:0:
64,0,110019,1,0,0:0:0:0:
192,0,110077,1,0,0:0:0:0:
320,0,110135,1,0,0:0:0:0:
448,0,110173,1,0,0:0:0:0:
64,0,110212,1,0,0:0:0:0:
192,0,110250,1,0,0:0:0:0:
448,0,110289,1,0,0:0:0:0:
320,0,110327,1,0,0:0:0:0:
64,0,110366,1,0,0:0:0:0:
192,0,110423,1,0,0:0:0:0:
320,0,110481,1,0,0:0:0:0:
448,0,110519,1,0,0:0:0:0:
64,0,110558,1,0,0:0:0:0:
192,0,110596,1,0,0:0:0:0:
320,0,110654,1,0,0:0:0:0:
448,0,110712,1,0,0:0:0:0:
64,0,110750,1,0,0:0:0:0:
320,0,110789,1,0,0:0:0:0:
192,0,110827,1,0,0:0:0:0:
448,0,110885,1,0,0:0:0:0:
320,0,110942,1,0,0:0:0:0:
192,0,111000,1,0,0:0:0:0:
64,0,111058,1,0,0:0:0:0:
448,0,111096,1,0,0:0:0:0:
320,0,111135,1,0,0:0:0:0:
192,0,111173,1,0,0:0:0:0:
448,0,111212,1,0,0:0:0:0:
64,0,111250,1,0,0:0:0:0:
192,0,111289,1,0,0:0:0:0:
320,0,111289,128,0,111692:0:0:0:0:
448,0,111366,1,0,0:0:0:0:
64,0,111442,1,0,0:0:0:0:
448,0,111519,1,0,0:0:0:0:
192,0,111750,1,0,0:0:0:0:
448,192,111779,128,0,111837:0:0:0:0:
320,0,111866,1,0,0:0:0:0:
64,192,111894,128,0,111952:0:0:0:0:
192,0,111981,1,0,0:0:0:0:
448,192,112010,128,0,112067:0:0:0:0:
320,0,112096,1,0,0:0:0:0:
64,192,112125,128,0,112183:0:0:0:0:
192,0,112212,128,0,112673:0:0:0:0:
448,0,112212,1,0,0:0:0:0:
64,0,112289,1,0,0:0:0:0:
448,0,112366,1,0,0:0:0:0:
64,0,112442,1,0,0:0:0:0:
320,0,112673,1,0,0:0:0:0:
64,0,112712,1,0,0:0:0:0:
448,0,112750,1,0,0:0:0:0:
192,0,112789,1,0,0:0:0:0:
320,0,112904,1,0,0:0:0:0:
192,0,113019,1,0,0:0:0:0:
448,0,113077,1,0,0:0:0:0:
64,0,113135,1,0,0:0:0:0:
320,192,113163,128,0,113221:0:0:0:0:
448,0,113250,1,0,0:0:0:0:
192,192,113279,128,0,113337:0:0:0:0:
320,0,113366,1,0,0:0:0:0:
64,192,113394,128,0,113452:0:0:0:0:
192,0,113481,1,0,0:0:0:0:
448,192,113510,128,0,113567:0:0:0:0:
64,0,113596,1,0,0:0:0:0:
320,192,113625,128,0,113683:0:0:0:0:
192,0,113712,1,0,0:0:0:0:
448,192,113740,128,0,113798:0:0:0:0:
320,0,113827,1,0,0:0:0:0:
64,192,113856,128,0,113913:0:0:0:0:
448,0,113942,1,0,0:0:0:0:
192,192,113971,128,0,114029:0:0:0:0:
64,0,114058,1,0,0:0:0:0:
320,0,114058,1,0,0:0:0:0:
448,0,114116,1,0,0:0:0:0:
192,0,114289,1,0,0:0:0:0:
448,0,114346,1,0,0:0:0:0:
64,0,114404,1,0,0:0:0:0:
320,0,114442,1,0,0:0:0:0:
192,0,114481,1,0,0:0:0:0:
64,0,114519,1,0,0:0:0:0:
448,0,114519,1,0,0:0:0:0:
64,192,114750,128,0,114808:0:0:0:0:
192,192,114808,128,0,114865:0:0:0:0:
448,192,114865,128,0,114923:0:0:0:0:
64,192,114923,128,0,114981:0:0:0:0:
192,0,114981,1,0,0:0:0:0:
320,0,114981,128,0,115385:0:0:0:0:
448,0,115058,1,0,0:0:0:0:
64,0,115135,1,0,0:0:0:0:
448,0,115212,1,0,0:0:0:0:
192,0,115442,1,0,0:0:0:0:
64,192,115471,128,0,115529:0:0:0:0:
448,0,115558,1,0,0:0:0:0:
320,192,115587,128,0,115644:0:0:0:0:
192,0,115673,1,0,0:0:0:0:
64,192,115702,128,0,115760:0:0:0:0:
448,0,115789,1,0,0:0:0:0:
320,192,115817,128,0,115875:0:0:0:0:
64,0,115904,1,0,0:0:0:0:
192,0,115904,128,0,116366:0:0:0:0:
448,0,115981,1,0,0:0:0:0:
64,0,116058,1,0,0:0:0:0:
448,0,116135,1,0,0:0:0:0:
64,0,116366,1,0,0:0:0:0:
320,0,116404,1,0,0:0:0:0:
448,0,116442,1,0,0:0:0:0:
192,0,116481,1,0,0:0:0:0:
64,0,116596,1,0,0:0:0:0:
192,0,116712,1,0,0:0:0:0:
320,0,116769,1,0,0:0:0:0:
64,0,116827,128,0,117058:0:0:0:0:
448,0,116827,128,0,117058:0:0:0:0:
192,0,117058,1,0,0:0:0:0:
64,0,117289,1,0,0:0:0:0:
192,0,117289,1,0,0:0:0:0:
320,0,117317,1,0,0:0:0:0:
448,0,117346,1,0,0:0:0:0:
320,0,117519,1,0,0:0:0:0:
448,0,117519,1,0,0:0:0:0:
192,0,117548,1,0,0:0:0:0:
64,0,117577,1,0,0:0:0:0:
320,0,117750,1,0,0:0:0:0:
192,0,117808,1,0,0:0:0:0:
448,0,117981,1,0,0:0:0:0:
192,0,118039,1,0,0:0:0:0:
320,0,118096,1,0,0:0:0:0:
64,0,118154,1,0,0:0:0:0:
192,0,118212,1,0,0:0:0:0:
448,0,118212,1,0,0:0:0:0:
64,0,118327,1,0,0:0:0:0:
320,0,118327,1,0,0:0:0:0:
64,0,118442,1,0,0:0:0:0:
320,0,118442,1,0,0:0:0:0:
64,0,118558,1,0,0:0:0:0:
320,0,118558,1,0,0:0:0:0:
192,0,118673,128,0,119077:0:0:0:0:
448,0,118673,1,0,0:0:0:0:
64,0,118750,1,0,0:0:0:0:
448,0,118827,1,0,0:0:0:0:
64,0,118904,1,0,0:0:0:0:
320,0,119135,1,0,0:0:0:0:
64,192,119163,128,0,119221:0:0:0:0:
192,0,119250,1,0,0:0:0:0:
448,192,119279,128,0,119337:0:0:0:0:
320,0,119366,1,0,0:0:0:0:
64,192,119394,128,0,119452:0:0:0:0:
192,0,119481,1,0,0:0:0:0:
448,192,119510,128,0,119567:0:0:0:0:
64,0,119596,1,0,0:0:0:0:
320,0,119596,128,0,120058:0:0:0:0:
448,0,119673,1,0,0:0:0:0:
64,0,119750,1,0,0:0:0:0:
448,0,119827,1,0,0:0:0:0:
192,0,120058,1,0,0:0:0:0:
448,0,120096,1,0,0:0:0:0:
64,0,120135,1,0,0:0:0:0:
320,0,120173,1,0,0:0:0:0:
448,0,120289,1,0,0:0:0:0:
320,0,120404,1,0,0:0:0:0:
64,0,120462,1,0,0:0:0:0:
448,0,120519,1,0,0:0:0:0:
192,192,120548,128,0,120606:0:0:0:0:
64,0,120635,1,0,0:0:0:0:
320,192,120663,128,0,120721:0:0:0:0:
192,0,120750,1,0,0:0:0:0:
448,192,120779,128,0,120837:0:0:0:0:
320,0,120866,1,0,0:0:0:0:
64,192,120894,128,0,120952:0:0:0:0:
448,0,120981,1,0,0:0:0:0:
192,192,121010,128,0,121067:0:0:0:0:
320,0,121096,1,0,0:0:0:0:
64,192,121125,128,0,121183:0:0:0:0:
192,0,121212,1,0,0:0:0:0:
448,192,121240,128,0,121298:0:0:0:0:
64,0,121327,1,0,0:0:0:0:
320,192,121356,128,0,121413:0:0:0:0:
192,0,121442,1,0,0:0:0:0:
448,0,121442,1,0,0:0:0:0:
64,0,121500,1,0,0:0:0:0:
320,0,121673,1,0,0:0:0:0:
64,0,121731,1,0,0:0:0:0:
448,0,121789,1,0,0:0:0:0:
192,0,121827,1,0,0:0:0:0:
320,0,121866,1,0,0:0:0:0:
64,0,121904,1,0,0:0:0:0:
448,0,121904,1,0,0:0:0:0:
448,192,122135,128,0,122192:0:0:0:0:
320,192,122192,128,0,122250:0:0:0:0:
64,192,122250,128,0,122308:0:0:0:0:
448,192,122308,128,0,122365:0:0:0:0:
192,0,122366,128,0,122769:0:0:0:0:
320,0,122366,1,0,0:0:0:0:
64,0,122442,1,0,0:0:0:0:
448,0,122519,1,0,0:0:0:0:
64,0,122596,1,0,0:0:0:0:
320,0,122827,1,0,0:0:0:0:
448,192,122856,128,0,122913:0:0:0:0:
64,0,122942,1,0,0:0:0:0:
192,192,122971,128,0,123000:0:0:0:0:
320,0,123058,1,0,0:0:0:0:
448,192,123087,128,0,123144:0:0:0:0:
64,0,123173,1,0,0:0:0:0:
192,192,123202,128,0,123260:0:0:0:0:
320,0,123289,128,0,123750:0:0:0:0:
448,0,123289,1,0,0:0:0:0:
64,0,123366,1,0,0:0:0:0:
448,0,123442,1,0,0:0:0:0:
64,0,123519,1,0,0:0:0:0:
448,0,123750,1,0,0:0:0:0:
192,0,123789,1,0,0:0:0:0:
64,0,123827,1,0,0:0:0:0:
320,0,123866,1,0,0:0:0:0:
448,0,123981,1,0,0:0:0:0:
64,0,124096,1,0,0:0:0:0:
192,0,124154,1,0,0:0:0:0:
320,0,124212,1,0,0:0:0:0:
448,0,124289,1,0,0:0:0:0:
320,0,124366,1,0,0:0:0:0:
192,0,124442,1,0,0:0:0:0:
320,0,124673,1,0,0:0:0:0:
448,0,124673,1,0,0:0:0:0:
64,0,124750,1,0,0:0:0:0:
192,0,124750,1,0,0:0:0:0:
320,0,124827,1,0,0:0:0:0:
448,0,124827,1,0,0:0:0:0:
64,0,124904,1,0,0:0:0:0:
192,0,124904,1,0,0:0:0:0:
192,0,125019,1,0,0:0:0:0:
320,0,125019,1,0,0:0:0:0:
448,0,125135,1,0,0:0:0:0:
64,0,125192,1,0,0:0:0:0:
192,0,125250,1,0,0:0:0:0:
320,0,125308,1,0,0:0:0:0:
448,0,125366,1,0,0:0:0:0:
64,0,125423,1,0,0:0:0:0:
192,0,125481,1,0,0:0:0:0:
320,0,125539,1,0,0:0:0:0:
64,0,125596,1,0,0:0:0:0:
448,0,125596,1,0,0:0:0:0:
192,0,125673,1,0,0:0:0:0:
448,0,125673,1,0,0:0:0:0:
64,0,125750,1,0,0:0:0:0:
320,0,125750,1,0,0:0:0:0:
192,0,125827,128,0,125942:0:0:0:0:
448,0,125827,128,0,125942:0:0:0:0:
192,0,126019,1,0,0:0:0:0:
448,0,126019,1,0,0:0:0:0:
64,0,126058,1,0,0:0:0:0:
320,0,126058,1,0,0:0:0:0:
