osu file format v5

[General]
AudioFilename: Genki Rockets - Heavenly Star.mp3
AudioLeadIn: 0
PreviewTime: -1
Countdown: 1
SampleSet: Normal
StackLeniency: 0.7
Mode: 0
LetterboxInBreaks: 1

[Editor]
DistanceSpacing: 1
BeatDivisor: 4
GridSize: 8

[Metadata]
Title:Heavenly Star
Artist:Genki Rockets
Creator:Senbon
Version:Hard
Source:No More Heroes
Tags:animask No More Heroes

[Difficulty]
HPDrainRate:7
CircleSize:5
OverallDifficulty:7
SliderMultiplier:1.4
SliderTickRate:1

[Events]
//Background and Video events
0,0,"1439_medium.jpg"
//Break Periods
2,74190,76590
//Storyboard Layer 0 (Background)
//Storyboard Layer 1 (Fail)
//Storyboard Layer 2 (Pass)
//Storyboard Layer 3 (Foreground)
//Storyboard Sound Samples
//Background Colour Transformations
3,100,163,162,255

[TimingPoints]
494,500,4,2,0,100,1,0
33625,-200,4,2,0,100,0,0
35500,-100,4,2,0,100,0,0
38000,-100,4,1,1,100,0,1
53875,-100,4,1,1,100,0,0
54000,-100,4,1,1,100,0,1
69500,-200,4,1,1,100,0,1
75000,-100,4,2,0,100,0,0
96000,-100,4,1,1,100,0,1
111875,-100,4,2,0,100,0,0
112000,-100,4,1,1,100,0,1
131490,-100,4,1,1,100,0,0

[Colours]
Combo1 : 159,207,255
Combo2 : 128,0,255
Combo3 : 186,117,255
Combo4 : 72,164,255

[HitObjects]
152,56,3744,1,0
200,104,3994,1,2
248,56,4244,1,0
320,56,4494,1,0
320,128,4744,1,0
392,128,4994,1,2
432,184,5244,1,0
424,216,5369,1,0
392,232,5494,1,0
392,304,5744,5,0
320,304,5994,2,0,B|288:320|232:304,1,70,2|0
184,304,6494,2,0,B|152:272|160:224,1,70
216,200,6994,2,0,B|256:176|312:208,1,70,2|0
352,192,7494,2,0,B|384:160|368:112,1,70
368,56,7994,1,2
296,56,8244,1,0
168,64,8494,6,0,B|104:112,1,70
120,248,8994,2,0,B|192:312,1,70,2|0
320,288,9494,2,0,B|384:240,1,70
368,104,9994,2,0,B|320:24|256:104|224:152|248:24,1,210,2|0
104,40,11244,1,0
104,112,11494,1,0
104,184,11744,5,0
104,256,11994,2,0,B|136:288,2,35,2|0|0
104,184,12494,5,0
176,176,12744,2,0,B|224:240,1,70,2|0
288,224,13244,2,0,B|336:168,1,70,2|0
400,168,13744,2,0,B|464:232,1,70,2|0
400,168,14244,1,0
344,120,14494,1,2
272,120,14744,1,0
272,192,14994,1,2
248,216,15119,1,2
216,216,15244,1,2
184,200,15369,1,2
176,168,15494,1,2
176,96,15744,2,0,B|96:96,1,70,0|4
104,232,16494,6,0,B|104:336,1,70,2|0
232,248,16994,2,0,B|232:160,1,70,2|0
360,232,17494,2,0,B|360:336,1,70,2|0
488,248,17994,2,0,B|488:176,1,70,2|0
72,72,19744,5,0
104,56,19869,1,0
136,72,19994,1,2
168,56,20119,1,0
200,72,20244,1,0
336,72,20744,1,0
336,144,20994,2,0,B|392:200,2,70,2|0|0
272,168,21744,1,0
208,144,21994,2,0,L|176:208,2,70,2|0|0
120,152,22744,5,0
56,112,22994,1,2
120,72,23244,1,0
184,112,23494,1,0
192,248,23744,2,0,L|264:248,1,70,0|2
472,64,24494,2,2,L|508:3,1,70,2|2
432,200,24994,2,2,L|364:183,1,70
240,112,25494,2,2,L|168:176,1,70
48,152,25994,2,2,L|136:192,1,70
96,320,26494,2,0,L|144:304|184:320|184:272|224:272|224:232|264:232|264:184,1,280,0|4
424,24,27994,5,2
352,24,28244,1,0
288,64,28494,1,0
232,24,28744,1,0
184,72,28994,1,2
184,144,29244,1,0
248,168,29494,1,0
248,200,29619,1,0
248,232,29744,1,0
248,304,29994,5,2
248,232,30244,2,0,B|216:248|160:232,1,70
112,224,30744,2,0,B|64:208|88:144,1,70,0|2
80,96,31244,2,0,B|120:72|176:104,1,70
216,88,31744,2,0,B|248:56|232:8,1,70,0|2
304,24,32244,1,2
376,24,32494,1,4
376,160,32744,6,2,B|312:208,1,70,0|0
184,208,33244,2,2,B|256:272,1,70,0|0
319,255,33744,2,0,B|297:377|329:329|393:249|441:329,1,210,0|0
440,184,35744,5,0
440,184,35994,1,2
408,184,36119,1,0
376,184,36244,1,0
344,184,36369,1,0
312,184,36494,1,2
256,136,36744,1,10
184,136,36994,1,10
183,207,37244,2,0,L|115:223,1,70,10|10
112,80,37994,5,0
144,96,38119,1,0
176,80,38244,1,0
208,96,38369,1,0
240,80,38494,1,8
240,152,38744,1,0
312,152,38994,1,0
312,224,39244,1,0
240,224,39494,1,8
168,224,39744,2,0,L|192:272|240:256,2,70,0|0|0
128,280,40494,1,8
104,248,40619,1,0
80,216,40744,1,0
48,152,40994,1,0
120,152,41244,5,0
120,80,41494,1,8
120,80,41619,1,0
120,80,41744,1,0
192,80,41994,1,8
192,80,42119,1,0
192,80,42244,1,0
256,56,42494,1,0
288,64,42619,1,0
320,72,42744,1,0
376,112,42994,1,8
376,184,43244,2,8,L|408:224|376:248,1,70
320,232,43744,1,8
248,232,43994,2,8,L|224:264|168:248,1,70,8|0
136,232,44494,5,8
144,200,44619,1,0
152,168,44744,1,0
160,136,44869,1,0
168,104,44994,1,8
88,32,45369,1,0
184,32,45744,1,0
256,32,45994,2,0,L|304:56,2,35,8|0|0
248,64,46369,5,0
240,96,46494,1,0
232,128,46619,1,0
256,152,46744,1,0
280,176,46869,1,0
304,200,46994,1,8
344,256,47244,2,8,L|288:280|264:264,1,70
72,272,48244,5,0
16,224,48494,2,8,L|24:136,1,70,12|8
88,152,48994,2,8,L|80:72,1,70,12|8
152,80,49494,2,8,L|160:-8,1,70,12|8
224,16,49994,2,8,L|296:72,1,70,12|8
328,112,50494,2,0,L|384:160|352:200|352:224|320:216|288:224|288:200|256:160|304:120,1,350
328,56,51994,1,12
296,56,52119,1,0
264,56,52244,1,0
232,56,52369,1,0
200,56,52494,1,12
56,136,52994,6,8,L|88:184|120:152,2,70
256,48,53994,5,0
408,192,54244,1,0
256,336,54494,1,8
112,192,54744,1,8
144,192,54869,1,8
176,192,54994,1,8
208,208,55119,1,8
240,192,55244,1,8
312,192,55494,1,0
360,144,55744,1,0
360,72,55994,1,0
288,72,56244,5,8
256,88,56369,1,8
224,72,56494,1,8
192,88,56619,1,8
160,72,56744,1,8
128,72,56869,1,8
96,72,56994,1,8
16,192,57244,1,0
152,192,57494,5,12
152,264,57744,1,0
184,264,57869,1,0
216,264,57994,1,0
248,264,58119,1,0
280,264,58244,1,0
304,240,58369,1,0
328,216,58494,1,8
352,192,58619,5,0
376,160,58744,2,0,L|456:160,1,70
376,160,59244,1,0
447,160,59494,1,8
408,104,59744,1,0
408,32,59994,2,0,L|336:32,1,70
272,64,60494,2,0,L|192:64,1,70,12|0
128,64,60994,2,8,L|72:64|72:144,1,105,12|8
72,216,61744,2,8,L|72:304|200:304|200:224,1,280,8|12
72,216,62994,1,8
104,72,64494,6,0,L|128:120|168:104,2,70,0|0|8
240,72,65494,1,0
376,72,65994,2,0,L|424:96|392:128,2,70,0|0|8
88,272,67744,5,0
136,224,67994,1,4
184,272,68244,1,0
136,328,68494,1,0
88,272,68744,1,0
136,224,68994,1,4
184,272,69244,1,0
256,192,69494,12,0,73994
80,104,77494,6,2,B|104:136,4,35,2|2|2|2|6
48,168,78244,1,0
80,232,78494,1,0
152,248,78744,1,0
224,232,78994,1,2
256,168,79244,1,0
240,96,79494,1,0
176,72,79744,1,0
176,144,79994,2,0,B|176:304,1,140,2|0
248,288,80744,1,0
320,288,80994,1,2
352,288,81119,1,2
352,320,81244,1,2
384,320,81369,1,2
416,320,81494,1,2
488,320,81744,1,2
488,248,81994,1,4
400,128,82494,5,0
352,208,82744,1,0
272,168,82994,1,2
192,208,83244,1,0
272,256,83494,1,0
192,296,83744,1,2
192,112,84244,2,0,L|232:64|184:40|240:24,1,140,2|0
360,160,85994,6,0,L|312:96,1,70,2|0
392,160,86494,2,0,L|440:96,1,70,0|0
496,40,86994,1,2
432,104,87244,1,0
424,192,87494,1,0
336,192,87744,1,0
296,272,87994,2,0,L|296:344,2,70,2|0|0
208,288,88744,1,0
128,240,88994,6,0,L|96:192,4,35,2|0|0|0|2
72,168,89744,1,2
160,168,89994,1,0
424,96,90744,5,2
424,96,90994,1,0
424,96,91244,1,0
336,96,91494,1,0
336,184,91744,2,0,L|408:144|360:264|296:232,1,280,2|0
440,256,93744,5,0
440,184,93994,1,2
392,184,94119,1,0
344,184,94244,1,0
296,184,94369,1,0
248,184,94494,1,2
224,96,94744,5,0
304,64,94994,2,8,L|352:56|352:96,2,70
488,48,95994,5,0
488,136,96244,1,0
400,136,96494,1,12
400,224,96744,1,0
400,136,96994,1,0
312,136,97244,1,0
312,224,97494,1,12
224,224,97744,1,4
136,224,97994,5,0
224,224,98244,1,4
224,224,98369,1,4
224,224,98494,1,12
224,224,98619,1,4
272,224,98744,2,0,L|296:248|304:240|328:224,1,70
416,232,99244,1,0
384,144,99494,1,12
416,232,99744,1,4
328,232,99994,6,0,L|304:280|280:256,1,70,0|0
200,272,100494,1,12
128,216,100744,2,0,L|120:192|136:176,2,35,0|0|0
128,128,101244,1,0
200,72,101494,1,12
272,128,101744,1,0
272,216,101994,1,0
88,240,102494,5,8
136,240,102619,1,0
136,192,102744,1,0
88,192,102869,1,0
112,152,102994,1,0
248,152,103369,1,0
248,288,103744,1,0
336,272,103994,2,0,L|384:296,2,35,8|0|0
376,248,104369,5,0
392,208,104494,1,0
384,160,104619,1,0
344,136,104744,1,0
296,136,104869,1,0
256,160,104994,1,8
264,248,105244,2,8,L|208:272|184:256,1,70
376,56,106244,5,0
464,56,106494,1,12
424,136,106744,1,4
336,136,106994,1,4
152,144,107494,1,8
184,232,107744,1,4
96,240,107994,1,4
64,152,108244,1,4
88,64,108494,5,8
88,64,108619,1,0
88,64,108744,1,0
88,64,108869,1,0
88,64,108994,1,0
88,64,109119,1,0
88,64,109244,1,0
176,64,109494,1,8
416,192,110744,5,0
336,240,110994,2,0,B|304:208,2,35,8|0|0
328,136,111494,2,0,L|200:136|168:112,1,140,0|0
40,24,112494,5,8
128,0,112744,1,0
128,48,112869,1,0
128,96,112994,1,0
176,96,113119,1,0
224,96,113244,1,0
224,184,113494,1,8
224,96,113744,1,0
272,96,113869,1,0
272,144,113994,1,0
279,232,114244,2,0,L|386:232|410:208,1,140,8|0
104,64,115244,5,0
72,152,115494,1,8
48,192,115619,1,0
72,232,115744,1,0
160,232,115994,1,4
240,200,116244,2,0,L|288:232,2,35,0|0|8
240,112,116744,1,4
56,112,117244,1,0
88,192,117494,1,8
48,272,117744,1,4
136,272,117994,1,4
312,312,118494,6,0,L|368:272|304:256|352:224|352:168,1,245,8|4
440,72,119744,1,4
352,72,119994,2,0,L|312:112|288:80|168:80,1,210,12|0
174,80,120994,1,8
160,192,122494,5,12
160,280,122744,1,0
160,192,122994,1,4
248,192,123244,1,0
248,104,123494,1,12
248,192,123744,1,0
328,152,123994,2,0,L|424:152,1,70,4|0
376,240,124494,2,0,L|312:296,1,70,12|0
288,200,124994,2,0,L|232:144,1,70,4|0
304,88,125494,2,0,L|392:56,1,70,12|0
416,136,125994,1,0
416,224,126244,1,4
328,224,126494,1,8
256,160,126744,5,4
256,160,126869,1,0
256,160,126994,1,0
256,160,127119,1,0
256,160,127244,1,0
256,160,127369,1,0
256,160,127494,1,12
256,192,127994,12,0,131494
96,112,131994,5,0
96,200,132244,1,0
96,112,132494,1,12
96,200,132744,1,0
184,200,132994,1,0
272,200,133244,1,0
272,288,133494,1,12
184,288,133744,1,0
96,296,133994,2,0,B|32:224|128:160,2,140,0|8|8
280,296,135494,1,6
464,296,135994,6,0,B|520:152|464:16,1,280,8|0
384,64,137244,1,8
320,128,137494,1,0
384,64,137744,1,0
320,128,137994,1,0
320,216,138244,2,8,B|264:248,2,35
368,288,138744,1,0
280,320,138994,1,0
192,288,139244,1,8
192,288,139369,1,8
192,288,139494,1,8
112,240,139744,1,0
112,240,139994,2,0,B|48:-16|496:-16|400:272,1,560
272,352,142494,5,0
88,352,142994,1,0
88,216,143369,1,8
224,216,143744,1,8
224,128,143994,1,4
