osu file format v14

[General]
AudioFilename: remilia.mp3
AudioLeadIn: 0
PreviewTime: 84502
Countdown: 1
SampleSet: Normal
StackLeniency: 0.7
Mode: 0
LetterboxInBreaks: 1
WidescreenStoryboard: 0

[Editor]
DistanceSpacing: 0.5
BeatDivisor: 4
GridSize: 4
TimelineZoom: 1

[Metadata]
Title:X-SEPTET
TitleUnicode:X-SEPTET
Artist:Gekisen no Hito
ArtistUnicode:激戰の人
Creator:Number5
Version:Lunatic
Source:Touhou
Tags:remilia scarlet koumakyou th06 flandre scarlet sakuya izayoi
BeatmapID:578493
BeatmapSetID:251911

[Difficulty]
HPDrainRate:8
CircleSize:4
OverallDifficulty:8
ApproachRate:9
SliderMultiplier:2
SliderTickRate:1

[Events]
//Background and Video events
0,0,"36c06d7cd06becdab9c8025046508f9d.jpg",0,0
//Break Periods
2,118943,177829
2,178629,186625
//Storyboard Layer 0 (Background)
//Storyboard Layer 1 (Fail)
//Storyboard Layer 2 (Pass)
//Storyboard Layer 3 (Foreground)
//Storyboard Sound Samples

[TimingPoints]
0,314.13612565445,4,1,1,60,1,0
23717,-111.111111111111,4,1,1,60,0,0
43193,-83.3333333333333,4,1,1,70,0,0
85445,-76.9230769230769,4,1,1,70,0,1
105549,-100,4,1,1,70,0,0
178429,-83.3333333333333,4,1,1,70,0,0

[Colours]
Combo1 : 240,200,160
Combo2 : 160,240,200
Combo3 : 160,200,240
Combo4 : 240,240,160
Combo5 : 240,120,120

[HitObjects]
72,104,1256,6,0,P|120:120|184:104,1,100
448,56,1570,2,0,P|400:40|336:56,1,100,8|0,0:0|0:0,0:0:0:0:
260,116,1884,2,0,L|240:216,1,100
136,320,2198,1,8,0:0:0:0:
280,312,2356,2,0,P|352:336|464:240,1,225
427,169,2827,2,0,P|382:189|352:228,1,100,8|0,0:0|0:0,0:0:0:0:
168,216,3141,1,0,0:0:0:0:
64,120,3298,1,0,0:0:0:0:
192,108,3455,2,0,L|280:48,1,100,8|0,0:0|0:0,0:0:0:0:
392,68,3769,5,0,0:0:0:0:
428,168,3926,1,0,0:0:0:0:
324,148,4083,1,8,0:0:0:0:
392,68,4240,1,0,0:0:0:0:
328,260,4397,1,0,0:0:0:0:
192,108,4554,1,0,0:0:0:0:
208,232,4712,1,8,0:0:0:0:
96,192,4869,2,0,P|100:284|208:352,1,225
328,260,5340,2,0,P|400:224|508:300,1,225,8|0,0:0|0:0,0:0:0:0:
436,128,5811,2,0,L|452:16,1,100,0|8,0:0|0:0,0:0:0:0:
340,48,6125,6,0,P|280:104|152:64,1,225,4|0,0:0|0:0,0:0:0:0:
80,172,6596,2,0,L|116:272,1,100,8|0,0:0|0:0,0:0:0:0:
252,312,6910,1,0,0:0:0:0:
332,176,7068,1,0,0:0:0:0:
484,176,7225,1,8,0:0:0:0:
332,176,7382,2,0,L|224:160,2,100,0|0|0,0:0|0:0|0:0,0:0:0:0:
376,272,7853,2,0,L|484:288,2,100,8|0|0,0:0|0:0|0:0,0:0:0:0:
200,340,8324,1,0,0:0:0:0:
168,156,8481,1,8,0:0:0:0:
168,156,8638,1,0,0:0:0:0:
296,64,8795,6,0,P|296:144|320:200,1,125
472,224,9109,2,0,P|472:144|448:88,1,125,8|0,0:0|0:0,0:0:0:0:
168,156,9424,2,0,L|48:164,2,100,0|0|8,0:0|0:0|0:0,0:0:0:0:
112,272,9895,1,0,0:0:0:0:
232,356,10052,1,0,0:0:0:0:
284,204,10209,1,0,0:0:0:0:
412,276,10366,2,0,P|428:200|384:88,1,200
240,72,10837,2,0,L|120:120,1,125,0|8,0:0|0:0,0:0:0:0:
132,232,11151,6,0,P|208:272|284:204,1,200,4|0,0:0|0:0,0:0:0:0:
384,160,11623,2,0,P|388:200|368:292,1,125,8|0,0:0|0:0,0:0:0:0:
204,188,11937,2,0,P|200:148|220:56,1,125,0|0,0:0|0:0,0:0:0:0:
304,48,12251,1,0,0:0:0:0:
468,132,12408,2,0,L|484:28,2,100,0|0|0,0:0|0:0|0:0,0:0:0:0:
448,256,12879,2,0,L|460:368,1,100,8|0,0:0|0:0,0:0:0:0:
328,296,13193,1,0,0:0:0:0:
216,340,13350,1,0,0:0:0:0:
104,296,13507,1,8,0:0:0:0:
72,180,13664,1,0,0:0:0:0:
176,88,13821,5,0,0:0:0:0:
200,84,13900,1,0,0:0:0:0:
224,80,13979,1,0,0:0:0:0:
248,76,14057,1,0,0:0:0:0:
272,72,14136,2,0,P|268:140|288:192,1,125,8|0,0:0|0:0,0:0:0:0:
416,232,14450,2,0,P|420:164|400:112,1,125,0|0,0:0|0:0,0:0:0:0:
168,228,14764,2,0,L|64:244,1,100,8|0,0:0|0:0,0:0:0:0:
392,320,15078,2,0,P|452:316|496:280,2,100,0|0|8,0:0|0:0|0:0,0:0:0:0:
256,256,15549,1,0,0:0:0:0:
120,320,15706,2,0,P|60:316|16:280,2,100,0|0|8,0:0|0:0|0:0,0:0:0:0:
96,232,16178,6,0,B|100:112|100:112|176:68,1,200
240,160,16649,1,8,0:0:0:0:
372,80,16806,1,0,0:0:0:0:
396,80,16884,1,0,0:0:0:0:
420,80,16963,2,0,B|488:80|488:80|520:128,1,125
300,24,17277,2,0,B|266:82|266:82|208:86,1,125,8|0,0:0|0:0,0:0:0:0:
376,256,17591,2,0,B|341:197|341:197|367:145,2,125,0|0|8,0:0|0:0|0:0,0:0:0:0:
244,268,18062,1,0,0:0:0:0:
136,228,18219,2,0,L|24:212,1,100
140,104,18534,2,0,L|252:120,1,100,8|0,0:0|0:0,0:0:0:0:
396,80,18848,6,0,P|356:144|364:200,1,125
368,328,19162,2,0,P|408:264|400:208,1,125,8|0,0:0|0:0,0:0:0:0:
296,244,19476,1,0,0:0:0:0:
468,164,19633,1,0,0:0:0:0:
144,156,19790,1,8,0:0:0:0:
224,328,19947,1,0,0:0:0:0:
44,164,20104,2,0,L|28:60,2,100,0|0|8,0:0|0:0|0:0,0:0:0:0:
256,192,20575,1,0,0:0:0:0:
468,164,20732,2,0,L|484:60,2,100,0|0|8,0:0|0:0|0:0,0:0:0:0:
256,52,21204,1,0,0:0:0:0:
256,192,21361,5,4,0:0:0:0:
256,192,21439,12,0,21989,0:0:0:0:
256,192,22303,5,0,0:0:0:0:
136,256,22460,1,0,0:0:0:0:
80,132,22617,1,8,0:0:0:0:
200,68,22774,1,0,0:0:0:0:
320,136,22931,1,8,0:0:0:0:
391,20,23088,1,0,0:0:0:0:
412,32,23167,1,0,0:0:0:0:
432,44,23246,1,0,0:0:0:0:
376,272,23403,1,8,0:0:0:0:
352,276,23481,1,8,0:0:0:0:
328,280,23560,1,8,0:0:0:0:
304,284,23638,1,8,0:0:0:0:
280,288,23717,6,0,B|176:316|176:316|124:240,1,179.999994506836,4|0,0:0|0:0,0:0:0:0:
148,120,24188,2,0,L|240:136,1,89.9999972534181,8|0,0:0|0:0,0:0:0:0:
344,200,24502,2,0,L|452:172,2,89.9999972534181,0|0|8,0:0|0:0|0:0,0:0:0:0:
336,112,24973,2,0,L|516:72,1,179.999994506836
512,264,25445,2,0,P|488:336|496:384,1,89.9999972534181,8|0,0:0|0:0,0:0:0:0:
408,264,25759,2,0,P|432:200|424:144,1,89.9999972534181,8|0,0:0|0:0,0:0:0:0:
344,200,26073,1,8,0:0:0:0:
216,200,26230,6,0,P|152:240|40:176,1,179.999994506836
136,140,26701,2,0,P|200:100|312:164,1,179.999994506836,8|0,0:0|0:0,0:0:0:0:
304,328,27172,1,0,0:0:0:0:
344,200,27329,1,8,0:0:0:0:
168,364,27486,2,0,P|164:296|236:188,1,179.999994506836
284,64,27958,1,8,0:0:0:0:
344,200,28115,1,0,0:0:0:0:
368,200,28193,1,0,0:0:0:0:
392,200,28272,2,0,L|440:200,1,44.999998626709
472,104,28429,2,0,L|424:104,1,44.999998626709
368,16,28586,1,8,0:0:0:0:
284,64,28743,6,0,B|216:104|216:104|216:228,1,179.999994506836
112,328,29214,2,0,B|111:249|111:249|3:187,1,179.999994506836,8|0,0:0|0:0,0:0:0:0:
124,80,29685,1,0,0:0:0:0:
216,204,29842,1,0,0:0:0:0:
319,329,29999,2,0,B|320:250|320:250|408:200,1,179.999994506836,0|0,0:0|0:0,0:0:0:0:
464,112,30471,1,8,0:0:0:0:
360,40,30628,1,0,0:0:0:0:
256,112,30785,1,0,0:0:0:0:
152,40,30942,1,0,0:0:0:0:
48,112,31099,1,8,0:0:0:0:
68,256,31256,6,0,P|160:276|260:248,1,179.999994506836
320,200,31727,2,0,L|344:312,1,89.9999972534181,8|0,0:0|0:0,0:0:0:0:
468,248,32041,1,0,0:0:0:0:
464,112,32198,1,0,0:0:0:0:
332,72,32356,1,8,0:0:0:0:
216,120,32513,1,0,0:0:0:0:
196,124,32591,1,0,0:0:0:0:
172,128,32670,2,0,L|64:100,1,89.9999972534181
120,220,32984,2,0,L|228:248,1,89.9999972534181,8|0,0:0|0:0,0:0:0:0:
228,236,33219,1,0,0:0:0:0:
248,228,33298,2,0,L|356:256,2,89.9999972534181,0|0|8,0:0|0:0|0:0,0:0:0:0:
316,152,33769,6,0,B|412:176|412:176|480:108,1,179.999994506836,4|0,0:0|0:0,0:0:0:0:
196,152,34240,2,0,B|100:176|100:176|32:108,1,179.999994506836,8|0,0:0|0:0,0:0:0:0:
172,40,34712,2,0,L|260:80,1,89.9999972534181,0|8,0:0|0:0,0:0:0:0:
252,228,35026,2,0,P|212:264|80:232,1,179.999994506836
252,228,35497,2,0,P|292:264|424:232,1,179.999994506836,8|0,0:0|0:0,0:0:0:0:
336,168,35968,1,0,0:0:0:0:
340,144,36047,1,0,0:0:0:0:
344,124,36125,1,8,0:0:0:0:
192,136,36282,6,0,B|208:84|208:84|144:128|80:60,1,179.999994506836
320,136,36753,2,0,B|304:84|304:84|368:128|432:60,1,179.999994506836,8|0,0:0|0:0,0:0:0:0:
208,84,37225,1,0,0:0:0:0:
352,20,37382,1,8,0:0:0:0:
464,152,37539,2,0,P|472:228|436:352,1,179.999994506836
300,296,38010,2,0,L|196:300,1,89.9999972534181,8|0,0:0|0:0,0:0:0:0:
88,312,38324,1,0,0:0:0:0:
92,288,38403,1,0,0:0:0:0:
96,264,38481,1,0,0:0:0:0:
100,244,38560,1,0,0:0:0:0:
104,224,38638,1,8,0:0:0:0:
212,144,38795,6,0,B|256:208|256:208|376:208,1,179.999994506836
460,24,39267,2,0,B|401:107|401:107|323:107,1,179.999994506836,8|0,0:0|0:0,0:0:0:0:
224,32,39738,1,0,0:0:0:0:
212,144,39895,1,8,0:0:0:0:
100,176,40052,2,0,P|120:248|72:364,1,179.999994506836
208,328,40523,2,0,L|312:304,1,89.9999972534181,8|0,0:0|0:0,0:0:0:0:
364,236,40837,1,0,0:0:0:0:
444,320,40994,1,0,0:0:0:0:
464,160,41151,1,8,0:0:0:0:
183,97,41308,6,0,B|176:124|128:136|128:136|96:76|40:80,1,179.999994506836
328,97,41780,2,0,B|336:124|384:136|384:136|416:76|472:80,1,179.999994506836,8|0,0:0|0:0,0:0:0:0:
328,336,42251,1,0,0:0:0:0:
168,288,42408,1,0,0:0:0:0:
256,192,42565,1,0,0:0:0:0:
256,192,43193,6,0,P|252:120|116:128,1,239.999992675781
96,148,43586,1,0,0:0:0:0:
72,164,43664,1,0,0:0:0:0:
44,176,43743,1,0,0:0:0:0:
16,176,43821,1,0,0:0:0:0:
32,200,43900,1,0,0:0:0:0:
44,228,43979,6,0,B|68:284|104:284|104:284|112:224|200:144,1,239.999992675781,4|8,0:0|0:0,0:0:0:0:
432,84,44450,1,0,0:0:0:0:
468,228,44607,2,0,B|444:284|408:284|408:284|400:224|312:144,1,239.999992675781,0|8,0:0|0:0,0:0:0:0:
244,236,45078,2,0,P|212:168|308:48,1,239.999992675781
120,144,45549,2,0,L|-20:168,1,119.999996337891,8|0,0:0|0:0,0:0:0:0:
96,268,45863,1,0,0:0:0:0:
216,340,46020,1,0,0:0:0:0:
384,304,46178,1,8,0:0:0:0:
384,160,46335,1,0,0:0:0:0:
364,32,46492,6,0,B|288:72|288:72|128:56,1,239.999992675781,0|8,0:0|0:0,0:0:0:0:
32,176,46963,1,0,0:0:0:0:
164,188,47120,2,0,P|228:204|264:252,1,119.999996337891
352,348,47434,1,8,0:0:0:0:
432,244,47591,2,0,P|432:152|512:28,1,239.999992675781
336,100,48062,2,0,L|196:104,1,119.999996337891,8|0,0:0|0:0,0:0:0:0:
32,176,48376,1,0,0:0:0:0:
152,260,48534,1,0,0:0:0:0:
172,236,48612,1,0,0:0:0:0:
192,212,48691,1,8,0:0:0:0:
308,296,48848,1,0,0:0:0:0:
432,244,49005,6,0,P|424:164|412:120,1,119.999996337891
232,64,49319,2,0,P|240:144|252:188,1,119.999996337891,8|0,0:0|0:0,0:0:0:0:
168,336,49633,1,0,0:0:0:0:
104,116,49790,1,0,0:0:0:0:
264,308,49947,2,0,L|396:324,1,119.999996337891,8|0,0:0|0:0,0:0:0:0:
232,228,50261,2,0,P|140:216|92:228,1,119.999996337891
184,120,50575,1,8,0:0:0:0:
288,56,50732,2,0,P|352:84|496:4,1,239.999992675781
448,160,51204,2,0,P|432:228|440:304,1,119.999996337891,8|0,0:0|0:0,0:0:0:0:
232,228,51518,6,0,P|140:172|16:212,1,239.999992675781,0|8,0:0|0:0,0:0:0:0:
120,312,51989,1,0,0:0:0:0:
312,168,52146,2,0,P|363:262|491:289,1,239.999992675781,0|8,0:0|0:0,0:0:0:0:
448,160,52617,2,0,B|488:96|440:32|440:32|400:92|328:40,1,239.999992675781
200,192,53089,1,0,0:0:0:0:
136,64,53246,1,0,0:0:0:0:
108,68,53324,1,0,0:0:0:0:
80,72,53403,1,8,0:0:0:0:
276,96,53560,1,0,0:0:0:0:
304,104,53638,1,0,0:0:0:0:
332,112,53717,1,8,0:0:0:0:
360,120,53795,1,0,0:0:0:0:
388,128,53874,1,0,0:0:0:0:
416,136,53952,1,0,0:0:0:0:
444,144,54031,6,0,P|424:232|528:324,1,239.999992675781,0|8,0:0|0:0,0:0:0:0:
256,288,54502,1,0,0:0:0:0:
0,323,54659,2,0,P|79:257|68:144,1,239.999992675781,0|8,0:0|0:0,0:0:0:0:
144,56,55130,2,0,P|256:112|364:48,1,239.999992675781
352,180,55602,2,0,L|384:312,1,119.999996337891,8|0,0:0|0:0,0:0:0:0:
256,288,55916,1,0,0:0:0:0:
116,192,56073,1,0,0:0:0:0:
144,184,56151,1,0,0:0:0:0:
172,180,56230,1,8,0:0:0:0:
200,180,56308,1,0,0:0:0:0:
232,180,56387,1,0,0:0:0:0:
260,184,56465,1,0,0:0:0:0:
288,192,56544,6,0,P|340:232|356:288,1,119.999996337891
336,92,56858,2,0,P|284:52|268:-4,1,119.999996337891,8|0,0:0|0:0,0:0:0:0:
164,76,57172,2,0,P|76:88|-24:224,1,239.999992675781,0|8,0:0|0:0,0:0:0:0:
152,212,57643,2,0,P|240:200|340:64,1,239.999992675781,0|0,0:0|0:0,0:0:0:0:
360,4,58115,2,0,L|480:24,1,119.999996337891,8|0,0:0|0:0,0:0:0:0:
416,152,58429,1,0,0:0:0:0:
432,176,58507,1,0,0:0:0:0:
444,204,58586,1,0,0:0:0:0:
448,232,58664,1,0,0:0:0:0:
448,264,58743,2,0,P|388:236|316:256,1,119.999996337891,8|0,0:0|0:0,0:0:0:0:
44,320,59057,6,0,L|64:200,1,119.999996337891
216,56,59371,2,0,L|235:174,1,119.999996337891,8|0,0:0|0:0,0:0:0:0:
160,284,59685,1,0,0:0:0:0:
256,344,59842,1,0,0:0:0:0:
336,136,59999,1,8,0:0:0:0:
400,288,60157,1,0,0:0:0:0:
160,176,60314,2,0,L|32:196,1,119.999996337891
396,48,60628,2,0,L|268:28,1,119.999996337891,8|0,0:0|0:0,0:0:0:0:
252,228,60942,1,0,0:0:0:0:
448,128,61099,1,0,0:0:0:0:
456,156,61178,1,0,0:0:0:0:
464,184,61256,1,8,0:0:0:0:
364,344,61413,1,0,0:0:0:0:
332,144,61570,6,0,P|272:112|136:240,1,239.999992675781,0|8,0:0|0:0,0:0:0:0:
48,80,62041,1,0,0:0:0:0:
60,276,62198,2,0,P|120:308|256:180,1,239.999992675781,0|8,0:0|0:0,0:0:0:0:
408,112,62670,2,0,B|416:156|404:204|368:224|328:224|328:224|320:280|280:332,1,239.999992675781
256,52,63141,1,8,0:0:0:0:
104,112,63298,2,0,B|96:156|108:204|144:224|184:224|184:224|192:280|232:332,1,239.999992675781
388,324,63769,2,0,L|516:332,1,119.999996337891,8|0,0:0|0:0,0:0:0:0:
448,224,64083,5,4,0:0:0:0:
340,52,64240,1,0,0:0:0:0:
124,288,64397,1,8,0:0:0:0:
232,116,64554,1,0,0:0:0:0:
344,268,64712,2,0,L|204:228,1,119.999996337891
256,256,64947,1,0,0:0:0:0:
280,276,65026,2,0,P|308:200|308:132,1,119.999996337891,8|4,0:0|0:0,0:0:0:0:
136,168,65340,2,0,L|8:176,1,119.999996337891,0|0,0:0|0:0,0:0:0:0:
88,44,65654,1,8,0:0:0:0:
88,44,65811,1,0,0:0:0:0:
232,116,65968,2,0,P|296:136|428:60,1,179.999994506836
448,200,66282,2,0,L|424:348,1,119.999996337891,8|0,0:0|0:0,0:0:0:0:
216,308,66596,6,0,P|144:292|24:344,1,179.999994506836
76,224,66910,2,0,P|84:152|68:80,1,119.999996337891,8|0,0:0|0:0,0:0:0:0:
224,132,67225,1,0,0:0:0:0:
368,44,67382,1,0,0:0:0:0:
448,200,67539,1,8,0:0:0:0:
296,184,67696,2,0,B|256:244|256:244|308:276|312:380|200:384,1,239.999992675781
112,292,68167,1,8,0:0:0:0:
184,192,68324,2,0,B|224:132|224:132|172:100|168:-4|280:-8,1,239.999992675781
384,88,68795,2,0,L|244:68,1,119.999996337891,8|0,0:0|0:0,0:0:0:0:
100,136,69109,5,0,0:0:0:0:
100,136,69267,1,0,0:0:0:0:
200,280,69424,1,8,0:0:0:0:
200,280,69581,1,0,0:0:0:0:
288,200,69738,2,0,L|424:204,1,119.999996337891
424,180,69973,1,0,0:0:0:0:
444,156,70052,2,0,L|468:276,1,119.999996337891,8|0,0:0|0:0,0:0:0:0:
320,320,70366,1,0,0:0:0:0:
348,120,70523,1,0,0:0:0:0:
396,268,70680,1,8,0:0:0:0:
156,140,70837,1,0,0:0:0:0:
40,272,70994,1,0,0:0:0:0:
224,208,71151,2,0,L|224:268,2,59.9999981689454,0|0|8,0:0|0:0|0:0,0:0:0:0:
256,36,71465,1,0,0:0:0:0:
348,120,71623,6,0,P|392:120|452:56,1,119.999996337891
444,100,71858,1,0,0:0:0:0:
440,132,71937,2,0,L|424:256,1,119.999996337891,8|0,0:0|0:0,0:0:0:0:
224,208,72251,1,0,0:0:0:0:
108,124,72408,2,0,L|40:120,2,59.9999981689454,0|0|8,0:0|0:0|0:0,0:0:0:0:
256,36,72722,1,0,0:0:0:0:
348,120,72879,2,0,L|360:260,1,119.999996337891
68,300,73193,2,0,L|140:192,1,119.999996337891,8|0,0:0|0:0,0:0:0:0:
240,324,73507,1,0,0:0:0:0:
268,320,73586,1,0,0:0:0:0:
296,316,73664,1,0,0:0:0:0:
324,312,73743,1,0,0:0:0:0:
352,308,73821,1,8,0:0:0:0:
476,156,73979,1,0,0:0:0:0:
448,148,74057,1,0,0:0:0:0:
420,144,74136,6,0,L|284:160,1,119.999996337891,4|0,0:0|0:0,0:0:0:0:
92,240,74450,2,0,L|228:224,1,119.999996337891,8|0,0:0|0:0,0:0:0:0:
192,124,74764,2,0,P|92:112|72:36,1,179.999994506836
152,56,75078,2,0,L|288:28,1,119.999996337891,8|4,0:0|0:0,0:0:0:0:
372,72,75392,1,0,0:0:0:0:
316,292,75549,1,0,0:0:0:0:
432,240,75706,1,8,0:0:0:0:
208,220,75863,2,0,L|72:244,1,119.999996337891
240,84,76178,1,0,0:0:0:0:
268,96,76256,1,0,0:0:0:0:
296,108,76335,1,0,0:0:0:0:
196,328,76492,1,0,0:0:0:0:
136,144,76649,6,0,B|48:124|48:124|24:68,1,119.999996337891
40,68,76884,1,0,0:0:0:0:
68,64,76963,2,0,B|156:44|156:44|180:-12,1,119.999996337891,8|0,0:0|0:0,0:0:0:0:
348,40,77277,1,0,0:0:0:0:
360,240,77434,1,0,0:0:0:0:
456,128,77591,1,8,0:0:0:0:
224,212,77748,2,0,P|168:252|32:176,1,239.999992675781,4|0,0:0|0:0,0:0:0:0:
136,144,78219,1,8,0:0:0:0:
256,112,78376,2,0,L|368:156,1,119.999996337891
432,304,78691,1,0,0:0:0:0:
404,312,78769,1,0,0:0:0:0:
376,320,78848,1,8,0:0:0:0:
348,328,78926,1,0,0:0:0:0:
320,336,79005,1,0,0:0:0:0:
292,344,79083,1,0,0:0:0:0:
264,352,79162,6,0,L|292:228,1,119.999996337891
40,76,79476,2,0,L|12:200,1,119.999996337891,8|0,0:0|0:0,0:0:0:0:
208,72,79790,2,0,P|268:100|376:32,1,179.999994506836
444,100,80104,2,0,P|444:164|432:248,1,119.999996337891,8|0,0:0|0:0,0:0:0:0:
288,260,80418,1,0,0:0:0:0:
216,164,80575,1,0,0:0:0:0:
156,328,80732,1,8,0:0:0:0:
80,120,80890,1,0,0:0:0:0:
40,240,81047,2,0,L|172:244,1,119.999996337891
188,240,81282,1,0,0:0:0:0:
204,264,81361,2,0,P|248:336|316:340,1,119.999996337891,8|0,0:0|0:0,0:0:0:0:
384,188,81675,6,0,L|288:260,1,119.999996337891
292,232,81910,1,0,0:0:0:0:
296,204,81989,2,0,P|300:112|288:48,1,119.999996337891,8|0,0:0|0:0,0:0:0:0:
80,120,82303,2,0,P|120:148|216:80,1,179.999994506836
228,12,82617,2,0,P|160:40|140:92,1,119.999996337891,8|0,0:0|0:0,0:0:0:0:
36,200,82931,1,4,0:0:0:0:
32,228,83010,1,0,0:0:0:0:
28,256,83089,1,0,0:0:0:0:
24,284,83167,1,0,0:0:0:0:
20,312,83246,1,0,0:0:0:0:
176,272,83403,1,4,0:0:0:0:
204,276,83481,1,0,0:0:0:0:
232,280,83560,1,0,0:0:0:0:
260,288,83638,1,0,0:0:0:0:
288,292,83717,1,0,0:0:0:0:
336,176,83874,2,0,L|232:184,1,59.9999981689454,4|0,0:0|0:0,0:0:0:0:
396,116,84031,2,0,L|500:124,1,59.9999981689454,4|0,0:0|0:0,0:0:0:0:
396,116,84502,5,0,0:0:0:0:
368,100,84581,1,0,0:0:0:0:
344,80,84659,1,0,0:0:0:0:
320,64,84738,1,0,0:0:0:0:
292,60,84816,1,0,0:0:0:0:
260,60,84895,1,0,0:0:0:0:
232,76,84973,1,0,0:0:0:0:
208,96,85052,1,0,0:0:0:0:
184,112,85130,2,0,L|104:144,1,59.9999981689454
28,216,85287,2,0,L|108:248,1,59.9999981689454
184,204,85445,6,0,P|172:292|336:268,1,259.999988098145,0|8,0:0|0:0,0:0:0:0:
372,172,85916,1,0,0:0:0:0:
328,56,86073,2,0,P|236:88|152:16,1,194.999991073609
80,112,86387,2,0,P|108:268|108:280,1,129.999994049073,8|0,0:0|0:0,0:0:0:0:
196,148,86701,2,0,L|276:136,1,64.9999970245363
448,244,86858,2,0,L|368:232,1,64.9999970245363
244,232,87015,2,0,P|268:296|248:368,1,129.999994049073,8|0,0:0|0:0,0:0:0:0:
84,288,87329,1,0,0:0:0:0:
128,48,87486,1,0,0:0:0:0:
248,228,87643,1,8,0:0:0:0:
292,44,87801,1,0,0:0:0:0:
368,172,87958,6,0,P|344:252|348:308,1,129.999994049073
480,160,88272,2,0,P|504:80|500:24,1,129.999994049073,8|0,0:0|0:0,0:0:0:0:
364,100,88586,2,0,B|292:44|292:44|256:100|184:84,1,194.999991073609
120,84,88900,2,0,P|152:20|244:12,1,129.999994049073,8|0,0:0|0:0,0:0:0:0:
96,228,89214,2,0,L|80:360,2,129.999994049073,0|0|8,0:0|0:0|0:0,0:0:0:0:
224,264,89685,1,0,0:0:0:0:
248,256,89764,1,0,0:0:0:0:
272,248,89842,2,0,L|348:240,1,64.9999970245363
468,176,89999,2,0,L|400:172,1,64.9999970245363
304,160,90157,2,0,P|312:80|288:8,1,129.999994049073,8|0,0:0|0:0,0:0:0:0:
172,88,90471,6,0,B|96:160|96:160|64:72|-28:112,1,259.999988098145,0|8,0:0|0:0,0:0:0:0:
260,336,90942,1,0,0:0:0:0:
304,160,91099,2,0,P|376:136|396:64,1,129.999994049073
376,64,91335,1,0,0:0:0:0:
352,44,91413,2,0,L|228:0,1,129.999994049073,8|0,0:0|0:0,0:0:0:0:
76,124,91727,1,0,0:0:0:0:
152,236,91884,1,0,0:0:0:0:
312,268,92041,1,8,0:0:0:0:
444,152,92198,1,0,0:0:0:0:
400,232,92356,1,0,0:0:0:0:
292,68,92513,1,0,0:0:0:0:
140,84,92670,1,8,0:0:0:0:
56,264,92827,1,0,0:0:0:0:
216,216,92984,6,0,L|228:360,2,129.999994049073,0|0|8,0:0|0:0|0:0,0:0:0:0:
140,84,93455,2,0,P|240:116|368:28,1,259.999988098145
360,228,93926,2,0,L|500:248,1,129.999994049073,8|0,0:0|0:0,0:0:0:0:
216,216,94240,1,0,0:0:0:0:
184,208,94319,1,0,0:0:0:0:
152,204,94397,1,0,0:0:0:0:
120,200,94476,1,0,0:0:0:0:
88,196,94554,1,8,0:0:0:0:
244,76,94712,1,0,0:0:0:0:
404,116,94869,1,0,0:0:0:0:
396,144,94947,1,0,0:0:0:0:
384,172,95026,1,0,0:0:0:0:
372,200,95104,1,0,0:0:0:0:
360,228,95183,1,8,0:0:0:0:
348,256,95261,1,0,0:0:0:0:
336,288,95340,1,0,0:0:0:0:
324,316,95418,1,0,0:0:0:0:
312,348,95497,6,0,B|176:324|176:324|76:228,1,259.999988098145,0|8,0:0|0:0,0:0:0:0:
148,108,95968,1,0,0:0:0:0:
260,28,96125,2,0,P|284:72|416:44,1,194.999991073609
372,200,96439,2,0,L|412:348,1,129.999994049073,8|0,0:0|0:0,0:0:0:0:
192,272,96753,1,0,0:0:0:0:
148,108,96910,1,0,0:0:0:0:
180,116,96989,1,0,0:0:0:0:
212,124,97068,2,0,L|360:108,1,129.999994049073,8|0,0:0|0:0,0:0:0:0:
192,272,97382,1,0,0:0:0:0:
56,128,97539,1,0,0:0:0:0:
224,24,97696,1,8,0:0:0:0:
328,248,97853,1,0,0:0:0:0:
84,252,98010,6,0,P|144:372|276:344,1,259.999988098145,0|8,0:0|0:0,0:0:0:0:
432,364,98481,1,0,0:0:0:0:
408,192,98638,2,0,L|412:48,1,129.999994049073
384,80,98874,1,0,0:0:0:0:
356,92,98952,2,0,L|204:88,1,129.999994049073,8|0,0:0|0:0,0:0:0:0:
76,120,99267,1,0,0:0:0:0:
88,152,99345,1,0,0:0:0:0:
96,184,99424,1,0,0:0:0:0:
100,216,99502,1,0,0:0:0:0:
104,248,99581,1,8,0:0:0:0:
224,328,99738,1,0,0:0:0:0:
300,240,99895,2,0,L|448:232,1,129.999994049073
428,200,100130,1,0,0:0:0:0:
420,168,100209,2,0,L|440:32,1,129.999994049073,8|0,0:0|0:0,0:0:0:0:
272,72,100523,6,0,P|160:112|116:112,1,129.999994049073
104,248,100837,1,8,0:0:0:0:
104,248,100994,1,0,0:0:0:0:
300,232,101151,2,0,P|368:180|472:280,1,194.999991073609
472,112,101465,2,0,B|460:44|460:44|396:92|352:40,1,129.999994049073,8|0,0:0|0:0,0:0:0:0:
220,88,101780,1,0,0:0:0:0:
76,128,101937,1,0,0:0:0:0:
104,248,102094,1,8,0:0:0:0:
208,284,102251,2,0,P|264:332|404:228,1,259.999988098145,0|0,0:0|0:0,0:0:0:0:
276,104,102722,2,0,L|300:236,1,129.999994049073
104,248,103036,5,0,0:0:0:0:
104,248,103193,1,0,0:0:0:0:
176,80,103350,1,8,0:0:0:0:
176,80,103507,1,0,0:0:0:0:
376,32,103664,2,0,P|420:64|520:36,1,129.999994049073
424,168,103979,1,8,0:0:0:0:
420,200,104057,1,0,0:0:0:0:
416,232,104136,1,0,0:0:0:0:
272,304,104293,1,0,0:0:0:0:
240,300,104371,1,0,0:0:0:0:
208,296,104450,1,0,0:0:0:0:
224,136,104607,1,8,0:0:0:0:
240,108,104685,1,0,0:0:0:0:
256,80,104764,1,0,0:0:0:0:
360,172,104921,2,0,L|432:168,3,64.9999970245363,0|0|0|0,0:0|0:0|0:0|0:0,0:0:0:0:
416,232,105235,2,0,L|480:272,3,64.9999970245363,8|0|0|0,0:0|0:0|0:0|0:0,0:0:0:0:
444,312,105549,6,0,P|344:264|264:316,1,200,0|8,0:0|0:0,0:0:0:0:
92,208,106020,1,0,0:0:0:0:
100,184,106099,1,0,0:0:0:0:
108,160,106178,2,0,P|144:108|180:88,1,100
200,184,106492,1,8,0:0:0:0:
248,96,106649,2,0,P|304:124|432:72,1,200
368,224,107120,2,0,L|356:332,1,100,8|0,0:0|0:0,0:0:0:0:
228,280,107434,2,0,L|232:344,2,50,0|0|0,0:0|0:0|0:0,0:0:0:0:
92,264,107748,2,0,L|80:144,1,100,8|0,0:0|0:0,0:0:0:0:
120,52,108062,6,0,L|176:44,1,50
392,52,108219,2,0,L|336:44,1,50
196,128,108376,2,0,L|184:212,1,50,8|0,0:0|0:0,0:0:0:0:
316,128,108534,2,0,L|328:212,1,50
92,264,108691,2,0,L|60:216,1,50
420,264,108848,2,0,L|452:216,1,50
184,344,109005,2,0,L|200:284,1,50,8|0,0:0|0:0,0:0:0:0:
328,344,109162,2,0,L|312:284,1,50
256,196,109319,2,0,L|256:140,3,50,0|0|0|0,0:0|0:0|0:0|0:0,0:0:0:0:
252,120,109633,1,8,0:0:0:0:
240,100,109712,1,0,0:0:0:0:
228,80,109790,1,0,0:0:0:0:
216,60,109869,1,0,0:0:0:0:
192,56,109947,2,0,L|128:52,1,50
176,152,110104,2,0,L|112:172,1,50
52,120,110261,2,0,L|36:192,1,50,8|0,0:0|0:0,0:0:0:0:
100,236,110418,2,0,L|104:312,1,50
184,264,110575,6,0,P|236:288|352:220,1,200,0|8,0:0|0:0,0:0:0:0:
388,92,111047,1,0,0:0:0:0:
412,100,111125,1,0,0:0:0:0:
436,108,111204,2,0,B|428:160|428:160|436:240,1,100
348,324,111518,2,0,B|356:272|356:272|348:192,1,100,8|0,0:0|0:0,0:0:0:0:
332,208,111753,1,0,0:0:0:0:
308,196,111832,2,0,L|292:148,1,50
220,60,111989,2,0,L|144:52,1,50
44,112,112146,2,0,L|32:180,1,50,8|0,0:0|0:0,0:0:0:0:
112,256,112303,2,0,L|176:248,1,50
348,324,112460,1,0,0:0:0:0:
368,308,112539,1,0,0:0:0:0:
388,292,112617,1,0,0:0:0:0:
408,276,112696,1,0,0:0:0:0:
400,248,112774,1,8,0:0:0:0:
384,228,112853,1,0,0:0:0:0:
368,208,112931,1,0,0:0:0:0:
348,192,113010,1,0,0:0:0:0:
328,176,113089,6,0,L|304:128,1,50
206,131,113246,2,0,L|184:176,1,50
408,112,113403,2,0,L|384:64,1,50,0|0,0:0|0:0,0:0:0:0:
126,67,113560,2,0,L|104:112,1,50,0|0,0:0|0:0,0:0:0:0:
108,244,113717,1,0,0:0:0:0:
116,268,113795,1,0,0:0:0:0:
124,292,113874,1,0,0:0:0:0:
132,316,113952,1,0,0:0:0:0:
140,340,114031,1,0,0:0:0:0:
256,280,114188,1,0,0:0:0:0:
264,256,114267,1,0,0:0:0:0:
272,232,114345,1,0,0:0:0:0:
280,208,114424,1,0,0:0:0:0:
288,184,114502,1,0,0:0:0:0:
296,160,114581,1,0,0:0:0:0:
304,136,114659,2,0,L|368:128,1,50
264,64,114816,2,0,L|208:56,1,50
124,68,114973,2,0,L|120:100,8,25,0|0|0|0|0|0|0|0|0,0:0|0:0|0:0|0:0|0:0|0:0|0:0|0:0|0:0,0:0:0:0:
124,68,115445,6,0,B|192:80|192:80|336:48,1,200
392,136,115916,2,0,L|280:164,1,100,8|0,0:0|0:0,0:0:0:0:
176,164,116230,1,0,0:0:0:0:
176,164,116387,1,0,0:0:0:0:
96,256,116544,1,8,0:0:0:0:
216,292,116701,2,0,P|312:272|412:304,1,200
392,136,117172,2,0,P|296:156|196:124,1,200,8|0,0:0|0:0,0:0:0:0:
48,184,117643,1,0,0:0:0:0:
64,352,117801,1,8,0:0:0:0:
216,292,117958,6,0,B|224:260|212:236|212:236|172:164|248:92,1,200
392,136,118429,2,0,B|384:165|396:189|396:189|436:261|373:320,1,200,0|0,0:0|0:0,0:0:0:0:
256,192,178429,5,4,0:0:0:0:
80,92,187225,6,0,L|252:80,1,119.999996337891,12|0,0:0|0:0,0:0:0:0:
288,44,187460,1,0,0:0:0:0:
336,120,187539,2,0,P|328:148|328:192,1,59.9999981689454
428,240,187696,2,0,P|436:212|436:168,1,59.9999981689454,12|0,0:0|0:0,0:0:0:0:
276,244,187853,1,0,0:0:0:0:
248,248,187931,1,0,0:0:0:0:
216,252,188010,2,0,L|128:264,4,59.9999981689454,0|0|4|0|0,0:0|0:0|0:0|0:0|0:0,0:0:0:0:
216,252,188481,6,0,P|224:180|208:112,1,119.999996337891
216,52,188717,1,0,0:0:0:0:
300,76,188795,2,0,P|340:32|400:32,1,119.999996337891,8|0,0:0|0:0,0:0:0:0:
376,104,189031,1,0,0:0:0:0:
456,116,189109,2,0,L|468:244,1,119.999996337891
388,272,189345,1,0,0:0:0:0:
328,336,189424,2,0,P|384:360|460:224,1,239.999992675781,8|0,0:0|0:0,0:0:0:0:
396,4,189895,1,0,0:0:0:0:
392,36,189973,1,0,0:0:0:0:
392,72,190052,2,0,P|392:140|408:196,2,119.999996337891,8|0|0,0:0|0:0|0:0,0:0:0:0:
256,132,190523,1,0,0:0:0:0:
228,252,190680,2,0,P|140:216|28:308,1,239.999992675781,8|0,0:0|0:0,0:0:0:0:
32,140,191151,5,0,0:0:0:0:
104,52,191308,2,0,P|152:68|220:56,1,119.999996337891
380,100,191623,1,0,0:0:0:0:
388,128,191701,1,0,0:0:0:0:
392,156,191780,1,0,0:0:0:0:
396,184,191858,1,0,0:0:0:0:
396,216,191937,1,8,0:0:0:0:
228,252,192094,1,0,0:0:0:0:
128,152,192251,2,0,L|264:152,1,119.999996337891
444,288,192565,2,0,L|320:288,1,119.999996337891,8|0,0:0|0:0,0:0:0:0:
104,332,192879,1,0,0:0:0:0:
88,304,192958,1,0,0:0:0:0:
72,276,193036,1,0,0:0:0:0:
56,252,193115,1,0,0:0:0:0:
40,228,193193,2,0,L|48:164,2,59.9999981689454,8|0|0,0:0|0:0|0:0,0:0:0:0:
40,228,193507,5,0,0:0:0:0:
128,52,193665,1,0,0:0:0:0:
128,52,193743,1,0,0:0:0:0:
128,52,193821,1,8,0:0:0:0:
376,288,193979,1,0,0:0:0:0:
348,280,194057,1,0,0:0:0:0:
320,272,194136,1,0,0:0:0:0:
432,160,194293,1,0,0:0:0:0:
432,160,194371,1,0,0:0:0:0:
432,160,194450,1,8,0:0:0:0:
280,56,194607,1,0,0:0:0:0:
288,84,194685,1,0,0:0:0:0:
296,112,194764,1,0,0:0:0:0:
172,272,194921,1,0,0:0:0:0:
172,272,194999,1,0,0:0:0:0:
172,272,195078,2,0,P|176:204|152:152,1,119.999996337891,8|0,0:0|0:0,0:0:0:0:
280,44,195392,2,0,P|300:132|472:120,2,239.999992675781,0|8|0,0:0|0:0|0:0,0:0:0:0:
380,69,196178,5,0,0:0:0:0:
212,116,196335,2,0,L|84:124,1,119.999996337891,8|0,0:0|0:0,0:0:0:0:
160,256,196649,1,0,0:0:0:0:
164,284,196727,1,0,0:0:0:0:
168,316,196806,1,0,0:0:0:0:
172,344,196884,1,0,0:0:0:0:
176,372,196963,1,8,0:0:0:0:
296,240,197120,1,0,0:0:0:0:
392,328,197277,1,0,0:0:0:0:
400,300,197356,1,0,0:0:0:0:
408,272,197434,1,0,0:0:0:0:
416,244,197513,1,0,0:0:0:0:
336,144,197591,1,8,0:0:0:0:
328,116,197670,1,0,0:0:0:0:
324,88,197748,1,0,0:0:0:0:
320,60,197827,1,0,0:0:0:0:
256,148,197905,1,8,0:0:0:0:
228,156,197984,1,0,0:0:0:0:
200,164,198062,1,0,0:0:0:0:
172,172,198141,1,0,0:0:0:0:
192,288,198219,1,0,0:0:0:0:
220,296,198298,1,0,0:0:0:0:
248,304,198376,1,0,0:0:0:0:
276,312,198455,1,0,0:0:0:0:
372,168,198534,6,0,L|379:108,1,59.9999981689454
132,108,198691,2,0,L|140:168,1,59.9999981689454
256,308,198848,2,0,L|256:172,1,119.999996337891,8|0,0:0|0:0,0:0:0:0:
64,276,199162,1,0,0:0:0:0:
52,248,199240,1,0,0:0:0:0:
40,220,199319,1,0,0:0:0:0:
28,192,199397,1,0,0:0:0:0:
36,164,199476,1,8,0:0:0:0:
48,136,199554,1,0,0:0:0:0:
60,108,199633,1,0,0:0:0:0:
160,240,199790,2,0,L|224:240,1,59.9999981689454
352,192,199947,2,0,L|288:192,1,59.9999981689454
216,108,200104,2,0,L|376:108,1,119.999996337891,8|0,0:0|0:0,0:0:0:0:
476,68,200418,1,0,0:0:0:0:
472,100,200497,1,0,0:0:0:0:
468,128,200575,1,0,0:0:0:0:
464,156,200654,1,0,0:0:0:0:
460,184,200732,2,0,B|444:256|444:256|364:296,1,119.999996337891,8|0,0:0|0:0,0:0:0:0:
288,340,201047,6,0,P|280:264|296:204,2,119.999996337891,0|0|8,0:0|0:0|0:0,0:0:0:0:
136,288,201518,1,0,0:0:0:0:
112,168,201675,1,0,0:0:0:0:
140,172,201753,1,0,0:0:0:0:
172,176,201832,1,0,0:0:0:0:
200,180,201910,1,0,0:0:0:0:
228,176,201989,1,0,0:0:0:0:
256,172,202068,1,0,0:0:0:0:
284,176,202146,1,0,0:0:0:0:
312,188,202225,1,0,0:0:0:0:
336,204,202303,2,0,L|384:264,1,59.9999981689454
432,176,202460,2,0,L|432:104,1,59.9999981689454
352,56,202617,2,0,L|272:72,1,59.9999981689454
196,96,202774,2,0,L|144:44,1,59.9999981689454
48,100,202931,1,0,0:0:0:0:
48,132,203010,1,0,0:0:0:0:
48,164,203089,1,0,0:0:0:0:
48,192,203167,1,0,0:0:0:0:
48,224,203246,2,0,L|48:288,3,59.9999981689454,0|0|0|0,0:0|0:0|0:0|0:0,0:0:0:0:
140,244,203560,6,0,L|136:320,1,59.9999981689454
224,304,203717,2,0,L|220:244,1,59.9999981689454
304,304,203874,2,0,L|310:184,1,119.999996337891,8|0,0:0|0:0,0:0:0:0:
380,56,204188,1,0,0:0:0:0:
352,72,204267,1,0,0:0:0:0:
324,76,204345,1,0,0:0:0:0:
296,72,204424,1,0,0:0:0:0:
268,64,204502,1,0,0:0:0:0:
240,60,204581,1,0,0:0:0:0:
212,64,204659,1,0,0:0:0:0:
188,80,204738,1,0,0:0:0:0:
168,104,204816,2,0,L|180:176,1,59.9999981689454
256,208,204973,2,0,L|268:136,1,59.9999981689454
376,168,205130,2,0,L|400:308,1,119.999996337891,8|0,0:0|0:0,0:0:0:0:
280,316,205445,1,0,0:0:0:0:
252,312,205523,1,0,0:0:0:0:
224,304,205602,1,0,0:0:0:0:
196,300,205680,1,0,0:0:0:0:
168,296,205759,1,0,0:0:0:0:
256,128,205916,1,0,0:0:0:0:
376,168,206073,6,0,L|464:164,1,59.9999981689454
404,92,206230,2,0,L|480:96,1,59.9999981689454
320,104,206387,2,0,L|232:100,1,59.9999981689454,8|0,0:0|0:0,0:0:0:0:
292,28,206544,2,0,L|216:32,1,59.9999981689454
140,107,206701,1,0,0:0:0:0:
171,307,206858,1,0,0:0:0:0:
371,276,207015,1,0,0:0:0:0:
340,76,207172,1,0,0:0:0:0:
80,92,207329,6,0,L|252:80,1,119.999996337891,12|0,0:0|0:0,0:0:0:0:
288,44,207564,1,0,0:0:0:0:
336,120,207643,2,0,P|328:148|328:192,1,59.9999981689454
428,240,207800,2,0,P|436:212|436:168,1,59.9999981689454,12|0,0:0|0:0,0:0:0:0:
276,244,207957,1,0,0:0:0:0:
248,248,208035,1,0,0:0:0:0:
216,252,208114,2,0,L|128:264,6,59.9999981689454,0|0|4|0|0|0|0,0:0|0:0|0:0|0:0|0:0|0:0|0:0,0:0:0:0:
