osu file format v12

[General]
AudioFilename: auston_3another.mp3
AudioLeadIn: 0
PreviewTime: -1
Countdown: 0
SampleSet: None
StackLeniency: 0.7
Mode: 3
LetterboxInBreaks: 1

[Editor]
DistanceSpacing: 1
BeatDivisor: 16
GridSize: 8

[Metadata]
Title:Auston
TitleUnicode:Auston
Artist:Gekikara Mania
ArtistUnicode:激辛マニア
Creator:Doorknob
Version:Lv.23 7hakkyooi
Source:BMS
Tags:
BeatmapID:250710
BeatmapSetID:92779

[Difficulty]
HPDrainRate:7
CircleSize:7
OverallDifficulty:7
ApproachRate:5
SliderMultiplier:1
SliderTickRate:1

[Events]
//Background and Video events
0,0,"01.png",1,1
//Break Periods
//Storyboard Layer 0 (Background)
//Storyboard Layer 1 (Fail)
//Storyboard Layer 2 (Pass)
//Storyboard Layer 3 (Foreground)
//Storyboard Sound Samples
//Background Colour Transformations
3,100,163,162,255

[TimingPoints]
0,365.853658536585,4,1,0,0,1,0

[HitObjects]
36,192,1463,1,0,0:0:0:0:
329,192,1463,1,0,0:0:0:0:
475,192,1463,1,0,0:0:0:0:
109,192,1554,1,0,0:0:0:0:
182,192,1554,1,0,0:0:0:0:
256,192,1554,1,0,0:0:0:0:
36,192,1646,1,0,0:0:0:0:
329,192,1646,1,0,0:0:0:0:
402,192,1646,1,0,0:0:0:0:
475,192,1646,1,0,0:0:0:0:
182,192,1737,1,0,0:0:0:0:
109,192,1829,1,0,0:0:0:0:
329,192,1829,1,0,0:0:0:0:
256,192,1920,1,0,0:0:0:0:
475,192,1920,1,0,0:0:0:0:
36,192,2012,1,0,0:0:0:0:
182,192,2012,1,0,0:0:0:0:
402,192,2012,1,0,0:0:0:0:
109,192,2103,1,0,0:0:0:0:
329,192,2103,1,0,0:0:0:0:
182,192,2195,1,0,0:0:0:0:
256,192,2195,1,0,0:0:0:0:
329,192,2286,1,0,0:0:0:0:
182,192,2378,1,0,0:0:0:0:
402,192,2378,1,0,0:0:0:0:
475,192,2378,1,0,0:0:0:0:
256,192,2469,1,0,0:0:0:0:
36,192,2560,1,0,0:0:0:0:
109,192,2560,1,0,0:0:0:0:
329,192,2560,1,0,0:0:0:0:
256,192,2652,1,0,0:0:0:0:
475,192,2652,1,0,0:0:0:0:
36,192,2743,1,0,0:0:0:0:
109,192,2743,1,0,0:0:0:0:
182,192,2743,1,0,0:0:0:0:
329,192,2743,1,0,0:0:0:0:
402,192,2743,1,0,0:0:0:0:
475,192,2835,1,0,0:0:0:0:
36,192,2926,1,0,0:0:0:0:
329,192,2926,1,0,0:0:0:0:
402,192,2926,1,0,0:0:0:0:
182,192,3018,1,0,0:0:0:0:
256,192,3018,1,0,0:0:0:0:
475,192,3018,1,0,0:0:0:0:
36,192,3109,1,0,0:0:0:0:
109,192,3109,1,0,0:0:0:0:
329,192,3109,1,0,0:0:0:0:
402,192,3109,1,0,0:0:0:0:
256,192,3201,1,0,0:0:0:0:
109,192,3292,1,0,0:0:0:0:
402,192,3292,1,0,0:0:0:0:
256,192,3384,1,0,0:0:0:0:
475,192,3384,1,0,0:0:0:0:
109,192,3475,1,0,0:0:0:0:
182,192,3475,1,0,0:0:0:0:
402,192,3475,1,0,0:0:0:0:
36,192,3567,1,0,0:0:0:0:
329,192,3567,1,0,0:0:0:0:
256,192,3658,1,0,0:0:0:0:
402,192,3658,1,0,0:0:0:0:
182,192,3750,1,0,0:0:0:0:
329,192,3841,1,0,0:0:0:0:
402,192,3841,1,0,0:0:0:0:
475,192,3841,1,0,0:0:0:0:
182,192,3932,1,0,0:0:0:0:
36,192,4024,1,0,0:0:0:0:
256,192,4024,1,0,0:0:0:0:
329,192,4024,1,0,0:0:0:0:
182,192,4115,1,0,0:0:0:0:
475,192,4115,1,0,0:0:0:0:
109,192,4207,1,0,0:0:0:0:
256,192,4207,1,0,0:0:0:0:
329,192,4207,1,0,0:0:0:0:
402,192,4207,1,0,0:0:0:0:
475,192,4298,1,0,0:0:0:0:
36,192,4390,1,0,0:0:0:0:
256,192,4390,1,0,0:0:0:0:
402,192,4390,1,0,0:0:0:0:
109,192,4481,1,0,0:0:0:0:
182,192,4481,1,0,0:0:0:0:
329,192,4481,1,0,0:0:0:0:
36,192,4573,1,0,0:0:0:0:
256,192,4573,1,0,0:0:0:0:
402,192,4573,1,0,0:0:0:0:
475,192,4573,1,0,0:0:0:0:
329,192,4664,1,0,0:0:0:0:
109,192,4756,1,0,0:0:0:0:
182,192,4756,1,0,0:0:0:0:
329,192,4847,1,0,0:0:0:0:
475,192,4847,1,0,0:0:0:0:
182,192,4939,1,0,0:0:0:0:
256,192,4939,1,0,0:0:0:0:
402,192,4939,1,0,0:0:0:0:
329,192,5030,1,0,0:0:0:0:
475,192,5030,1,0,0:0:0:0:
182,192,5121,1,0,0:0:0:0:
256,192,5121,1,0,0:0:0:0:
109,192,5213,1,0,0:0:0:0:
329,192,5304,1,0,0:0:0:0:
402,192,5304,1,0,0:0:0:0:
475,192,5304,1,0,0:0:0:0:
109,192,5396,1,0,0:0:0:0:
36,192,5487,1,0,0:0:0:0:
329,192,5487,1,0,0:0:0:0:
475,192,5487,1,0,0:0:0:0:
182,192,5579,1,0,0:0:0:0:
256,192,5579,1,0,0:0:0:0:
36,192,5670,1,0,0:0:0:0:
109,192,5670,1,0,0:0:0:0:
329,192,5670,1,0,0:0:0:0:
402,192,5670,1,0,0:0:0:0:
475,192,5670,1,0,0:0:0:0:
256,192,5762,1,0,0:0:0:0:
36,192,5853,1,0,0:0:0:0:
182,192,5853,1,0,0:0:0:0:
329,192,5853,1,0,0:0:0:0:
109,192,5945,1,0,0:0:0:0:
256,192,5945,1,0,0:0:0:0:
475,192,5945,1,0,0:0:0:0:
36,192,6036,1,0,0:0:0:0:
182,192,6036,1,0,0:0:0:0:
329,192,6036,1,0,0:0:0:0:
402,192,6036,1,0,0:0:0:0:
475,192,6128,1,0,0:0:0:0:
182,192,6219,1,0,0:0:0:0:
256,192,6219,1,0,0:0:0:0:
329,192,6310,1,0,0:0:0:0:
475,192,6310,1,0,0:0:0:0:
182,192,6402,1,0,0:0:0:0:
256,192,6402,1,0,0:0:0:0:
402,192,6402,1,0,0:0:0:0:
329,192,6493,1,0,0:0:0:0:
475,192,6493,1,0,0:0:0:0:
182,192,6585,1,0,0:0:0:0:
256,192,6585,1,0,0:0:0:0:
109,192,6676,1,0,0:0:0:0:
329,192,6768,1,0,0:0:0:0:
402,192,6768,1,0,0:0:0:0:
475,192,6768,1,0,0:0:0:0:
109,192,6859,1,0,0:0:0:0:
36,192,6951,1,0,0:0:0:0:
182,192,6951,1,0,0:0:0:0:
402,192,6951,1,0,0:0:0:0:
36,192,7042,1,0,0:0:0:0:
329,192,7042,1,0,0:0:0:0:
109,192,7134,1,0,0:0:0:0:
256,192,7134,1,0,0:0:0:0:
402,192,7134,1,0,0:0:0:0:
475,192,7134,1,0,0:0:0:0:
182,192,7225,1,0,0:0:0:0:
36,192,7317,1,0,0:0:0:0:
256,192,7317,1,0,0:0:0:0:
475,192,7317,1,0,0:0:0:0:
182,192,7408,1,0,0:0:0:0:
329,192,7408,1,0,0:0:0:0:
402,192,7408,1,0,0:0:0:0:
36,192,7500,1,0,0:0:0:0:
109,192,7500,1,0,0:0:0:0:
256,192,7500,1,0,0:0:0:0:
475,192,7500,1,0,0:0:0:0:
402,192,7591,1,0,0:0:0:0:
109,192,7682,1,0,0:0:0:0:
329,192,7682,1,0,0:0:0:0:
182,192,7774,1,0,0:0:0:0:
256,192,7774,1,0,0:0:0:0:
329,192,7865,1,0,0:0:0:0:
402,192,7865,1,0,0:0:0:0:
475,192,7865,1,0,0:0:0:0:
182,192,7957,1,0,0:0:0:0:
256,192,7957,1,0,0:0:0:0:
329,192,8048,1,0,0:0:0:0:
475,192,8048,1,0,0:0:0:0:
182,192,8140,1,0,0:0:0:0:
109,192,8231,1,0,0:0:0:0:
402,192,8231,1,0,0:0:0:0:
475,192,8231,1,0,0:0:0:0:
182,192,8323,1,0,0:0:0:0:
36,192,8414,1,0,0:0:0:0:
256,192,8414,1,0,0:0:0:0:
475,192,8414,1,0,0:0:0:0:
182,192,8506,1,0,0:0:0:0:
329,192,8506,1,0,0:0:0:0:
36,192,8597,1,0,0:0:0:0:
109,192,8597,1,0,0:0:0:0:
256,192,8597,1,0,0:0:0:0:
402,192,8597,1,0,0:0:0:0:
475,192,8597,1,0,0:0:0:0:
329,192,8689,1,0,0:0:0:0:
36,192,8780,1,0,0:0:0:0:
256,192,8780,1,0,0:0:0:0:
475,192,8780,1,0,0:0:0:0:
182,192,8871,1,0,0:0:0:0:
329,192,8871,1,0,0:0:0:0:
402,192,8871,1,0,0:0:0:0:
36,192,8963,1,0,0:0:0:0:
109,192,8963,1,0,0:0:0:0:
256,192,8963,1,0,0:0:0:0:
475,192,8963,1,0,0:0:0:0:
402,192,9054,1,0,0:0:0:0:
256,192,9146,1,0,0:0:0:0:
329,192,9146,1,0,0:0:0:0:
109,192,9237,1,0,0:0:0:0:
182,192,9237,1,0,0:0:0:0:
256,192,9329,1,0,0:0:0:0:
329,192,9329,1,0,0:0:0:0:
402,192,9329,1,0,0:0:0:0:
109,192,9420,1,0,0:0:0:0:
182,192,9420,1,0,0:0:0:0:
256,192,9512,1,0,0:0:0:0:
475,192,9512,1,0,0:0:0:0:
329,192,9603,1,0,0:0:0:0:
109,192,9695,1,0,0:0:0:0:
182,192,9695,1,0,0:0:0:0:
402,192,9695,1,0,0:0:0:0:
329,192,9786,1,0,0:0:0:0:
36,192,9878,1,0,0:0:0:0:
182,192,9878,1,0,0:0:0:0:
256,192,9878,1,0,0:0:0:0:
109,192,9969,1,0,0:0:0:0:
475,192,9969,1,0,0:0:0:0:
182,192,10060,1,0,0:0:0:0:
256,192,10060,1,0,0:0:0:0:
329,192,10060,1,0,0:0:0:0:
402,192,10060,1,0,0:0:0:0:
109,192,10152,1,0,0:0:0:0:
36,192,10243,1,0,0:0:0:0:
256,192,10243,1,0,0:0:0:0:
329,192,10243,1,0,0:0:0:0:
109,192,10335,1,0,0:0:0:0:
402,192,10335,1,0,0:0:0:0:
475,192,10335,1,0,0:0:0:0:
36,192,10426,1,0,0:0:0:0:
182,192,10426,1,0,0:0:0:0:
256,192,10426,1,0,0:0:0:0:
329,192,10426,1,0,0:0:0:0:
475,192,10518,1,0,0:0:0:0:
109,192,10609,1,0,0:0:0:0:
329,192,10609,1,0,0:0:0:0:
256,192,10701,1,0,0:0:0:0:
475,192,10701,1,0,0:0:0:0:
36,192,10792,1,0,0:0:0:0:
182,192,10792,1,0,0:0:0:0:
402,192,10792,1,0,0:0:0:0:
109,192,10884,1,0,0:0:0:0:
329,192,10884,1,0,0:0:0:0:
256,192,10975,1,0,0:0:0:0:
475,192,10975,1,0,0:0:0:0:
182,192,11067,1,0,0:0:0:0:
109,192,11158,1,0,0:0:0:0:
329,192,11158,1,0,0:0:0:0:
402,192,11158,1,0,0:0:0:0:
256,192,11250,1,0,0:0:0:0:
36,192,11341,1,0,0:0:0:0:
182,192,11341,1,0,0:0:0:0:
402,192,11341,1,0,0:0:0:0:
256,192,11432,1,0,0:0:0:0:
329,192,11432,1,0,0:0:0:0:
36,192,11524,1,0,0:0:0:0:
109,192,11524,1,0,0:0:0:0:
182,192,11524,1,0,0:0:0:0:
402,192,11524,1,0,0:0:0:0:
475,192,11524,1,0,0:0:0:0:
329,192,11615,1,0,0:0:0:0:
36,192,11707,1,0,0:0:0:0:
256,192,11707,1,0,0:0:0:0:
475,192,11707,1,0,0:0:0:0:
109,192,11798,1,0,0:0:0:0:
329,192,11798,1,0,0:0:0:0:
256,192,11890,1,0,0:0:0:0:
402,192,11890,1,0,0:0:0:0:
182,192,11981,1,0,0:0:0:0:
329,192,11981,1,0,0:0:0:0:
256,192,12073,1,0,0:0:0:0:
475,192,12073,1,0,0:0:0:0:
182,192,12164,1,0,0:0:0:0:
402,192,12164,1,0,0:0:0:0:
36,192,12256,1,0,0:0:0:0:
256,192,12256,1,0,0:0:0:0:
475,192,12256,1,0,0:0:0:0:
329,192,12347,1,0,0:0:0:0:
402,192,12347,1,0,0:0:0:0:
109,192,12439,1,0,0:0:0:0:
182,192,12439,1,0,0:0:0:0:
256,192,12439,1,0,0:0:0:0:
329,192,12530,1,0,0:0:0:0:
402,192,12530,1,0,0:0:0:0:
109,192,12621,1,0,0:0:0:0:
475,192,12621,1,0,0:0:0:0:
256,192,12713,1,0,0:0:0:0:
402,192,12713,1,0,0:0:0:0:
36,192,12804,1,0,0:0:0:0:
109,192,12804,1,0,0:0:0:0:
329,192,12804,1,0,0:0:0:0:
475,192,12804,1,0,0:0:0:0:
182,192,12896,1,0,0:0:0:0:
402,192,12896,1,0,0:0:0:0:
36,192,12987,1,0,0:0:0:0:
256,192,12987,1,0,0:0:0:0:
475,192,12987,1,0,0:0:0:0:
182,192,13079,1,0,0:0:0:0:
329,192,13079,1,0,0:0:0:0:
36,192,13170,1,0,0:0:0:0:
256,192,13170,1,0,0:0:0:0:
475,192,13170,1,0,0:0:0:0:
109,192,13262,1,0,0:0:0:0:
402,192,13262,1,0,0:0:0:0:
182,192,13353,1,0,0:0:0:0:
256,192,13353,1,0,0:0:0:0:
329,192,13353,1,0,0:0:0:0:
109,192,13445,1,0,0:0:0:0:
475,192,13445,1,0,0:0:0:0:
36,192,13536,1,0,0:0:0:0:
256,192,13536,1,0,0:0:0:0:
402,192,13536,1,0,0:0:0:0:
475,192,13628,1,0,0:0:0:0:
256,192,13719,1,0,0:0:0:0:
329,192,13719,1,0,0:0:0:0:
475,192,13810,1,0,0:0:0:0:
36,192,13902,1,0,0:0:0:0:
182,192,13902,1,0,0:0:0:0:
402,192,13902,1,0,0:0:0:0:
109,192,13993,1,0,0:0:0:0:
256,192,13993,1,0,0:0:0:0:
329,192,14085,1,0,0:0:0:0:
402,192,14085,1,0,0:0:0:0:
475,192,14085,1,0,0:0:0:0:
109,192,14176,1,0,0:0:0:0:
256,192,14176,1,0,0:0:0:0:
36,192,14268,1,0,0:0:0:0:
182,192,14268,1,0,0:0:0:0:
402,192,14268,1,0,0:0:0:0:
109,192,14359,1,0,0:0:0:0:
475,192,14359,1,0,0:0:0:0:
182,192,14451,1,0,0:0:0:0:
256,192,14451,1,0,0:0:0:0:
329,192,14451,1,0,0:0:0:0:
109,192,14542,1,0,0:0:0:0:
402,192,14542,1,0,0:0:0:0:
36,192,14634,1,0,0:0:0:0:
329,192,14634,1,0,0:0:0:0:
475,192,14634,1,0,0:0:0:0:
256,192,14725,1,0,0:0:0:0:
182,192,14817,1,0,0:0:0:0:
402,192,14817,1,0,0:0:0:0:
475,192,14908,1,0,0:0:0:0:
36,192,15000,1,0,0:0:0:0:
109,192,15000,1,0,0:0:0:0:
329,192,15000,1,0,0:0:0:0:
256,192,15091,1,0,0:0:0:0:
402,192,15091,1,0,0:0:0:0:
182,192,15182,1,0,0:0:0:0:
329,192,15182,1,0,0:0:0:0:
475,192,15182,1,0,0:0:0:0:
109,192,15274,1,0,0:0:0:0:
402,192,15274,1,0,0:0:0:0:
36,192,15365,1,0,0:0:0:0:
182,192,15365,1,0,0:0:0:0:
256,192,15365,1,0,0:0:0:0:
329,192,15457,1,0,0:0:0:0:
475,192,15457,1,0,0:0:0:0:
182,192,15548,1,0,0:0:0:0:
256,192,15548,1,0,0:0:0:0:
402,192,15548,1,0,0:0:0:0:
109,192,15640,1,0,0:0:0:0:
475,192,15640,1,0,0:0:0:0:
36,192,15731,1,0,0:0:0:0:
329,192,15731,1,0,0:0:0:0:
402,192,15731,1,0,0:0:0:0:
475,192,15823,1,0,0:0:0:0:
182,192,15914,1,0,0:0:0:0:
256,192,15914,1,0,0:0:0:0:
402,192,15914,1,0,0:0:0:0:
329,192,16006,1,0,0:0:0:0:
36,192,16097,1,0,0:0:0:0:
109,192,16097,1,0,0:0:0:0:
475,192,16097,1,0,0:0:0:0:
329,192,16189,1,0,0:0:0:0:
402,192,16189,1,0,0:0:0:0:
109,192,16280,1,0,0:0:0:0:
182,192,16280,1,0,0:0:0:0:
256,192,16280,1,0,0:0:0:0:
402,192,16371,1,0,0:0:0:0:
475,192,16371,1,0,0:0:0:0:
36,192,16463,1,0,0:0:0:0:
256,192,16463,1,0,0:0:0:0:
329,192,16463,1,0,0:0:0:0:
475,192,16554,1,0,0:0:0:0:
182,192,16646,1,0,0:0:0:0:
256,192,16646,1,0,0:0:0:0:
402,192,16737,1,0,0:0:0:0:
36,192,16829,1,0,0:0:0:0:
109,192,16829,1,0,0:0:0:0:
182,192,16829,1,0,0:0:0:0:
256,192,16920,1,0,0:0:0:0:
475,192,16920,1,0,0:0:0:0:
109,192,17012,1,0,0:0:0:0:
329,192,17012,1,0,0:0:0:0:
402,192,17012,1,0,0:0:0:0:
256,192,17103,1,0,0:0:0:0:
475,192,17103,1,0,0:0:0:0:
36,192,17195,1,0,0:0:0:0:
182,192,17195,1,0,0:0:0:0:
402,192,17195,1,0,0:0:0:0:
109,192,17286,1,0,0:0:0:0:
256,192,17286,1,0,0:0:0:0:
182,192,17378,1,0,0:0:0:0:
329,192,17378,1,0,0:0:0:0:
475,192,17378,1,0,0:0:0:0:
109,192,17469,1,0,0:0:0:0:
402,192,17469,1,0,0:0:0:0:
36,192,17560,1,0,0:0:0:0:
256,192,17560,1,0,0:0:0:0:
329,192,17560,1,0,0:0:0:0:
475,192,17652,1,0,0:0:0:0:
182,192,17743,1,0,0:0:0:0:
329,192,17743,1,0,0:0:0:0:
475,192,17835,1,0,0:0:0:0:
36,192,17926,1,0,0:0:0:0:
329,192,17926,1,0,0:0:0:0:
402,192,17926,1,0,0:0:0:0:
256,192,18018,1,0,0:0:0:0:
475,192,18018,1,0,0:0:0:0:
109,192,18109,1,0,0:0:0:0:
182,192,18109,1,0,0:0:0:0:
402,192,18109,1,0,0:0:0:0:
256,192,18201,1,0,0:0:0:0:
475,192,18201,1,0,0:0:0:0:
36,192,18292,1,0,0:0:0:0:
182,192,18292,1,0,0:0:0:0:
329,192,18292,1,0,0:0:0:0:
256,192,18384,1,0,0:0:0:0:
402,192,18384,1,0,0:0:0:0:
109,192,18475,1,0,0:0:0:0:
182,192,18475,1,0,0:0:0:0:
475,192,18475,1,0,0:0:0:0:
329,192,18567,1,0,0:0:0:0:
402,192,18567,1,0,0:0:0:0:
36,192,18658,1,0,0:0:0:0:
256,192,18658,1,0,0:0:0:0:
475,192,18658,1,0,0:0:0:0:
109,192,18750,1,0,0:0:0:0:
182,192,18841,1,0,0:0:0:0:
329,192,18841,1,0,0:0:0:0:
402,192,18841,1,0,0:0:0:0:
256,192,18932,1,0,0:0:0:0:
36,192,19024,1,0,0:0:0:0:
109,192,19024,1,0,0:0:0:0:
475,192,19024,1,0,0:0:0:0:
329,192,19115,1,0,0:0:0:0:
402,192,19115,1,0,0:0:0:0:
36,192,19207,1,0,0:0:0:0:
182,192,19207,1,0,0:0:0:0:
329,192,19298,1,0,0:0:0:0:
475,192,19298,1,0,0:0:0:0:
36,192,19390,1,0,0:0:0:0:
256,192,19390,1,0,0:0:0:0:
402,192,19390,1,0,0:0:0:0:
109,192,19481,1,0,0:0:0:0:
402,192,19573,1,0,0:0:0:0:
109,192,19664,1,0,0:0:0:0:
36,192,19756,1,0,0:0:0:0:
329,192,19756,1,0,0:0:0:0:
402,192,19756,1,0,0:0:0:0:
182,192,19847,1,0,0:0:0:0:
256,192,19847,1,0,0:0:0:0:
329,192,19939,1,0,0:0:0:0:
475,192,19939,1,0,0:0:0:0:
182,192,20030,1,0,0:0:0:0:
256,192,20030,1,0,0:0:0:0:
329,192,20121,1,0,0:0:0:0:
402,192,20121,1,0,0:0:0:0:
475,192,20121,1,0,0:0:0:0:
36,192,20213,1,0,0:0:0:0:
109,192,20213,1,0,0:0:0:0:
182,192,20304,1,0,0:0:0:0:
402,192,20304,1,0,0:0:0:0:
109,192,20396,1,0,0:0:0:0:
329,192,20396,1,0,0:0:0:0:
36,192,20487,1,0,0:0:0:0:
256,192,20487,1,0,0:0:0:0:
475,192,20487,1,0,0:0:0:0:
182,192,20579,1,0,0:0:0:0:
36,192,20670,1,0,0:0:0:0:
182,192,20762,1,0,0:0:0:0:
36,192,20853,1,0,0:0:0:0:
109,192,20853,1,0,0:0:0:0:
475,192,20853,1,0,0:0:0:0:
182,192,20945,1,0,0:0:0:0:
256,192,20945,1,0,0:0:0:0:
329,192,21036,1,0,0:0:0:0:
402,192,21036,1,0,0:0:0:0:
182,192,21128,1,0,0:0:0:0:
475,192,21128,1,0,0:0:0:0:
36,192,21219,1,0,0:0:0:0:
329,192,21219,1,0,0:0:0:0:
402,192,21219,1,0,0:0:0:0:
109,192,21310,1,0,0:0:0:0:
256,192,21310,1,0,0:0:0:0:
182,192,21402,1,0,0:0:0:0:
329,192,21402,1,0,0:0:0:0:
109,192,21493,1,0,0:0:0:0:
402,192,21493,1,0,0:0:0:0:
182,192,21585,1,0,0:0:0:0:
256,192,21585,1,0,0:0:0:0:
475,192,21585,1,0,0:0:0:0:
329,192,21676,1,0,0:0:0:0:
182,192,21768,1,0,0:0:0:0:
475,192,21768,1,0,0:0:0:0:
402,192,21859,1,0,0:0:0:0:
36,192,21951,1,0,0:0:0:0:
109,192,21951,1,0,0:0:0:0:
256,192,21951,1,0,0:0:0:0:
329,192,22042,1,0,0:0:0:0:
402,192,22042,1,0,0:0:0:0:
36,192,22134,1,0,0:0:0:0:
182,192,22134,1,0,0:0:0:0:
329,192,22225,1,0,0:0:0:0:
475,192,22225,1,0,0:0:0:0:
36,192,22317,1,0,0:0:0:0:
256,192,22317,1,0,0:0:0:0:
402,192,22317,1,0,0:0:0:0:
109,192,22408,1,0,0:0:0:0:
402,192,22500,1,0,0:0:0:0:
109,192,22591,1,0,0:0:0:0:
36,192,22682,1,0,0:0:0:0:
329,192,22682,1,0,0:0:0:0:
402,192,22682,1,0,0:0:0:0:
182,192,22774,1,0,0:0:0:0:
256,192,22774,1,0,0:0:0:0:
329,192,22865,1,0,0:0:0:0:
475,192,22865,1,0,0:0:0:0:
182,192,22957,1,0,0:0:0:0:
256,192,22957,1,0,0:0:0:0:
329,192,23048,1,0,0:0:0:0:
402,192,23048,1,0,0:0:0:0:
475,192,23048,1,0,0:0:0:0:
36,192,23140,1,0,0:0:0:0:
109,192,23140,1,0,0:0:0:0:
182,192,23231,1,0,0:0:0:0:
402,192,23231,1,0,0:0:0:0:
109,192,23323,1,0,0:0:0:0:
329,192,23323,1,0,0:0:0:0:
36,192,23414,1,0,0:0:0:0:
256,192,23414,1,0,0:0:0:0:
475,192,23414,1,0,0:0:0:0:
182,192,23506,1,0,0:0:0:0:
36,192,23597,1,0,0:0:0:0:
182,192,23689,1,0,0:0:0:0:
36,192,23780,1,0,0:0:0:0:
109,192,23780,1,0,0:0:0:0:
329,192,23780,1,0,0:0:0:0:
475,192,23780,1,0,0:0:0:0:
182,192,23871,1,0,0:0:0:0:
256,192,23871,1,0,0:0:0:0:
402,192,23871,1,0,0:0:0:0:
36,192,23963,1,0,0:0:0:0:
109,192,23963,1,0,0:0:0:0:
329,192,23963,1,0,0:0:0:0:
475,192,23963,1,0,0:0:0:0:
182,192,24054,1,0,0:0:0:0:
256,192,24054,1,0,0:0:0:0:
402,192,24054,1,0,0:0:0:0:
36,192,24146,1,0,0:0:0:0:
256,192,24146,1,0,0:0:0:0:
402,192,24146,1,0,0:0:0:0:
475,192,24146,1,0,0:0:0:0:
109,192,24237,1,0,0:0:0:0:
182,192,24237,1,0,0:0:0:0:
329,192,24237,1,0,0:0:0:0:
36,192,24329,1,0,0:0:0:0:
256,192,24329,1,0,0:0:0:0:
402,192,24329,1,0,0:0:0:0:
475,192,24329,1,0,0:0:0:0:
109,192,24420,1,0,0:0:0:0:
182,192,24420,1,0,0:0:0:0:
329,192,24420,1,0,0:0:0:0:
36,192,24512,1,0,0:0:0:0:
256,192,24512,1,0,0:0:0:0:
475,192,24512,1,0,0:0:0:0:
109,192,24603,1,0,0:0:0:0:
402,192,24603,1,0,0:0:0:0:
36,192,24695,1,0,0:0:0:0:
182,192,24695,1,0,0:0:0:0:
256,192,24695,1,0,0:0:0:0:
329,192,24695,1,0,0:0:0:0:
109,192,24786,1,0,0:0:0:0:
475,192,24786,1,0,0:0:0:0:
36,192,24878,1,0,0:0:0:0:
182,192,24878,1,0,0:0:0:0:
256,192,24878,1,0,0:0:0:0:
402,192,24878,1,0,0:0:0:0:
329,192,24939,1,0,0:0:0:0:
109,192,24969,1,0,0:0:0:0:
256,192,25000,1,0,0:0:0:0:
402,192,25060,1,0,0:0:0:0:
475,192,25060,1,0,0:0:0:0:
182,192,25121,1,0,0:0:0:0:
256,192,25182,1,0,0:0:0:0:
36,192,25243,1,0,0:0:0:0:
329,192,25243,1,0,0:0:0:0:
475,192,25243,1,0,0:0:0:0:
182,192,25304,1,0,0:0:0:0:
109,192,25335,1,0,0:0:0:0:
329,192,25365,1,0,0:0:0:0:
256,192,25426,1,0,0:0:0:0:
402,192,25426,1,0,0:0:0:0:
475,192,25426,1,0,0:0:0:0:
182,192,25487,1,0,0:0:0:0:
109,192,25548,1,0,0:0:0:0:
36,192,25609,1,0,0:0:0:0:
329,192,25609,1,0,0:0:0:0:
402,192,25609,1,0,0:0:0:0:
256,192,25670,1,0,0:0:0:0:
109,192,25701,1,0,0:0:0:0:
402,192,25731,1,0,0:0:0:0:
182,192,25792,1,0,0:0:0:0:
329,192,25792,1,0,0:0:0:0:
475,192,25792,1,0,0:0:0:0:
256,192,25853,1,0,0:0:0:0:
402,192,25914,1,0,0:0:0:0:
36,192,25975,1,0,0:0:0:0:
475,192,25975,1,0,0:0:0:0:
402,192,26036,1,0,0:0:0:0:
109,192,26067,1,0,0:0:0:0:
182,192,26097,1,0,0:0:0:0:
256,192,26158,1,0,0:0:0:0:
329,192,26158,1,0,0:0:0:0:
475,192,26158,1,0,0:0:0:0:
402,192,26219,1,0,0:0:0:0:
109,192,26280,1,0,0:0:0:0:
36,192,26341,1,0,0:0:0:0:
256,192,26341,1,0,0:0:0:0:
329,192,26341,1,0,0:0:0:0:
182,192,26402,1,0,0:0:0:0:
402,192,26463,1,0,0:0:0:0:
109,192,26524,1,0,0:0:0:0:
475,192,26524,1,0,0:0:0:0:
329,192,26585,1,0,0:0:0:0:
475,192,26646,1,0,0:0:0:0:
36,192,26707,1,0,0:0:0:0:
182,192,26707,1,0,0:0:0:0:
329,192,26768,1,0,0:0:0:0:
182,192,26829,1,0,0:0:0:0:
329,192,26890,1,0,0:0:0:0:
182,192,26951,1,0,0:0:0:0:
329,192,27012,1,0,0:0:0:0:
36,192,27073,1,0,0:0:0:0:
256,192,27073,1,0,0:0:0:0:
402,192,27134,1,0,0:0:0:0:
256,192,27195,1,0,0:0:0:0:
475,192,27256,1,0,0:0:0:0:
256,192,27317,1,0,0:0:0:0:
475,192,27378,1,0,0:0:0:0:
36,192,27439,1,0,0:0:0:0:
329,192,27439,1,0,0:0:0:0:
402,192,27500,1,0,0:0:0:0:
329,192,27560,1,0,0:0:0:0:
402,192,27621,1,0,0:0:0:0:
329,192,27682,1,0,0:0:0:0:
402,192,27743,1,0,0:0:0:0:
36,192,27804,1,0,0:0:0:0:
182,192,27804,1,0,0:0:0:0:
475,192,27804,1,0,0:0:0:0:
109,192,27865,1,0,0:0:0:0:
329,192,27896,1,0,0:0:0:0:
402,192,27926,1,0,0:0:0:0:
256,192,27987,1,0,0:0:0:0:
475,192,27987,1,0,0:0:0:0:
402,192,28048,1,0,0:0:0:0:
329,192,28109,1,0,0:0:0:0:
36,192,28170,1,0,0:0:0:0:
109,192,28170,1,0,0:0:0:0:
475,192,28170,1,0,0:0:0:0:
182,192,28231,1,0,0:0:0:0:
329,192,28262,1,0,0:0:0:0:
402,192,28292,1,0,0:0:0:0:
109,192,28353,1,0,0:0:0:0:
256,192,28353,1,0,0:0:0:0:
475,192,28353,1,0,0:0:0:0:
329,192,28414,1,0,0:0:0:0:
182,192,28475,1,0,0:0:0:0:
36,192,28536,1,0,0:0:0:0:
256,192,28536,1,0,0:0:0:0:
402,192,28536,1,0,0:0:0:0:
109,192,28597,1,0,0:0:0:0:
329,192,28628,1,0,0:0:0:0:
182,192,28658,1,0,0:0:0:0:
256,192,28719,1,0,0:0:0:0:
402,192,28719,1,0,0:0:0:0:
475,192,28719,1,0,0:0:0:0:
329,192,28780,1,0,0:0:0:0:
402,192,28841,1,0,0:0:0:0:
36,192,28902,1,0,0:0:0:0:
182,192,28902,1,0,0:0:0:0:
475,192,28902,1,0,0:0:0:0:
402,192,28963,1,0,0:0:0:0:
256,192,28993,1,0,0:0:0:0:
109,192,29024,1,0,0:0:0:0:
182,192,29085,1,0,0:0:0:0:
329,192,29085,1,0,0:0:0:0:
475,192,29085,1,0,0:0:0:0:
402,192,29146,1,0,0:0:0:0:
256,192,29207,1,0,0:0:0:0:
36,192,29268,1,0,0:0:0:0:
182,192,29268,1,0,0:0:0:0:
475,192,29268,1,0,0:0:0:0:
329,192,29329,1,0,0:0:0:0:
256,192,29359,1,0,0:0:0:0:
402,192,29390,1,0,0:0:0:0:
109,192,29451,1,0,0:0:0:0:
329,192,29451,1,0,0:0:0:0:
475,192,29451,1,0,0:0:0:0:
256,192,29512,1,0,0:0:0:0:
182,192,29573,1,0,0:0:0:0:
329,192,29634,1,0,0:0:0:0:
402,192,29634,1,0,0:0:0:0:
475,192,29634,1,0,0:0:0:0:
109,192,29695,1,0,0:0:0:0:
256,192,29756,1,0,0:0:0:0:
36,192,29817,1,0,0:0:0:0:
182,192,29817,1,0,0:0:0:0:
329,192,29817,1,0,0:0:0:0:
402,192,29878,1,0,0:0:0:0:
256,192,29939,1,0,0:0:0:0:
36,192,30000,1,0,0:0:0:0:
109,192,30000,1,0,0:0:0:0:
182,192,30000,1,0,0:0:0:0:
475,192,30000,1,0,0:0:0:0:
402,192,30060,1,0,0:0:0:0:
329,192,30091,1,0,0:0:0:0:
109,192,30121,1,0,0:0:0:0:
256,192,30121,1,0,0:0:0:0:
182,192,30182,1,0,0:0:0:0:
402,192,30182,1,0,0:0:0:0:
475,192,30182,1,0,0:0:0:0:
256,192,30243,1,0,0:0:0:0:
329,192,30243,1,0,0:0:0:0:
109,192,30274,1,0,0:0:0:0:
402,192,30304,1,0,0:0:0:0:
36,192,30365,1,0,0:0:0:0:
182,192,30365,1,0,0:0:0:0:
256,192,30365,1,0,0:0:0:0:
329,192,30365,1,0,0:0:0:0:
475,192,30365,1,0,0:0:0:0:
402,192,30426,1,0,0:0:0:0:
329,192,30457,1,0,0:0:0:0:
109,192,30487,1,0,0:0:0:0:
182,192,30487,1,0,0:0:0:0:
36,192,30548,1,0,0:0:0:0:
256,192,30548,1,0,0:0:0:0:
475,192,30548,1,0,0:0:0:0:
109,192,30609,1,0,0:0:0:0:
402,192,30609,1,0,0:0:0:0:
329,192,30640,1,0,0:0:0:0:
182,192,30670,1,0,0:0:0:0:
36,192,30731,1,0,0:0:0:0:
402,192,30731,1,0,0:0:0:0:
475,192,30731,1,0,0:0:0:0:
329,192,30792,1,0,0:0:0:0:
182,192,30823,1,0,0:0:0:0:
109,192,30853,1,0,0:0:0:0:
256,192,30914,1,0,0:0:0:0:
475,192,30914,1,0,0:0:0:0:
329,192,30975,1,0,0:0:0:0:
109,192,31036,1,0,0:0:0:0:
36,192,31097,1,0,0:0:0:0:
256,192,31097,1,0,0:0:0:0:
402,192,31097,1,0,0:0:0:0:
329,192,31158,1,0,0:0:0:0:
182,192,31189,1,0,0:0:0:0:
109,192,31219,1,0,0:0:0:0:
256,192,31280,1,0,0:0:0:0:
402,192,31280,1,0,0:0:0:0:
475,192,31280,1,0,0:0:0:0:
329,192,31341,1,0,0:0:0:0:
109,192,31402,1,0,0:0:0:0:
36,192,31463,1,0,0:0:0:0:
256,192,31463,1,0,0:0:0:0:
402,192,31463,1,0,0:0:0:0:
475,192,31524,1,0,0:0:0:0:
182,192,31554,1,0,0:0:0:0:
329,192,31585,1,0,0:0:0:0:
36,192,31646,1,0,0:0:0:0:
256,192,31646,1,0,0:0:0:0:
402,192,31646,1,0,0:0:0:0:
109,192,31707,1,0,0:0:0:0:
475,192,31768,1,0,0:0:0:0:
36,192,31829,1,0,0:0:0:0:
329,192,31829,1,0,0:0:0:0:
109,192,31890,1,0,0:0:0:0:
182,192,31920,1,0,0:0:0:0:
475,192,31951,1,0,0:0:0:0:
256,192,32012,1,0,0:0:0:0:
329,192,32012,1,0,0:0:0:0:
402,192,32012,1,0,0:0:0:0:
109,192,32073,1,0,0:0:0:0:
182,192,32134,1,0,0:0:0:0:
36,192,32195,1,0,0:0:0:0:
329,192,32195,1,0,0:0:0:0:
475,192,32195,1,0,0:0:0:0:
402,192,32256,1,0,0:0:0:0:
182,192,32317,1,0,0:0:0:0:
109,192,32378,1,0,0:0:0:0:
256,192,32378,1,0,0:0:0:0:
402,192,32439,1,0,0:0:0:0:
475,192,32500,1,0,0:0:0:0:
36,192,32560,1,0,0:0:0:0:
182,192,32560,1,0,0:0:0:0:
329,192,32621,1,0,0:0:0:0:
182,192,32682,1,0,0:0:0:0:
329,192,32743,1,0,0:0:0:0:
256,192,32804,1,0,0:0:0:0:
402,192,32865,1,0,0:0:0:0:
36,192,32926,1,0,0:0:0:0:
109,192,32926,1,0,0:0:0:0:
329,192,32987,1,0,0:0:0:0:
109,192,33048,1,0,0:0:0:0:
402,192,33109,1,0,0:0:0:0:
109,192,33170,1,0,0:0:0:0:
402,192,33231,1,0,0:0:0:0:
36,192,33292,1,0,0:0:0:0:
182,192,33292,1,0,0:0:0:0:
475,192,33353,1,0,0:0:0:0:
182,192,33414,1,0,0:0:0:0:
475,192,33475,1,0,0:0:0:0:
182,192,33536,1,0,0:0:0:0:
475,192,33597,1,0,0:0:0:0:
36,192,33658,1,0,0:0:0:0:
256,192,33658,1,0,0:0:0:0:
402,192,33658,1,0,0:0:0:0:
109,192,33719,1,0,0:0:0:0:
475,192,33750,1,0,0:0:0:0:
182,192,33780,1,0,0:0:0:0:
329,192,33841,1,0,0:0:0:0:
402,192,33841,1,0,0:0:0:0:
256,192,33902,1,0,0:0:0:0:
109,192,33963,1,0,0:0:0:0:
36,192,34024,1,0,0:0:0:0:
182,192,34024,1,0,0:0:0:0:
329,192,34024,1,0,0:0:0:0:
402,192,34085,1,0,0:0:0:0:
475,192,34115,1,0,0:0:0:0:
109,192,34146,1,0,0:0:0:0:
182,192,34207,1,0,0:0:0:0:
256,192,34207,1,0,0:0:0:0:
329,192,34207,1,0,0:0:0:0:
475,192,34268,1,0,0:0:0:0:
109,192,34329,1,0,0:0:0:0:
36,192,34390,1,0,0:0:0:0:
182,192,34390,1,0,0:0:0:0:
402,192,34390,1,0,0:0:0:0:
256,192,34451,1,0,0:0:0:0:
475,192,34481,1,0,0:0:0:0:
109,192,34512,1,0,0:0:0:0:
182,192,34573,1,0,0:0:0:0:
329,192,34573,1,0,0:0:0:0:
402,192,34573,1,0,0:0:0:0:
256,192,34634,1,0,0:0:0:0:
475,192,34695,1,0,0:0:0:0:
36,192,34756,1,0,0:0:0:0:
109,192,34756,1,0,0:0:0:0:
329,192,34756,1,0,0:0:0:0:
402,192,34756,1,0,0:0:0:0:
256,192,34817,1,0,0:0:0:0:
475,192,34847,1,0,0:0:0:0:
182,192,34878,1,0,0:0:0:0:
109,192,34939,1,0,0:0:0:0:
256,192,34939,1,0,0:0:0:0:
329,192,34939,1,0,0:0:0:0:
475,192,35000,1,0,0:0:0:0:
402,192,35060,1,0,0:0:0:0:
36,192,35121,1,0,0:0:0:0:
109,192,35121,1,0,0:0:0:0:
182,192,35121,1,0,0:0:0:0:
256,192,35182,1,0,0:0:0:0:
475,192,35243,1,0,0:0:0:0:
182,192,35304,1,0,0:0:0:0:
329,192,35304,1,0,0:0:0:0:
402,192,35304,1,0,0:0:0:0:
109,192,35365,1,0,0:0:0:0:
475,192,35426,1,0,0:0:0:0:
182,192,35487,1,0,0:0:0:0:
256,192,35487,1,0,0:0:0:0:
402,192,35487,1,0,0:0:0:0:
329,192,35548,1,0,0:0:0:0:
475,192,35609,1,0,0:0:0:0:
36,192,35670,1,0,0:0:0:0:
109,192,35670,1,0,0:0:0:0:
256,192,35670,1,0,0:0:0:0:
329,192,35731,1,0,0:0:0:0:
475,192,35792,1,0,0:0:0:0:
109,192,35853,1,0,0:0:0:0:
182,192,35853,1,0,0:0:0:0:
256,192,35853,1,0,0:0:0:0:
402,192,35853,1,0,0:0:0:0:
329,192,35914,1,0,0:0:0:0:
36,192,35975,1,0,0:0:0:0:
109,192,35975,1,0,0:0:0:0:
256,192,36036,1,0,0:0:0:0:
402,192,36036,1,0,0:0:0:0:
475,192,36036,1,0,0:0:0:0:
109,192,36097,1,0,0:0:0:0:
182,192,36097,1,0,0:0:0:0:
329,192,36158,1,0,0:0:0:0:
36,192,36219,1,0,0:0:0:0:
182,192,36219,1,0,0:0:0:0:
256,192,36219,1,0,0:0:0:0:
402,192,36219,1,0,0:0:0:0:
475,192,36219,1,0,0:0:0:0:
109,192,36280,1,0,0:0:0:0:
329,192,36310,1,0,0:0:0:0:
402,192,36341,1,0,0:0:0:0:
475,192,36341,1,0,0:0:0:0:
36,192,36402,1,0,0:0:0:0:
109,192,36402,1,0,0:0:0:0:
256,192,36402,1,0,0:0:0:0:
329,192,36402,1,0,0:0:0:0:
182,192,36463,1,0,0:0:0:0:
475,192,36463,1,0,0:0:0:0:
329,192,36493,1,0,0:0:0:0:
402,192,36524,1,0,0:0:0:0:
36,192,36585,1,0,0:0:0:0:
256,192,36585,1,0,0:0:0:0:
475,192,36585,1,0,0:0:0:0:
182,192,36646,1,0,0:0:0:0:
402,192,36707,1,0,0:0:0:0:
109,192,36768,1,0,0:0:0:0:
475,192,36829,1,0,0:0:0:0:
329,192,36890,1,0,0:0:0:0:
36,192,36951,1,0,0:0:0:0:
256,192,36951,1,0,0:0:0:0:
402,192,36951,1,0,0:0:0:0:
182,192,37012,1,0,0:0:0:0:
475,192,37073,1,0,0:0:0:0:
109,192,37134,1,0,0:0:0:0:
402,192,37134,1,0,0:0:0:0:
182,192,37195,1,0,0:0:0:0:
329,192,37256,1,0,0:0:0:0:
36,192,37317,1,0,0:0:0:0:
256,192,37317,1,0,0:0:0:0:
475,192,37317,1,0,0:0:0:0:
402,192,37378,1,0,0:0:0:0:
109,192,37439,1,0,0:0:0:0:
182,192,37500,1,0,0:0:0:0:
256,192,37500,1,0,0:0:0:0:
329,192,37560,1,0,0:0:0:0:
475,192,37621,1,0,0:0:0:0:
36,192,37682,1,0,0:0:0:0:
402,192,37682,1,0,0:0:0:0:
182,192,37743,1,0,0:0:0:0:
475,192,37804,1,0,0:0:0:0:
256,192,37865,1,0,0:0:0:0:
329,192,37865,1,0,0:0:0:0:
402,192,37926,1,0,0:0:0:0:
109,192,37987,1,0,0:0:0:0:
36,192,38048,1,0,0:0:0:0:
182,192,38048,1,0,0:0:0:0:
475,192,38048,1,0,0:0:0:0:
256,192,38109,1,0,0:0:0:0:
402,192,38170,1,0,0:0:0:0:
109,192,38231,1,0,0:0:0:0:
475,192,38231,1,0,0:0:0:0:
182,192,38292,1,0,0:0:0:0:
256,192,38353,1,0,0:0:0:0:
36,192,38414,1,0,0:0:0:0:
402,192,38414,1,0,0:0:0:0:
329,192,38475,1,0,0:0:0:0:
182,192,38536,1,0,0:0:0:0:
475,192,38597,1,0,0:0:0:0:
256,192,38658,1,0,0:0:0:0:
109,192,38719,1,0,0:0:0:0:
36,192,38780,1,0,0:0:0:0:
402,192,38780,1,0,0:0:0:0:
329,192,38841,1,0,0:0:0:0:
475,192,38902,1,0,0:0:0:0:
256,192,38963,1,0,0:0:0:0:
402,192,39024,1,0,0:0:0:0:
109,192,39085,1,0,0:0:0:0:
36,192,39146,1,0,0:0:0:0:
329,192,39146,1,0,0:0:0:0:
475,192,39207,1,0,0:0:0:0:
182,192,39268,1,0,0:0:0:0:
256,192,39329,1,0,0:0:0:0:
402,192,39390,1,0,0:0:0:0:
329,192,39451,1,0,0:0:0:0:
36,192,39512,1,0,0:0:0:0:
182,192,39512,1,0,0:0:0:0:
475,192,39512,1,0,0:0:0:0:
402,192,39573,1,0,0:0:0:0:
256,192,39634,1,0,0:0:0:0:
475,192,39695,1,0,0:0:0:0:
402,192,39756,1,0,0:0:0:0:
109,192,39817,1,0,0:0:0:0:
36,192,39878,1,0,0:0:0:0:
256,192,39878,1,0,0:0:0:0:
475,192,39878,1,0,0:0:0:0:
182,192,39939,1,0,0:0:0:0:
402,192,40000,1,0,0:0:0:0:
329,192,40060,1,0,0:0:0:0:
475,192,40060,1,0,0:0:0:0:
109,192,40121,1,0,0:0:0:0:
256,192,40182,1,0,0:0:0:0:
36,192,40243,1,0,0:0:0:0:
402,192,40243,1,0,0:0:0:0:
475,192,40243,1,0,0:0:0:0:
182,192,40304,1,0,0:0:0:0:
329,192,40365,1,0,0:0:0:0:
256,192,40426,1,0,0:0:0:0:
402,192,40426,1,0,0:0:0:0:
109,192,40487,1,0,0:0:0:0:
475,192,40548,1,0,0:0:0:0:
36,192,40609,1,0,0:0:0:0:
182,192,40609,1,0,0:0:0:0:
256,192,40609,1,0,0:0:0:0:
402,192,40670,1,0,0:0:0:0:
109,192,40731,1,0,0:0:0:0:
329,192,40792,1,0,0:0:0:0:
475,192,40792,1,0,0:0:0:0:
402,192,40853,1,0,0:0:0:0:
256,192,40914,1,0,0:0:0:0:
36,192,40975,1,0,0:0:0:0:
182,192,40975,1,0,0:0:0:0:
329,192,40975,1,0,0:0:0:0:
475,192,41036,1,0,0:0:0:0:
256,192,41067,1,0,0:0:0:0:
402,192,41097,1,0,0:0:0:0:
109,192,41158,1,0,0:0:0:0:
182,192,41158,1,0,0:0:0:0:
329,192,41158,1,0,0:0:0:0:
475,192,41158,1,0,0:0:0:0:
36,192,41219,1,0,0:0:0:0:
402,192,41250,1,0,0:0:0:0:
329,192,41280,1,0,0:0:0:0:
109,192,41341,1,0,0:0:0:0:
182,192,41341,1,0,0:0:0:0:
256,192,41341,1,0,0:0:0:0:
475,192,41341,1,0,0:0:0:0:
402,192,41402,1,0,0:0:0:0:
182,192,41432,1,0,0:0:0:0:
329,192,41463,1,0,0:0:0:0:
36,192,41524,1,0,0:0:0:0:
402,192,41524,1,0,0:0:0:0:
475,192,41524,1,0,0:0:0:0:
256,192,41585,1,0,0:0:0:0:
182,192,41646,1,0,0:0:0:0:
109,192,41707,1,0,0:0:0:0:
256,192,41707,1,0,0:0:0:0:
329,192,41707,1,0,0:0:0:0:
402,192,41707,1,0,0:0:0:0:
475,192,41707,1,0,0:0:0:0:
36,192,41768,1,0,0:0:0:0:
182,192,41798,1,0,0:0:0:0:
475,192,41798,1,0,0:0:0:0:
109,192,41829,1,0,0:0:0:0:
329,192,41829,1,0,0:0:0:0:
36,192,41890,1,0,0:0:0:0:
182,192,41890,1,0,0:0:0:0:
402,192,41890,1,0,0:0:0:0:
475,192,41890,1,0,0:0:0:0:
256,192,41951,1,0,0:0:0:0:
329,192,41951,1,0,0:0:0:0:
109,192,41981,1,0,0:0:0:0:
182,192,41981,1,0,0:0:0:0:
402,192,42012,1,0,0:0:0:0:
36,192,42073,1,0,0:0:0:0:
109,192,42073,1,0,0:0:0:0:
256,192,42073,1,0,0:0:0:0:
329,192,42073,1,0,0:0:0:0:
475,192,42073,1,0,0:0:0:0:
402,192,42134,1,0,0:0:0:0:
256,192,42164,1,0,0:0:0:0:
182,192,42195,1,0,0:0:0:0:
329,192,42195,1,0,0:0:0:0:
36,192,42256,1,0,0:0:0:0:
109,192,42256,1,0,0:0:0:0:
475,192,42256,1,0,0:0:0:0:
182,192,42317,1,0,0:0:0:0:
402,192,42317,1,0,0:0:0:0:
256,192,42347,1,0,0:0:0:0:
329,192,42378,1,0,0:0:0:0:
36,192,42439,1,0,0:0:0:0:
182,192,42439,1,0,0:0:0:0:
475,192,42439,1,0,0:0:0:0:
402,192,42500,1,0,0:0:0:0:
329,192,42560,1,0,0:0:0:0:
475,192,42621,1,0,0:0:0:0:
402,192,42682,1,0,0:0:0:0:
329,192,42743,1,0,0:0:0:0:
36,192,42804,1,0,0:0:0:0:
182,192,42804,1,0,0:0:0:0:
475,192,42804,1,0,0:0:0:0:
402,192,42865,1,0,0:0:0:0:
256,192,42926,1,0,0:0:0:0:
329,192,42987,1,0,0:0:0:0:
475,192,42987,1,0,0:0:0:0:
402,192,43048,1,0,0:0:0:0:
256,192,43109,1,0,0:0:0:0:
36,192,43170,1,0,0:0:0:0:
182,192,43170,1,0,0:0:0:0:
475,192,43170,1,0,0:0:0:0:
329,192,43231,1,0,0:0:0:0:
109,192,43292,1,0,0:0:0:0:
182,192,43353,1,0,0:0:0:0:
475,192,43353,1,0,0:0:0:0:
329,192,43414,1,0,0:0:0:0:
109,192,43475,1,0,0:0:0:0:
36,192,43536,1,0,0:0:0:0:
402,192,43536,1,0,0:0:0:0:
329,192,43597,1,0,0:0:0:0:
256,192,43658,1,0,0:0:0:0:
182,192,43719,1,0,0:0:0:0:
402,192,43719,1,0,0:0:0:0:
329,192,43780,1,0,0:0:0:0:
36,192,43902,1,0,0:0:0:0:
182,192,43902,1,0,0:0:0:0:
256,192,43902,1,0,0:0:0:0:
402,192,43902,1,0,0:0:0:0:
475,192,43963,1,0,0:0:0:0:
329,192,44024,1,0,0:0:0:0:
109,192,44085,1,0,0:0:0:0:
256,192,44085,1,0,0:0:0:0:
475,192,44146,1,0,0:0:0:0:
182,192,44207,1,0,0:0:0:0:
36,192,44268,1,0,0:0:0:0:
329,192,44268,1,0,0:0:0:0:
402,192,44329,1,0,0:0:0:0:
109,192,44390,1,0,0:0:0:0:
256,192,44451,1,0,0:0:0:0:
329,192,44512,1,0,0:0:0:0:
475,192,44573,1,0,0:0:0:0:
36,192,44634,1,0,0:0:0:0:
182,192,44634,1,0,0:0:0:0:
402,192,44695,1,0,0:0:0:0:
109,192,44756,1,0,0:0:0:0:
329,192,44817,1,0,0:0:0:0:
182,192,44878,1,0,0:0:0:0:
256,192,44939,1,0,0:0:0:0:
36,192,45000,1,0,0:0:0:0:
475,192,45000,1,0,0:0:0:0:
329,192,45060,1,0,0:0:0:0:
402,192,45121,1,0,0:0:0:0:
182,192,45182,1,0,0:0:0:0:
256,192,45243,1,0,0:0:0:0:
475,192,45304,1,0,0:0:0:0:
36,192,45365,1,0,0:0:0:0:
109,192,45365,1,0,0:0:0:0:
329,192,45365,1,0,0:0:0:0:
256,192,45457,1,0,0:0:0:0:
402,192,45457,1,0,0:0:0:0:
182,192,45548,1,0,0:0:0:0:
475,192,45548,1,0,0:0:0:0:
256,192,45640,1,0,0:0:0:0:
36,192,45731,1,0,0:0:0:0:
109,192,45731,1,0,0:0:0:0:
329,192,45731,1,0,0:0:0:0:
256,192,45823,1,0,0:0:0:0:
182,192,45914,1,0,0:0:0:0:
402,192,45914,1,0,0:0:0:0:
475,192,45914,1,0,0:0:0:0:
329,192,46006,1,0,0:0:0:0:
36,192,46097,1,0,0:0:0:0:
109,192,46097,1,0,0:0:0:0:
256,192,46097,1,0,0:0:0:0:
182,192,46189,1,0,0:0:0:0:
402,192,46189,1,0,0:0:0:0:
109,192,46280,1,0,0:0:0:0:
329,192,46280,1,0,0:0:0:0:
475,192,46280,1,0,0:0:0:0:
256,192,46371,1,0,0:0:0:0:
36,192,46463,1,0,0:0:0:0:
109,192,46463,1,0,0:0:0:0:
182,192,46463,1,0,0:0:0:0:
402,192,46463,1,0,0:0:0:0:
329,192,46554,1,0,0:0:0:0:
109,192,46646,1,0,0:0:0:0:
256,192,46646,1,0,0:0:0:0:
475,192,46646,1,0,0:0:0:0:
402,192,46737,1,0,0:0:0:0:
36,192,46829,1,0,0:0:0:0:
329,192,46829,1,0,0:0:0:0:
109,192,47012,1,0,0:0:0:0:
256,192,47012,1,0,0:0:0:0:
475,192,47012,1,0,0:0:0:0:
329,192,47103,1,0,0:0:0:0:
36,192,47195,1,0,0:0:0:0:
182,192,47195,1,0,0:0:0:0:
402,192,47195,1,0,0:0:0:0:
475,192,47195,1,0,0:0:0:0:
256,192,47286,1,0,0:0:0:0:
329,192,47286,1,0,0:0:0:0:
36,192,47378,1,0,0:0:0:0:
182,192,47378,1,0,0:0:0:0:
402,192,47378,1,0,0:0:0:0:
36,192,47560,1,0,0:0:0:0:
182,192,47560,1,0,0:0:0:0:
256,192,47560,1,0,0:0:0:0:
475,192,47560,1,0,0:0:0:0:
329,192,47652,1,0,0:0:0:0:
402,192,47652,1,0,0:0:0:0:
36,192,47743,1,0,0:0:0:0:
109,192,47743,1,0,0:0:0:0:
182,192,47743,1,0,0:0:0:0:
256,192,47743,1,0,0:0:0:0:
329,192,47835,1,0,0:0:0:0:
402,192,47881,1,0,0:0:0:0:
109,192,47926,1,0,0:0:0:0:
475,192,47926,1,0,0:0:0:0:
182,192,47972,1,0,0:0:0:0:
256,192,48018,1,0,0:0:0:0:
329,192,48064,1,0,0:0:0:0:
36,192,48109,1,0,0:0:0:0:
109,192,48109,1,0,0:0:0:0:
402,192,48109,1,0,0:0:0:0:
182,192,48155,1,0,0:0:0:0:
256,192,48201,1,0,0:0:0:0:
329,192,48246,1,0,0:0:0:0:
36,192,48292,1,0,0:0:0:0:
475,192,48292,1,0,0:0:0:0:
256,192,48841,1,0,0:0:0:0:
36,192,49024,1,0,0:0:0:0:
109,192,49085,1,0,0:0:0:0:
182,192,49146,1,0,0:0:0:0:
256,192,49207,1,0,0:0:0:0:
329,192,49268,1,0,0:0:0:0:
402,192,49329,1,0,0:0:0:0:
475,192,49390,1,0,0:0:0:0:
402,192,49451,1,0,0:0:0:0:
329,192,49512,1,0,0:0:0:0:
256,192,49573,1,0,0:0:0:0:
182,192,49634,1,0,0:0:0:0:
109,192,49695,1,0,0:0:0:0:
402,192,49756,1,0,0:0:0:0:
182,192,50304,1,0,0:0:0:0:
109,192,50487,1,0,0:0:0:0:
182,192,50548,1,0,0:0:0:0:
256,192,50609,1,0,0:0:0:0:
329,192,50670,1,0,0:0:0:0:
402,192,50731,1,0,0:0:0:0:
475,192,50792,1,0,0:0:0:0:
402,192,50853,1,0,0:0:0:0:
329,192,50914,1,0,0:0:0:0:
256,192,50975,1,0,0:0:0:0:
182,192,51036,1,0,0:0:0:0:
109,192,51097,1,0,0:0:0:0:
36,192,51158,1,0,0:0:0:0:
402,192,51219,1,0,0:0:0:0:
109,192,51402,1,0,0:0:0:0:
182,192,51585,1,0,0:0:0:0:
402,192,51768,1,0,0:0:0:0:
109,192,51951,1,0,0:0:0:0:
256,192,52134,1,0,0:0:0:0:
329,192,52317,1,0,0:0:0:0:
475,192,52500,1,0,0:0:0:0:
109,192,52682,1,0,0:0:0:0:
329,192,52865,1,0,0:0:0:0:
402,192,53048,1,0,0:0:0:0:
475,192,53231,1,0,0:0:0:0:
402,192,53414,1,0,0:0:0:0:
329,192,53597,1,0,0:0:0:0:
475,192,54146,1,0,0:0:0:0:
402,192,54695,1,0,0:0:0:0:
36,192,54878,1,0,0:0:0:0:
109,192,54939,1,0,0:0:0:0:
182,192,55000,1,0,0:0:0:0:
256,192,55060,1,0,0:0:0:0:
329,192,55121,1,0,0:0:0:0:
402,192,55182,1,0,0:0:0:0:
475,192,55243,1,0,0:0:0:0:
402,192,55304,1,0,0:0:0:0:
329,192,55365,1,0,0:0:0:0:
256,192,55426,1,0,0:0:0:0:
182,192,55487,1,0,0:0:0:0:
109,192,55548,1,0,0:0:0:0:
329,192,55609,1,0,0:0:0:0:
256,192,56158,1,0,0:0:0:0:
109,192,56341,1,0,0:0:0:0:
182,192,56402,1,0,0:0:0:0:
256,192,56463,1,0,0:0:0:0:
329,192,56524,1,0,0:0:0:0:
402,192,56585,1,0,0:0:0:0:
475,192,56646,1,0,0:0:0:0:
402,192,56707,1,0,0:0:0:0:
329,192,56768,1,0,0:0:0:0:
256,192,56829,1,0,0:0:0:0:
182,192,56890,1,0,0:0:0:0:
109,192,56951,1,0,0:0:0:0:
36,192,57012,1,0,0:0:0:0:
475,192,57073,1,0,0:0:0:0:
109,192,57256,1,0,0:0:0:0:
256,192,57439,1,0,0:0:0:0:
475,192,57621,1,0,0:0:0:0:
109,192,57804,1,0,0:0:0:0:
475,192,57987,1,0,0:0:0:0:
182,192,58170,1,0,0:0:0:0:
329,192,58353,1,0,0:0:0:0:
402,192,58353,1,0,0:0:0:0:
36,192,58536,1,0,0:0:0:0:
182,192,58536,1,0,0:0:0:0:
36,192,58719,1,0,0:0:0:0:
256,192,58719,1,0,0:0:0:0:
329,192,58902,1,0,0:0:0:0:
475,192,58902,1,0,0:0:0:0:
182,192,58993,1,0,0:0:0:0:
36,192,59085,1,0,0:0:0:0:
402,192,59085,1,0,0:0:0:0:
36,192,59268,1,0,0:0:0:0:
329,192,59268,1,0,0:0:0:0:
182,192,59451,1,0,0:0:0:0:
402,192,59451,1,0,0:0:0:0:
329,192,59542,1,0,0:0:0:0:
109,192,59634,1,0,0:0:0:0:
182,192,59634,1,0,0:0:0:0:
256,192,59634,1,0,0:0:0:0:
329,192,59725,1,0,0:0:0:0:
402,192,59725,1,0,0:0:0:0:
475,192,59725,1,0,0:0:0:0:
109,192,59817,1,0,0:0:0:0:
182,192,59817,1,0,0:0:0:0:
256,192,59817,1,0,0:0:0:0:
329,192,59908,1,0,0:0:0:0:
402,192,59908,1,0,0:0:0:0:
475,192,59908,1,0,0:0:0:0:
36,192,60000,1,0,0:0:0:0:
256,192,60000,1,0,0:0:0:0:
256,192,60182,1,0,0:0:0:0:
36,192,60365,1,0,0:0:0:0:
256,192,60548,1,0,0:0:0:0:
475,192,60548,1,0,0:0:0:0:
36,192,60731,1,0,0:0:0:0:
109,192,60731,1,0,0:0:0:0:
182,192,60792,1,0,0:0:0:0:
256,192,60853,1,0,0:0:0:0:
329,192,60914,1,0,0:0:0:0:
402,192,60975,1,0,0:0:0:0:
475,192,61036,1,0,0:0:0:0:
36,192,61097,1,0,0:0:0:0:
402,192,61097,1,0,0:0:0:0:
329,192,61158,1,0,0:0:0:0:
256,192,61219,1,0,0:0:0:0:
182,192,61280,1,0,0:0:0:0:
109,192,61341,1,0,0:0:0:0:
402,192,61402,1,0,0:0:0:0:
36,192,61463,1,0,0:0:0:0:
256,192,61463,1,0,0:0:0:0:
329,192,61646,1,0,0:0:0:0:
36,192,61829,1,0,0:0:0:0:
109,192,62012,1,0,0:0:0:0:
256,192,62012,1,0,0:0:0:0:
36,192,62195,1,0,0:0:0:0:
182,192,62195,1,0,0:0:0:0:
256,192,62256,1,0,0:0:0:0:
329,192,62317,1,0,0:0:0:0:
402,192,62378,1,0,0:0:0:0:
256,192,62439,1,0,0:0:0:0:
329,192,62500,1,0,0:0:0:0:
36,192,62560,1,0,0:0:0:0:
475,192,62560,1,0,0:0:0:0:
402,192,62621,1,0,0:0:0:0:
329,192,62682,1,0,0:0:0:0:
256,192,62743,1,0,0:0:0:0:
402,192,62804,1,0,0:0:0:0:
182,192,62865,1,0,0:0:0:0:
36,192,62926,1,0,0:0:0:0:
256,192,62926,1,0,0:0:0:0:
329,192,62926,1,0,0:0:0:0:
475,192,62926,1,0,0:0:0:0:
402,192,62987,1,0,0:0:0:0:
109,192,63048,1,0,0:0:0:0:
182,192,63109,1,0,0:0:0:0:
329,192,63109,1,0,0:0:0:0:
402,192,63170,1,0,0:0:0:0:
475,192,63231,1,0,0:0:0:0:
36,192,63292,1,0,0:0:0:0:
256,192,63292,1,0,0:0:0:0:
329,192,63292,1,0,0:0:0:0:
109,192,63353,1,0,0:0:0:0:
402,192,63414,1,0,0:0:0:0:
182,192,63475,1,0,0:0:0:0:
329,192,63475,1,0,0:0:0:0:
475,192,63475,1,0,0:0:0:0:
256,192,63536,1,0,0:0:0:0:
402,192,63597,1,0,0:0:0:0:
36,192,63658,1,0,0:0:0:0:
109,192,63658,1,0,0:0:0:0:
182,192,63658,1,0,0:0:0:0:
256,192,63719,1,0,0:0:0:0:
402,192,63780,1,0,0:0:0:0:
182,192,63841,1,0,0:0:0:0:
329,192,63841,1,0,0:0:0:0:
475,192,63841,1,0,0:0:0:0:
109,192,63902,1,0,0:0:0:0:
402,192,63963,1,0,0:0:0:0:
36,192,64024,1,0,0:0:0:0:
256,192,64024,1,0,0:0:0:0:
475,192,64024,1,0,0:0:0:0:
329,192,64085,1,0,0:0:0:0:
182,192,64146,1,0,0:0:0:0:
402,192,64207,1,0,0:0:0:0:
475,192,64207,1,0,0:0:0:0:
329,192,64268,1,0,0:0:0:0:
109,192,64329,1,0,0:0:0:0:
36,192,64390,1,0,0:0:0:0:
182,192,64390,1,0,0:0:0:0:
402,192,64390,1,0,0:0:0:0:
475,192,64390,1,0,0:0:0:0:
256,192,64451,1,0,0:0:0:0:
329,192,64512,1,0,0:0:0:0:
182,192,64573,1,0,0:0:0:0:
256,192,64573,1,0,0:0:0:0:
475,192,64573,1,0,0:0:0:0:
109,192,64634,1,0,0:0:0:0:
402,192,64695,1,0,0:0:0:0:
36,192,64756,1,0,0:0:0:0:
256,192,64756,1,0,0:0:0:0:
329,192,64756,1,0,0:0:0:0:
109,192,64817,1,0,0:0:0:0:
329,192,64878,1,0,0:0:0:0:
182,192,64939,1,0,0:0:0:0:
402,192,64939,1,0,0:0:0:0:
475,192,64939,1,0,0:0:0:0:
256,192,65000,1,0,0:0:0:0:
329,192,65060,1,0,0:0:0:0:
36,192,65121,1,0,0:0:0:0:
256,192,65121,1,0,0:0:0:0:
402,192,65121,1,0,0:0:0:0:
475,192,65121,1,0,0:0:0:0:
182,192,65182,1,0,0:0:0:0:
329,192,65243,1,0,0:0:0:0:
109,192,65304,1,0,0:0:0:0:
256,192,65304,1,0,0:0:0:0:
475,192,65304,1,0,0:0:0:0:
402,192,65365,1,0,0:0:0:0:
329,192,65426,1,0,0:0:0:0:
36,192,65487,1,0,0:0:0:0:
256,192,65487,1,0,0:0:0:0:
402,192,65548,1,0,0:0:0:0:
475,192,65609,1,0,0:0:0:0:
182,192,65670,1,0,0:0:0:0:
256,192,65731,1,0,0:0:0:0:
329,192,65792,1,0,0:0:0:0:
36,192,65853,1,0,0:0:0:0:
475,192,65853,1,0,0:0:0:0:
256,192,66036,1,0,0:0:0:0:
36,192,66219,1,0,0:0:0:0:
182,192,66402,1,0,0:0:0:0:
329,192,66402,1,0,0:0:0:0:
36,192,66585,1,0,0:0:0:0:
182,192,66585,1,0,0:0:0:0:
329,192,66646,1,0,0:0:0:0:
475,192,66707,1,0,0:0:0:0:
109,192,66768,1,0,0:0:0:0:
256,192,66829,1,0,0:0:0:0:
402,192,66890,1,0,0:0:0:0:
36,192,66951,1,0,0:0:0:0:
475,192,66951,1,0,0:0:0:0:
329,192,67012,1,0,0:0:0:0:
182,192,67073,1,0,0:0:0:0:
402,192,67134,1,0,0:0:0:0:
256,192,67195,1,0,0:0:0:0:
109,192,67256,1,0,0:0:0:0:
36,192,67317,1,0,0:0:0:0:
329,192,67317,1,0,0:0:0:0:
182,192,67500,1,0,0:0:0:0:
36,192,67682,1,0,0:0:0:0:
109,192,67865,1,0,0:0:0:0:
329,192,67865,1,0,0:0:0:0:
36,192,68048,1,0,0:0:0:0:
182,192,68048,1,0,0:0:0:0:
256,192,68109,1,0,0:0:0:0:
329,192,68170,1,0,0:0:0:0:
402,192,68231,1,0,0:0:0:0:
109,192,68292,1,0,0:0:0:0:
182,192,68353,1,0,0:0:0:0:
36,192,68414,1,0,0:0:0:0:
256,192,68414,1,0,0:0:0:0:
329,192,68475,1,0,0:0:0:0:
475,192,68536,1,0,0:0:0:0:
402,192,68597,1,0,0:0:0:0:
329,192,68658,1,0,0:0:0:0:
109,192,68719,1,0,0:0:0:0:
36,192,68780,1,0,0:0:0:0:
182,192,68780,1,0,0:0:0:0:
256,192,68780,1,0,0:0:0:0:
329,192,68780,1,0,0:0:0:0:
475,192,68780,1,0,0:0:0:0:
402,192,68841,1,0,0:0:0:0:
256,192,68902,1,0,0:0:0:0:
109,192,68963,1,0,0:0:0:0:
475,192,68963,1,0,0:0:0:0:
329,192,69024,1,0,0:0:0:0:
402,192,69085,1,0,0:0:0:0:
36,192,69146,1,0,0:0:0:0:
182,192,69146,1,0,0:0:0:0:
256,192,69146,1,0,0:0:0:0:
475,192,69207,1,0,0:0:0:0:
109,192,69268,1,0,0:0:0:0:
182,192,69329,1,0,0:0:0:0:
329,192,69329,1,0,0:0:0:0:
402,192,69329,1,0,0:0:0:0:
475,192,69329,1,0,0:0:0:0:
256,192,69390,1,0,0:0:0:0:
109,192,69451,1,0,0:0:0:0:
36,192,69512,1,0,0:0:0:0:
256,192,69512,1,0,0:0:0:0:
402,192,69512,1,0,0:0:0:0:
475,192,69573,1,0,0:0:0:0:
402,192,69634,1,0,0:0:0:0:
182,192,69695,1,0,0:0:0:0:
256,192,69695,1,0,0:0:0:0:
329,192,69695,1,0,0:0:0:0:
109,192,69756,1,0,0:0:0:0:
475,192,69817,1,0,0:0:0:0:
36,192,69878,1,0,0:0:0:0:
182,192,69878,1,0,0:0:0:0:
256,192,69878,1,0,0:0:0:0:
402,192,69878,1,0,0:0:0:0:
329,192,69939,1,0,0:0:0:0:
109,192,70000,1,0,0:0:0:0:
256,192,70060,1,0,0:0:0:0:
329,192,70060,1,0,0:0:0:0:
475,192,70060,1,0,0:0:0:0:
109,192,70121,1,0,0:0:0:0:
256,192,70182,1,0,0:0:0:0:
36,192,70243,1,0,0:0:0:0:
182,192,70243,1,0,0:0:0:0:
402,192,70243,1,0,0:0:0:0:
475,192,70243,1,0,0:0:0:0:
329,192,70304,1,0,0:0:0:0:
109,192,70365,1,0,0:0:0:0:
256,192,70426,1,0,0:0:0:0:
329,192,70426,1,0,0:0:0:0:
402,192,70426,1,0,0:0:0:0:
475,192,70426,1,0,0:0:0:0:
182,192,70487,1,0,0:0:0:0:
109,192,70548,1,0,0:0:0:0:
36,192,70609,1,0,0:0:0:0:
329,192,70609,1,0,0:0:0:0:
402,192,70609,1,0,0:0:0:0:
475,192,70609,1,0,0:0:0:0:
256,192,70670,1,0,0:0:0:0:
109,192,70701,1,0,0:0:0:0:
182,192,70731,1,0,0:0:0:0:
36,192,70792,1,0,0:0:0:0:
256,192,70792,1,0,0:0:0:0:
329,192,70792,1,0,0:0:0:0:
402,192,70792,1,0,0:0:0:0:
475,192,70792,1,0,0:0:0:0:
182,192,70853,1,0,0:0:0:0:
109,192,70914,1,0,0:0:0:0:
36,192,70975,1,0,0:0:0:0:
182,192,70975,1,0,0:0:0:0:
256,192,70975,1,0,0:0:0:0:
329,192,70975,1,0,0:0:0:0:
475,192,70975,1,0,0:0:0:0:
402,192,71036,1,0,0:0:0:0:
329,192,71067,1,0,0:0:0:0:
182,192,71097,1,0,0:0:0:0:
36,192,71158,1,0,0:0:0:0:
109,192,71158,1,0,0:0:0:0:
256,192,71158,1,0,0:0:0:0:
402,192,71158,1,0,0:0:0:0:
475,192,71158,1,0,0:0:0:0:
329,192,71219,1,0,0:0:0:0:
109,192,71250,1,0,0:0:0:0:
402,192,71280,1,0,0:0:0:0:
182,192,71341,1,0,0:0:0:0:
475,192,71341,1,0,0:0:0:0:
329,192,71402,1,0,0:0:0:0:
402,192,71432,1,0,0:0:0:0:
109,192,71463,1,0,0:0:0:0:
36,192,71524,1,0,0:0:0:0:
182,192,71524,1,0,0:0:0:0:
256,192,71524,1,0,0:0:0:0:
329,192,71585,1,0,0:0:0:0:
475,192,71615,1,0,0:0:0:0:
109,192,71646,1,0,0:0:0:0:
36,192,71707,1,0,0:0:0:0:
182,192,71707,1,0,0:0:0:0:
402,192,71707,1,0,0:0:0:0:
109,192,71798,1,0,0:0:0:0:
256,192,71798,1,0,0:0:0:0:
475,192,71798,1,0,0:0:0:0:
182,192,71890,1,0,0:0:0:0:
329,192,71890,1,0,0:0:0:0:
402,192,71890,1,0,0:0:0:0:
36,192,71981,1,0,0:0:0:0:
256,192,71981,1,0,0:0:0:0:
475,192,71981,1,0,0:0:0:0:
109,192,72073,1,0,0:0:0:0:
329,192,72073,1,0,0:0:0:0:
402,192,72073,1,0,0:0:0:0:
182,192,72164,1,0,0:0:0:0:
256,192,72164,1,0,0:0:0:0:
475,192,72164,1,0,0:0:0:0:
109,192,72256,1,0,0:0:0:0:
329,192,72256,1,0,0:0:0:0:
402,192,72256,1,0,0:0:0:0:
36,192,72347,1,0,0:0:0:0:
182,192,72347,1,0,0:0:0:0:
475,192,72347,1,0,0:0:0:0:
109,192,72439,1,0,0:0:0:0:
256,192,72439,1,0,0:0:0:0:
329,192,72439,1,0,0:0:0:0:
36,192,72530,1,0,0:0:0:0:
182,192,72530,1,0,0:0:0:0:
402,192,72530,1,0,0:0:0:0:
109,192,72621,1,0,0:0:0:0:
329,192,72621,1,0,0:0:0:0:
475,192,72621,1,0,0:0:0:0:
182,192,72713,1,0,0:0:0:0:
256,192,72713,1,0,0:0:0:0:
402,192,72713,1,0,0:0:0:0:
109,192,72804,1,0,0:0:0:0:
329,192,72804,1,0,0:0:0:0:
475,192,72804,1,0,0:0:0:0:
36,192,72896,1,0,0:0:0:0:
256,192,72896,1,0,0:0:0:0:
402,192,72896,1,0,0:0:0:0:
109,192,72987,1,0,0:0:0:0:
182,192,72987,1,0,0:0:0:0:
329,192,72987,1,0,0:0:0:0:
256,192,73079,1,0,0:0:0:0:
402,192,73079,1,0,0:0:0:0:
475,192,73079,1,0,0:0:0:0:
182,192,73170,1,0,0:0:0:0:
329,192,73170,1,0,0:0:0:0:
402,192,73170,1,0,0:0:0:0:
109,192,73262,1,0,0:0:0:0:
256,192,73262,1,0,0:0:0:0:
475,192,73262,1,0,0:0:0:0:
36,192,73353,1,0,0:0:0:0:
182,192,73353,1,0,0:0:0:0:
329,192,73353,1,0,0:0:0:0:
256,192,73445,1,0,0:0:0:0:
402,192,73445,1,0,0:0:0:0:
475,192,73445,1,0,0:0:0:0:
36,192,73536,1,0,0:0:0:0:
182,192,73536,1,0,0:0:0:0:
329,192,73536,1,0,0:0:0:0:
109,192,73628,1,0,0:0:0:0:
256,192,73628,1,0,0:0:0:0:
402,192,73628,1,0,0:0:0:0:
182,192,73719,1,0,0:0:0:0:
329,192,73719,1,0,0:0:0:0:
475,192,73719,1,0,0:0:0:0:
109,192,73810,1,0,0:0:0:0:
256,192,73810,1,0,0:0:0:0:
402,192,73810,1,0,0:0:0:0:
182,192,73902,1,0,0:0:0:0:
329,192,73902,1,0,0:0:0:0:
475,192,73902,1,0,0:0:0:0:
36,192,73993,1,0,0:0:0:0:
109,192,73993,1,0,0:0:0:0:
256,192,73993,1,0,0:0:0:0:
182,192,74085,1,0,0:0:0:0:
402,192,74085,1,0,0:0:0:0:
475,192,74085,1,0,0:0:0:0:
109,192,74176,1,0,0:0:0:0:
256,192,74176,1,0,0:0:0:0:
329,192,74176,1,0,0:0:0:0:
36,192,74268,1,0,0:0:0:0:
182,192,74268,1,0,0:0:0:0:
475,192,74268,1,0,0:0:0:0:
109,192,74359,1,0,0:0:0:0:
256,192,74359,1,0,0:0:0:0:
402,192,74359,1,0,0:0:0:0:
36,192,74451,1,0,0:0:0:0:
182,192,74451,1,0,0:0:0:0:
329,192,74451,1,0,0:0:0:0:
256,192,74542,1,0,0:0:0:0:
402,192,74542,1,0,0:0:0:0:
475,192,74542,1,0,0:0:0:0:
36,192,74634,1,0,0:0:0:0:
329,192,74634,1,0,0:0:0:0:
475,192,74634,1,0,0:0:0:0:
109,192,74725,1,0,0:0:0:0:
182,192,74725,1,0,0:0:0:0:
36,192,74817,1,0,0:0:0:0:
329,192,74817,1,0,0:0:0:0:
475,192,74817,1,0,0:0:0:0:
256,192,74908,1,0,0:0:0:0:
402,192,74908,1,0,0:0:0:0:
329,192,75000,1,0,0:0:0:0:
475,192,75000,1,0,0:0:0:0:
109,192,75091,1,0,0:0:0:0:
182,192,75091,1,0,0:0:0:0:
36,192,75182,1,0,0:0:0:0:
256,192,75182,1,0,0:0:0:0:
329,192,75182,1,0,0:0:0:0:
402,192,75274,1,0,0:0:0:0:
475,192,75274,1,0,0:0:0:0:
36,192,75365,1,0,0:0:0:0:
182,192,75365,1,0,0:0:0:0:
256,192,75365,1,0,0:0:0:0:
109,192,75457,1,0,0:0:0:0:
329,192,75457,1,0,0:0:0:0:
402,192,75548,1,0,0:0:0:0:
475,192,75548,1,0,0:0:0:0:
109,192,75640,1,0,0:0:0:0:
182,192,75640,1,0,0:0:0:0:
36,192,75731,1,0,0:0:0:0:
256,192,75731,1,0,0:0:0:0:
329,192,75731,1,0,0:0:0:0:
182,192,75823,1,0,0:0:0:0:
402,192,75823,1,0,0:0:0:0:
36,192,75914,1,0,0:0:0:0:
329,192,75914,1,0,0:0:0:0:
475,192,75914,1,0,0:0:0:0:
109,192,76006,1,0,0:0:0:0:
402,192,76006,1,0,0:0:0:0:
329,192,76097,1,0,0:0:0:0:
402,192,76097,1,0,0:0:0:0:
182,192,76189,1,0,0:0:0:0:
475,192,76189,1,0,0:0:0:0:
36,192,76280,1,0,0:0:0:0:
256,192,76280,1,0,0:0:0:0:
329,192,76280,1,0,0:0:0:0:
109,192,76371,1,0,0:0:0:0:
475,192,76371,1,0,0:0:0:0:
36,192,76463,1,0,0:0:0:0:
329,192,76463,1,0,0:0:0:0:
402,192,76463,1,0,0:0:0:0:
182,192,76554,1,0,0:0:0:0:
256,192,76554,1,0,0:0:0:0:
329,192,76646,1,0,0:0:0:0:
475,192,76646,1,0,0:0:0:0:
109,192,76737,1,0,0:0:0:0:
402,192,76737,1,0,0:0:0:0:
36,192,76829,1,0,0:0:0:0:
182,192,76829,1,0,0:0:0:0:
329,192,76829,1,0,0:0:0:0:
256,192,76920,1,0,0:0:0:0:
402,192,76920,1,0,0:0:0:0:
329,192,77012,1,0,0:0:0:0:
475,192,77012,1,0,0:0:0:0:
36,192,77103,1,0,0:0:0:0:
182,192,77103,1,0,0:0:0:0:
402,192,77103,1,0,0:0:0:0:
329,192,77195,1,0,0:0:0:0:
475,192,77195,1,0,0:0:0:0:
109,192,77286,1,0,0:0:0:0:
256,192,77286,1,0,0:0:0:0:
36,192,77378,1,0,0:0:0:0:
182,192,77378,1,0,0:0:0:0:
329,192,77378,1,0,0:0:0:0:
402,192,77469,1,0,0:0:0:0:
475,192,77469,1,0,0:0:0:0:
36,192,77560,1,0,0:0:0:0:
329,192,77560,1,0,0:0:0:0:
402,192,77560,1,0,0:0:0:0:
109,192,77652,1,0,0:0:0:0:
256,192,77652,1,0,0:0:0:0:
475,192,77652,1,0,0:0:0:0:
182,192,77743,1,0,0:0:0:0:
329,192,77743,1,0,0:0:0:0:
402,192,77743,1,0,0:0:0:0:
36,192,77835,1,0,0:0:0:0:
256,192,77835,1,0,0:0:0:0:
475,192,77835,1,0,0:0:0:0:
109,192,77926,1,0,0:0:0:0:
329,192,77926,1,0,0:0:0:0:
402,192,77926,1,0,0:0:0:0:
182,192,78018,1,0,0:0:0:0:
256,192,78018,1,0,0:0:0:0:
475,192,78018,1,0,0:0:0:0:
109,192,78109,1,0,0:0:0:0:
329,192,78109,1,0,0:0:0:0:
402,192,78109,1,0,0:0:0:0:
36,192,78201,1,0,0:0:0:0:
182,192,78201,1,0,0:0:0:0:
475,192,78201,1,0,0:0:0:0:
256,192,78292,1,0,0:0:0:0:
329,192,78292,1,0,0:0:0:0:
402,192,78292,1,0,0:0:0:0:
109,192,78384,1,0,0:0:0:0:
182,192,78384,1,0,0:0:0:0:
475,192,78384,1,0,0:0:0:0:
36,192,78475,1,0,0:0:0:0:
256,192,78475,1,0,0:0:0:0:
402,192,78475,1,0,0:0:0:0:
182,192,78567,1,0,0:0:0:0:
329,192,78567,1,0,0:0:0:0:
475,192,78567,1,0,0:0:0:0:
36,192,78658,1,0,0:0:0:0:
109,192,78658,1,0,0:0:0:0:
402,192,78658,1,0,0:0:0:0:
256,192,78750,1,0,0:0:0:0:
329,192,78750,1,0,0:0:0:0:
475,192,78750,1,0,0:0:0:0:
36,192,78841,1,0,0:0:0:0:
182,192,78841,1,0,0:0:0:0:
402,192,78841,1,0,0:0:0:0:
109,192,78932,1,0,0:0:0:0:
256,192,78932,1,0,0:0:0:0:
475,192,78932,1,0,0:0:0:0:
329,192,79024,1,0,0:0:0:0:
402,192,79024,1,0,0:0:0:0:
475,192,79024,1,0,0:0:0:0:
109,192,79115,1,0,0:0:0:0:
182,192,79115,1,0,0:0:0:0:
256,192,79115,1,0,0:0:0:0:
36,192,79207,1,0,0:0:0:0:
329,192,79207,1,0,0:0:0:0:
475,192,79207,1,0,0:0:0:0:
182,192,79298,1,0,0:0:0:0:
256,192,79298,1,0,0:0:0:0:
402,192,79298,1,0,0:0:0:0:
36,192,79390,1,0,0:0:0:0:
329,192,79390,1,0,0:0:0:0:
475,192,79390,1,0,0:0:0:0:
109,192,79481,1,0,0:0:0:0:
256,192,79481,1,0,0:0:0:0:
402,192,79481,1,0,0:0:0:0:
36,192,79573,1,0,0:0:0:0:
182,192,79573,1,0,0:0:0:0:
329,192,79573,1,0,0:0:0:0:
109,192,79664,1,0,0:0:0:0:
402,192,79664,1,0,0:0:0:0:
475,192,79664,1,0,0:0:0:0:
182,192,79756,1,0,0:0:0:0:
256,192,79756,1,0,0:0:0:0:
329,192,79756,1,0,0:0:0:0:
36,192,79847,1,0,0:0:0:0:
109,192,79847,1,0,0:0:0:0:
475,192,79847,1,0,0:0:0:0:
182,192,79939,1,0,0:0:0:0:
329,192,79939,1,0,0:0:0:0:
402,192,79939,1,0,0:0:0:0:
36,192,80030,1,0,0:0:0:0:
256,192,80030,1,0,0:0:0:0:
475,192,80030,1,0,0:0:0:0:
109,192,80121,1,0,0:0:0:0:
329,192,80121,1,0,0:0:0:0:
402,192,80121,1,0,0:0:0:0:
36,192,80213,1,0,0:0:0:0:
182,192,80213,1,0,0:0:0:0:
256,192,80213,1,0,0:0:0:0:
109,192,80304,1,0,0:0:0:0:
329,192,80304,1,0,0:0:0:0:
475,192,80304,1,0,0:0:0:0:
182,192,80396,1,0,0:0:0:0:
256,192,80396,1,0,0:0:0:0:
402,192,80396,1,0,0:0:0:0:
36,192,80487,1,0,0:0:0:0:
402,192,80487,1,0,0:0:0:0:
475,192,80487,1,0,0:0:0:0:
182,192,80579,1,0,0:0:0:0:
256,192,80579,1,0,0:0:0:0:
329,192,80579,1,0,0:0:0:0:
36,192,80670,1,0,0:0:0:0:
109,192,80670,1,0,0:0:0:0:
402,192,80670,1,0,0:0:0:0:
256,192,80762,1,0,0:0:0:0:
329,192,80762,1,0,0:0:0:0:
475,192,80762,1,0,0:0:0:0:
109,192,80853,1,0,0:0:0:0:
182,192,80853,1,0,0:0:0:0:
402,192,80853,1,0,0:0:0:0:
36,192,80945,1,0,0:0:0:0:
256,192,80945,1,0,0:0:0:0:
329,192,80945,1,0,0:0:0:0:
109,192,81036,1,0,0:0:0:0:
402,192,81036,1,0,0:0:0:0:
475,192,81036,1,0,0:0:0:0:
182,192,81128,1,0,0:0:0:0:
256,192,81128,1,0,0:0:0:0:
329,192,81128,1,0,0:0:0:0:
36,192,81219,1,0,0:0:0:0:
109,192,81219,1,0,0:0:0:0:
475,192,81219,1,0,0:0:0:0:
256,192,81310,1,0,0:0:0:0:
329,192,81310,1,0,0:0:0:0:
402,192,81310,1,0,0:0:0:0:
36,192,81402,1,0,0:0:0:0:
182,192,81402,1,0,0:0:0:0:
475,192,81402,1,0,0:0:0:0:
109,192,81493,1,0,0:0:0:0:
256,192,81493,1,0,0:0:0:0:
402,192,81493,1,0,0:0:0:0:
36,192,81585,1,0,0:0:0:0:
329,192,81585,1,0,0:0:0:0:
475,192,81585,1,0,0:0:0:0:
182,192,81676,1,0,0:0:0:0:
256,192,81676,1,0,0:0:0:0:
402,192,81676,1,0,0:0:0:0:
36,192,81768,1,0,0:0:0:0:
109,192,81768,1,0,0:0:0:0:
329,192,81768,1,0,0:0:0:0:
182,192,81859,1,0,0:0:0:0:
256,192,81859,1,0,0:0:0:0:
475,192,81859,1,0,0:0:0:0:
109,192,81951,1,0,0:0:0:0:
402,192,81951,1,0,0:0:0:0:
475,192,81951,1,0,0:0:0:0:
36,192,82042,1,0,0:0:0:0:
256,192,82042,1,0,0:0:0:0:
329,192,82042,1,0,0:0:0:0:
182,192,82134,1,0,0:0:0:0:
402,192,82134,1,0,0:0:0:0:
475,192,82134,1,0,0:0:0:0:
36,192,82225,1,0,0:0:0:0:
109,192,82225,1,0,0:0:0:0:
329,192,82225,1,0,0:0:0:0:
256,192,82317,1,0,0:0:0:0:
402,192,82317,1,0,0:0:0:0:
475,192,82317,1,0,0:0:0:0:
109,192,82408,1,0,0:0:0:0:
182,192,82408,1,0,0:0:0:0:
329,192,82408,1,0,0:0:0:0:
256,192,82500,1,0,0:0:0:0:
402,192,82500,1,0,0:0:0:0:
475,192,82500,1,0,0:0:0:0:
109,192,82591,1,0,0:0:0:0:
182,192,82591,1,0,0:0:0:0:
329,192,82591,1,0,0:0:0:0:
36,192,82682,1,0,0:0:0:0:
256,192,82682,1,0,0:0:0:0:
475,192,82682,1,0,0:0:0:0:
109,192,82774,1,0,0:0:0:0:
182,192,82774,1,0,0:0:0:0:
329,192,82774,1,0,0:0:0:0:
256,192,82865,1,0,0:0:0:0:
402,192,82865,1,0,0:0:0:0:
475,192,82865,1,0,0:0:0:0:
36,192,82957,1,0,0:0:0:0:
109,192,82957,1,0,0:0:0:0:
329,192,82957,1,0,0:0:0:0:
182,192,83048,1,0,0:0:0:0:
256,192,83048,1,0,0:0:0:0:
475,192,83048,1,0,0:0:0:0:
109,192,83140,1,0,0:0:0:0:
329,192,83140,1,0,0:0:0:0:
402,192,83140,1,0,0:0:0:0:
36,192,83231,1,0,0:0:0:0:
182,192,83231,1,0,0:0:0:0:
475,192,83231,1,0,0:0:0:0:
109,192,83323,1,0,0:0:0:0:
329,192,83323,1,0,0:0:0:0:
402,192,83323,1,0,0:0:0:0:
36,192,83414,1,0,0:0:0:0:
182,192,83414,1,0,0:0:0:0:
256,192,83414,1,0,0:0:0:0:
402,192,83414,1,0,0:0:0:0:
329,192,83506,1,0,0:0:0:0:
475,192,83506,1,0,0:0:0:0:
36,192,83597,1,0,0:0:0:0:
109,192,83597,1,0,0:0:0:0:
182,192,83597,1,0,0:0:0:0:
256,192,83597,1,0,0:0:0:0:
329,192,83689,1,0,0:0:0:0:
402,192,83689,1,0,0:0:0:0:
36,192,83780,1,0,0:0:0:0:
182,192,83780,1,0,0:0:0:0:
256,192,83780,1,0,0:0:0:0:
475,192,83780,1,0,0:0:0:0:
36,192,83871,1,0,0:0:0:0:
109,192,83871,1,0,0:0:0:0:
329,192,83871,1,0,0:0:0:0:
402,192,83871,1,0,0:0:0:0:
36,192,83963,1,0,0:0:0:0:
256,192,83963,1,0,0:0:0:0:
475,192,83963,1,0,0:0:0:0:
36,192,84054,1,0,0:0:0:0:
109,192,84054,1,0,0:0:0:0:
182,192,84054,1,0,0:0:0:0:
329,192,84054,1,0,0:0:0:0:
36,192,84146,1,0,0:0:0:0:
256,192,84146,1,0,0:0:0:0:
402,192,84146,1,0,0:0:0:0:
475,192,84146,1,0,0:0:0:0:
109,192,84237,1,0,0:0:0:0:
329,192,84237,1,0,0:0:0:0:
36,192,84329,1,0,0:0:0:0:
182,192,84329,1,0,0:0:0:0:
402,192,84329,1,0,0:0:0:0:
475,192,84329,1,0,0:0:0:0:
256,192,84420,1,0,0:0:0:0:
329,192,84420,1,0,0:0:0:0:
36,192,84512,1,0,0:0:0:0:
109,192,84512,1,0,0:0:0:0:
402,192,84512,1,0,0:0:0:0:
475,192,84512,1,0,0:0:0:0:
36,192,84603,1,0,0:0:0:0:
182,192,84603,1,0,0:0:0:0:
256,192,84603,1,0,0:0:0:0:
329,192,84603,1,0,0:0:0:0:
36,192,84695,1,0,0:0:0:0:
402,192,84695,1,0,0:0:0:0:
475,192,84695,1,0,0:0:0:0:
36,192,84786,1,0,0:0:0:0:
109,192,84786,1,0,0:0:0:0:
182,192,84786,1,0,0:0:0:0:
329,192,84786,1,0,0:0:0:0:
36,192,84878,1,0,0:0:0:0:
109,192,84878,1,0,0:0:0:0:
475,192,84878,1,0,0:0:0:0:
256,192,84969,1,0,0:0:0:0:
402,192,84969,1,0,0:0:0:0:
36,192,85060,1,0,0:0:0:0:
329,192,85060,1,0,0:0:0:0:
475,192,85060,1,0,0:0:0:0:
182,192,85152,1,0,0:0:0:0:
256,192,85152,1,0,0:0:0:0:
36,192,85243,1,0,0:0:0:0:
329,192,85243,1,0,0:0:0:0:
402,192,85243,1,0,0:0:0:0:
475,192,85243,1,0,0:0:0:0:
36,192,85335,1,0,0:0:0:0:
109,192,85335,1,0,0:0:0:0:
182,192,85335,1,0,0:0:0:0:
256,192,85335,1,0,0:0:0:0:
36,192,85426,1,0,0:0:0:0:
329,192,85426,1,0,0:0:0:0:
402,192,85426,1,0,0:0:0:0:
475,192,85426,1,0,0:0:0:0:
36,192,85518,1,0,0:0:0:0:
109,192,85518,1,0,0:0:0:0:
182,192,85518,1,0,0:0:0:0:
256,192,85518,1,0,0:0:0:0:
36,192,85609,1,0,0:0:0:0:
329,192,85609,1,0,0:0:0:0:
402,192,85609,1,0,0:0:0:0:
475,192,85609,1,0,0:0:0:0:
36,192,85701,1,0,0:0:0:0:
109,192,85701,1,0,0:0:0:0:
182,192,85701,1,0,0:0:0:0:
256,192,85701,1,0,0:0:0:0:
329,192,85792,1,0,0:0:0:0:
402,192,85792,1,0,0:0:0:0:
475,192,85792,1,0,0:0:0:0:
36,192,85884,1,0,0:0:0:0:
109,192,85884,1,0,0:0:0:0:
182,192,85884,1,0,0:0:0:0:
256,192,85884,1,0,0:0:0:0:
36,192,85975,1,0,0:0:0:0:
109,192,85975,1,0,0:0:0:0:
329,192,85975,1,0,0:0:0:0:
475,192,85975,1,0,0:0:0:0:
36,192,86067,1,0,0:0:0:0:
182,192,86067,1,0,0:0:0:0:
256,192,86067,1,0,0:0:0:0:
402,192,86067,1,0,0:0:0:0:
36,192,86158,1,0,0:0:0:0:
109,192,86158,1,0,0:0:0:0:
329,192,86158,1,0,0:0:0:0:
475,192,86158,1,0,0:0:0:0:
36,192,86250,1,0,0:0:0:0:
182,192,86250,1,0,0:0:0:0:
256,192,86250,1,0,0:0:0:0:
402,192,86250,1,0,0:0:0:0:
36,192,86341,1,0,0:0:0:0:
109,192,86341,1,0,0:0:0:0:
329,192,86341,1,0,0:0:0:0:
475,192,86341,1,0,0:0:0:0:
182,192,86432,1,0,0:0:0:0:
402,192,86432,1,0,0:0:0:0:
36,192,86524,1,0,0:0:0:0:
256,192,86524,1,0,0:0:0:0:
329,192,86524,1,0,0:0:0:0:
475,192,86524,1,0,0:0:0:0:
109,192,86615,1,0,0:0:0:0:
182,192,86615,1,0,0:0:0:0:
36,192,86707,1,0,0:0:0:0:
256,192,86707,1,0,0:0:0:0:
329,192,86707,1,0,0:0:0:0:
475,192,86707,1,0,0:0:0:0:
36,192,86798,1,0,0:0:0:0:
109,192,86798,1,0,0:0:0:0:
182,192,86798,1,0,0:0:0:0:
402,192,86798,1,0,0:0:0:0:
36,192,86890,1,0,0:0:0:0:
329,192,86890,1,0,0:0:0:0:
475,192,86890,1,0,0:0:0:0:
36,192,86981,1,0,0:0:0:0:
182,192,86981,1,0,0:0:0:0:
256,192,86981,1,0,0:0:0:0:
402,192,86981,1,0,0:0:0:0:
36,192,87073,1,0,0:0:0:0:
109,192,87073,1,0,0:0:0:0:
329,192,87073,1,0,0:0:0:0:
475,192,87073,1,0,0:0:0:0:
182,192,87164,1,0,0:0:0:0:
402,192,87164,1,0,0:0:0:0:
36,192,87256,1,0,0:0:0:0:
256,192,87256,1,0,0:0:0:0:
329,192,87256,1,0,0:0:0:0:
475,192,87256,1,0,0:0:0:0:
109,192,87347,1,0,0:0:0:0:
402,192,87347,1,0,0:0:0:0:
36,192,87439,1,0,0:0:0:0:
182,192,87439,1,0,0:0:0:0:
329,192,87439,1,0,0:0:0:0:
475,192,87439,1,0,0:0:0:0:
36,192,87530,1,0,0:0:0:0:
109,192,87530,1,0,0:0:0:0:
256,192,87530,1,0,0:0:0:0:
402,192,87530,1,0,0:0:0:0:
36,192,87621,1,0,0:0:0:0:
329,192,87621,1,0,0:0:0:0:
475,192,87621,1,0,0:0:0:0:
36,192,87713,1,0,0:0:0:0:
182,192,87713,1,0,0:0:0:0:
256,192,87713,1,0,0:0:0:0:
402,192,87713,1,0,0:0:0:0:
36,192,87804,1,0,0:0:0:0:
109,192,87804,1,0,0:0:0:0:
475,192,87804,1,0,0:0:0:0:
182,192,87896,1,0,0:0:0:0:
329,192,87896,1,0,0:0:0:0:
36,192,87987,1,0,0:0:0:0:
256,192,87987,1,0,0:0:0:0:
475,192,87987,1,0,0:0:0:0:
182,192,88079,1,0,0:0:0:0:
402,192,88079,1,0,0:0:0:0:
36,192,88170,1,0,0:0:0:0:
109,192,88170,1,0,0:0:0:0:
329,192,88170,1,0,0:0:0:0:
475,192,88170,1,0,0:0:0:0:
36,192,88262,1,0,0:0:0:0:
182,192,88262,1,0,0:0:0:0:
256,192,88262,1,0,0:0:0:0:
402,192,88262,1,0,0:0:0:0:
36,192,88353,1,0,0:0:0:0:
109,192,88353,1,0,0:0:0:0:
329,192,88353,1,0,0:0:0:0:
475,192,88353,1,0,0:0:0:0:
36,192,88445,1,0,0:0:0:0:
182,192,88445,1,0,0:0:0:0:
256,192,88445,1,0,0:0:0:0:
402,192,88445,1,0,0:0:0:0:
36,192,88536,1,0,0:0:0:0:
109,192,88536,1,0,0:0:0:0:
329,192,88536,1,0,0:0:0:0:
475,192,88536,1,0,0:0:0:0:
36,192,88628,1,0,0:0:0:0:
182,192,88628,1,0,0:0:0:0:
256,192,88628,1,0,0:0:0:0:
402,192,88628,1,0,0:0:0:0:
109,192,88719,1,0,0:0:0:0:
329,192,88719,1,0,0:0:0:0:
475,192,88719,1,0,0:0:0:0:
36,192,88810,1,0,0:0:0:0:
182,192,88810,1,0,0:0:0:0:
256,192,88810,1,0,0:0:0:0:
402,192,88810,1,0,0:0:0:0:
36,192,88902,1,0,0:0:0:0:
109,192,88902,1,0,0:0:0:0:
329,192,88902,1,0,0:0:0:0:
475,192,88902,1,0,0:0:0:0:
36,192,88993,1,0,0:0:0:0:
182,192,88993,1,0,0:0:0:0:
256,192,88993,1,0,0:0:0:0:
402,192,88993,1,0,0:0:0:0:
36,192,89085,1,0,0:0:0:0:
109,192,89085,1,0,0:0:0:0:
329,192,89085,1,0,0:0:0:0:
475,192,89085,1,0,0:0:0:0:
36,192,89176,1,0,0:0:0:0:
182,192,89176,1,0,0:0:0:0:
256,192,89176,1,0,0:0:0:0:
402,192,89176,1,0,0:0:0:0:
36,192,89268,1,0,0:0:0:0:
329,192,89268,1,0,0:0:0:0:
475,192,89268,1,0,0:0:0:0:
109,192,89359,1,0,0:0:0:0:
402,192,89359,1,0,0:0:0:0:
36,192,89451,1,0,0:0:0:0:
182,192,89451,1,0,0:0:0:0:
329,192,89451,1,0,0:0:0:0:
109,192,89542,1,0,0:0:0:0:
402,192,89542,1,0,0:0:0:0:
36,192,89634,1,0,0:0:0:0:
329,192,89634,1,0,0:0:0:0:
475,192,89634,1,0,0:0:0:0:
182,192,89725,1,0,0:0:0:0:
256,192,89725,1,0,0:0:0:0:
402,192,89725,1,0,0:0:0:0:
36,192,89817,1,0,0:0:0:0:
109,192,89817,1,0,0:0:0:0:
475,192,89817,1,0,0:0:0:0:
182,192,89908,1,0,0:0:0:0:
256,192,89908,1,0,0:0:0:0:
329,192,89908,1,0,0:0:0:0:
36,192,90000,1,0,0:0:0:0:
402,192,90000,1,0,0:0:0:0:
475,192,90000,1,0,0:0:0:0:
109,192,90091,1,0,0:0:0:0:
329,192,90091,1,0,0:0:0:0:
36,192,90182,1,0,0:0:0:0:
182,192,90182,1,0,0:0:0:0:
402,192,90182,1,0,0:0:0:0:
256,192,90274,1,0,0:0:0:0:
329,192,90274,1,0,0:0:0:0:
36,192,90365,1,0,0:0:0:0:
402,192,90365,1,0,0:0:0:0:
475,192,90365,1,0,0:0:0:0:
109,192,90457,1,0,0:0:0:0:
182,192,90457,1,0,0:0:0:0:
256,192,90457,1,0,0:0:0:0:
36,192,90548,1,0,0:0:0:0:
329,192,90548,1,0,0:0:0:0:
475,192,90548,1,0,0:0:0:0:
109,192,90640,1,0,0:0:0:0:
256,192,90640,1,0,0:0:0:0:
402,192,90640,1,0,0:0:0:0:
36,192,90731,1,0,0:0:0:0:
182,192,90731,1,0,0:0:0:0:
475,192,90731,1,0,0:0:0:0:
109,192,90823,1,0,0:0:0:0:
402,192,90823,1,0,0:0:0:0:
36,192,90914,1,0,0:0:0:0:
256,192,90914,1,0,0:0:0:0:
329,192,90914,1,0,0:0:0:0:
109,192,91006,1,0,0:0:0:0:
475,192,91006,1,0,0:0:0:0:
36,192,91097,1,0,0:0:0:0:
256,192,91097,1,0,0:0:0:0:
329,192,91097,1,0,0:0:0:0:
109,192,91189,1,0,0:0:0:0:
182,192,91189,1,0,0:0:0:0:
402,192,91189,1,0,0:0:0:0:
36,192,91280,1,0,0:0:0:0:
256,192,91280,1,0,0:0:0:0:
475,192,91280,1,0,0:0:0:0:
109,192,91371,1,0,0:0:0:0:
182,192,91371,1,0,0:0:0:0:
402,192,91371,1,0,0:0:0:0:
36,192,91463,1,0,0:0:0:0:
256,192,91463,1,0,0:0:0:0:
329,192,91463,1,0,0:0:0:0:
475,192,91463,1,0,0:0:0:0:
109,192,91554,1,0,0:0:0:0:
182,192,91554,1,0,0:0:0:0:
402,192,91554,1,0,0:0:0:0:
256,192,91646,1,0,0:0:0:0:
475,192,91646,1,0,0:0:0:0:
109,192,91737,1,0,0:0:0:0:
182,192,91737,1,0,0:0:0:0:
329,192,91737,1,0,0:0:0:0:
36,192,91829,1,0,0:0:0:0:
256,192,91829,1,0,0:0:0:0:
402,192,91829,1,0,0:0:0:0:
475,192,91829,1,0,0:0:0:0:
109,192,91920,1,0,0:0:0:0:
182,192,91920,1,0,0:0:0:0:
329,192,91920,1,0,0:0:0:0:
36,192,92012,1,0,0:0:0:0:
256,192,92012,1,0,0:0:0:0:
475,192,92012,1,0,0:0:0:0:
182,192,92103,1,0,0:0:0:0:
329,192,92103,1,0,0:0:0:0:
402,192,92103,1,0,0:0:0:0:
36,192,92195,1,0,0:0:0:0:
109,192,92195,1,0,0:0:0:0:
256,192,92195,1,0,0:0:0:0:
475,192,92195,1,0,0:0:0:0:
182,192,92286,1,0,0:0:0:0:
36,192,92378,1,0,0:0:0:0:
329,192,92378,1,0,0:0:0:0:
475,192,92378,1,0,0:0:0:0:
402,192,92469,1,0,0:0:0:0:
109,192,92560,1,0,0:0:0:0:
256,192,92560,1,0,0:0:0:0:
475,192,92560,1,0,0:0:0:0:
182,192,92652,1,0,0:0:0:0:
402,192,92652,1,0,0:0:0:0:
36,192,92743,1,0,0:0:0:0:
256,192,92743,1,0,0:0:0:0:
329,192,92743,1,0,0:0:0:0:
402,192,92835,1,0,0:0:0:0:
475,192,92835,1,0,0:0:0:0:
36,192,92926,1,0,0:0:0:0:
109,192,92926,1,0,0:0:0:0:
182,192,92926,1,0,0:0:0:0:
329,192,92926,1,0,0:0:0:0:
256,192,93018,1,0,0:0:0:0:
109,192,93109,1,0,0:0:0:0:
329,192,93109,1,0,0:0:0:0:
475,192,93109,1,0,0:0:0:0:
182,192,93201,1,0,0:0:0:0:
36,192,93292,1,0,0:0:0:0:
329,192,93292,1,0,0:0:0:0:
402,192,93292,1,0,0:0:0:0:
36,192,93384,1,0,0:0:0:0:
256,192,93384,1,0,0:0:0:0:
475,192,93384,1,0,0:0:0:0:
182,192,93475,1,0,0:0:0:0:
402,192,93475,1,0,0:0:0:0:
109,192,93567,1,0,0:0:0:0:
475,192,93567,1,0,0:0:0:0:
36,192,93658,1,0,0:0:0:0:
329,192,93658,1,0,0:0:0:0:
402,192,93658,1,0,0:0:0:0:
182,192,93750,1,0,0:0:0:0:
36,192,93841,1,0,0:0:0:0:
256,192,93841,1,0,0:0:0:0:
329,192,93932,1,0,0:0:0:0:
36,192,94024,1,0,0:0:0:0:
109,192,94024,1,0,0:0:0:0:
182,192,94024,1,0,0:0:0:0:
475,192,94024,1,0,0:0:0:0:
36,192,94115,1,0,0:0:0:0:
329,192,94115,1,0,0:0:0:0:
402,192,94115,1,0,0:0:0:0:
36,192,94207,1,0,0:0:0:0:
182,192,94207,1,0,0:0:0:0:
256,192,94207,1,0,0:0:0:0:
475,192,94207,1,0,0:0:0:0:
109,192,94298,1,0,0:0:0:0:
402,192,94298,1,0,0:0:0:0:
36,192,94390,1,0,0:0:0:0:
182,192,94390,1,0,0:0:0:0:
256,192,94390,1,0,0:0:0:0:
329,192,94390,1,0,0:0:0:0:
475,192,94390,1,0,0:0:0:0:
109,192,94481,1,0,0:0:0:0:
256,192,94481,1,0,0:0:0:0:
402,192,94481,1,0,0:0:0:0:
36,192,94573,1,0,0:0:0:0:
182,192,94573,1,0,0:0:0:0:
256,192,94573,1,0,0:0:0:0:
329,192,94573,1,0,0:0:0:0:
475,192,94573,1,0,0:0:0:0:
109,192,94664,1,0,0:0:0:0:
256,192,94664,1,0,0:0:0:0:
402,192,94664,1,0,0:0:0:0:
36,192,94756,1,0,0:0:0:0:
182,192,94756,1,0,0:0:0:0:
256,192,94756,1,0,0:0:0:0:
329,192,94756,1,0,0:0:0:0:
475,192,94756,1,0,0:0:0:0:
109,192,94847,1,0,0:0:0:0:
256,192,94847,1,0,0:0:0:0:
402,192,94847,1,0,0:0:0:0:
36,192,94939,1,0,0:0:0:0:
182,192,94939,1,0,0:0:0:0:
256,192,94939,1,0,0:0:0:0:
329,192,94939,1,0,0:0:0:0:
475,192,94939,1,0,0:0:0:0:
109,192,95030,1,0,0:0:0:0:
256,192,95030,1,0,0:0:0:0:
402,192,95030,1,0,0:0:0:0:
36,192,95121,1,0,0:0:0:0:
182,192,95121,1,0,0:0:0:0:
475,192,95121,1,0,0:0:0:0:
402,192,95182,1,0,0:0:0:0:
329,192,95213,1,0,0:0:0:0:
109,192,95243,1,0,0:0:0:0:
256,192,95304,1,0,0:0:0:0:
475,192,95304,1,0,0:0:0:0:
402,192,95365,1,0,0:0:0:0:
109,192,95396,1,0,0:0:0:0:
182,192,95426,1,0,0:0:0:0:
36,192,95487,1,0,0:0:0:0:
402,192,95487,1,0,0:0:0:0:
475,192,95487,1,0,0:0:0:0:
109,192,95548,1,0,0:0:0:0:
329,192,95579,1,0,0:0:0:0:
182,192,95609,1,0,0:0:0:0:
256,192,95670,1,0,0:0:0:0:
402,192,95670,1,0,0:0:0:0:
475,192,95670,1,0,0:0:0:0:
182,192,95731,1,0,0:0:0:0:
109,192,95762,1,0,0:0:0:0:
329,192,95792,1,0,0:0:0:0:
36,192,95853,1,0,0:0:0:0:
402,192,95853,1,0,0:0:0:0:
475,192,95853,1,0,0:0:0:0:
182,192,95914,1,0,0:0:0:0:
329,192,95945,1,0,0:0:0:0:
475,192,95975,1,0,0:0:0:0:
109,192,96036,1,0,0:0:0:0:
256,192,96036,1,0,0:0:0:0:
402,192,96036,1,0,0:0:0:0:
182,192,96097,1,0,0:0:0:0:
109,192,96128,1,0,0:0:0:0:
475,192,96158,1,0,0:0:0:0:
36,192,96219,1,0,0:0:0:0:
256,192,96219,1,0,0:0:0:0:
402,192,96280,1,0,0:0:0:0:
329,192,96310,1,0,0:0:0:0:
182,192,96341,1,0,0:0:0:0:
256,192,96402,1,0,0:0:0:0:
402,192,96402,1,0,0:0:0:0:
475,192,96402,1,0,0:0:0:0:
329,192,96463,1,0,0:0:0:0:
109,192,96493,1,0,0:0:0:0:
256,192,96524,1,0,0:0:0:0:
36,192,96585,1,0,0:0:0:0:
182,192,96585,1,0,0:0:0:0:
402,192,96585,1,0,0:0:0:0:
329,192,96646,1,0,0:0:0:0:
182,192,96707,1,0,0:0:0:0:
109,192,96768,1,0,0:0:0:0:
329,192,96768,1,0,0:0:0:0:
182,192,96829,1,0,0:0:0:0:
329,192,96890,1,0,0:0:0:0:
36,192,96951,1,0,0:0:0:0:
256,192,96951,1,0,0:0:0:0:
402,192,97012,1,0,0:0:0:0:
256,192,97073,1,0,0:0:0:0:
402,192,97134,1,0,0:0:0:0:
256,192,97195,1,0,0:0:0:0:
475,192,97256,1,0,0:0:0:0:
36,192,97317,1,0,0:0:0:0:
109,192,97317,1,0,0:0:0:0:
329,192,97378,1,0,0:0:0:0:
109,192,97439,1,0,0:0:0:0:
402,192,97500,1,0,0:0:0:0:
109,192,97560,1,0,0:0:0:0:
402,192,97621,1,0,0:0:0:0:
36,192,97682,1,0,0:0:0:0:
182,192,97682,1,0,0:0:0:0:
329,192,97743,1,0,0:0:0:0:
182,192,97804,1,0,0:0:0:0:
329,192,97865,1,0,0:0:0:0:
182,192,97926,1,0,0:0:0:0:
329,192,97987,1,0,0:0:0:0:
36,192,98048,1,0,0:0:0:0:
256,192,98048,1,0,0:0:0:0:
475,192,98048,1,0,0:0:0:0:
329,192,98109,1,0,0:0:0:0:
402,192,98140,1,0,0:0:0:0:
182,192,98170,1,0,0:0:0:0:
109,192,98231,1,0,0:0:0:0:
475,192,98231,1,0,0:0:0:0:
329,192,98292,1,0,0:0:0:0:
182,192,98323,1,0,0:0:0:0:
402,192,98353,1,0,0:0:0:0:
36,192,98414,1,0,0:0:0:0:
256,192,98414,1,0,0:0:0:0:
475,192,98414,1,0,0:0:0:0:
182,192,98475,1,0,0:0:0:0:
402,192,98506,1,0,0:0:0:0:
475,192,98536,1,0,0:0:0:0:
36,192,98597,1,0,0:0:0:0:
109,192,98597,1,0,0:0:0:0:
329,192,98597,1,0,0:0:0:0:
402,192,98658,1,0,0:0:0:0:
256,192,98689,1,0,0:0:0:0:
109,192,98719,1,0,0:0:0:0:
36,192,98780,1,0,0:0:0:0:
329,192,98780,1,0,0:0:0:0:
475,192,98780,1,0,0:0:0:0:
182,192,98841,1,0,0:0:0:0:
402,192,98871,1,0,0:0:0:0:
256,192,98902,1,0,0:0:0:0:
109,192,98963,1,0,0:0:0:0:
182,192,98963,1,0,0:0:0:0:
475,192,98963,1,0,0:0:0:0:
402,192,99024,1,0,0:0:0:0:
329,192,99054,1,0,0:0:0:0:
256,192,99085,1,0,0:0:0:0:
36,192,99146,1,0,0:0:0:0:
182,192,99146,1,0,0:0:0:0:
475,192,99146,1,0,0:0:0:0:
256,192,99207,1,0,0:0:0:0:
402,192,99237,1,0,0:0:0:0:
182,192,99268,1,0,0:0:0:0:
36,192,99329,1,0,0:0:0:0:
109,192,99329,1,0,0:0:0:0:
329,192,99329,1,0,0:0:0:0:
402,192,99390,1,0,0:0:0:0:
475,192,99420,1,0,0:0:0:0:
329,192,99451,1,0,0:0:0:0:
36,192,99512,1,0,0:0:0:0:
109,192,99512,1,0,0:0:0:0:
182,192,99512,1,0,0:0:0:0:
402,192,99573,1,0,0:0:0:0:
256,192,99603,1,0,0:0:0:0:
109,192,99634,1,0,0:0:0:0:
182,192,99695,1,0,0:0:0:0:
329,192,99695,1,0,0:0:0:0:
475,192,99695,1,0,0:0:0:0:
36,192,99756,1,0,0:0:0:0:
402,192,99786,1,0,0:0:0:0:
109,192,99817,1,0,0:0:0:0:
256,192,99878,1,0,0:0:0:0:
329,192,99878,1,0,0:0:0:0:
475,192,99878,1,0,0:0:0:0:
182,192,99939,1,0,0:0:0:0:
402,192,99969,1,0,0:0:0:0:
475,192,100000,1,0,0:0:0:0:
36,192,100060,1,0,0:0:0:0:
109,192,100060,1,0,0:0:0:0:
256,192,100060,1,0,0:0:0:0:
329,192,100121,1,0,0:0:0:0:
402,192,100182,1,0,0:0:0:0:
109,192,100243,1,0,0:0:0:0:
182,192,100243,1,0,0:0:0:0:
329,192,100243,1,0,0:0:0:0:
402,192,100304,1,0,0:0:0:0:
256,192,100335,1,0,0:0:0:0:
475,192,100335,1,0,0:0:0:0:
36,192,100365,1,0,0:0:0:0:
182,192,100426,1,0,0:0:0:0:
329,192,100426,1,0,0:0:0:0:
402,192,100426,1,0,0:0:0:0:
475,192,100487,1,0,0:0:0:0:
109,192,100518,1,0,0:0:0:0:
256,192,100518,1,0,0:0:0:0:
182,192,100548,1,0,0:0:0:0:
36,192,100609,1,0,0:0:0:0:
329,192,100609,1,0,0:0:0:0:
402,192,100609,1,0,0:0:0:0:
475,192,100609,1,0,0:0:0:0:
256,192,100670,1,0,0:0:0:0:
109,192,100701,1,0,0:0:0:0:
182,192,100731,1,0,0:0:0:0:
36,192,100792,1,0,0:0:0:0:
329,192,100792,1,0,0:0:0:0:
402,192,100792,1,0,0:0:0:0:
475,192,100853,1,0,0:0:0:0:
109,192,100884,1,0,0:0:0:0:
256,192,100914,1,0,0:0:0:0:
36,192,100975,1,0,0:0:0:0:
182,192,100975,1,0,0:0:0:0:
329,192,100975,1,0,0:0:0:0:
402,192,101036,1,0,0:0:0:0:
475,192,101097,1,0,0:0:0:0:
256,192,101158,1,0,0:0:0:0:
329,192,101219,1,0,0:0:0:0:
402,192,101280,1,0,0:0:0:0:
36,192,101341,1,0,0:0:0:0:
182,192,101341,1,0,0:0:0:0:
475,192,101341,1,0,0:0:0:0:
329,192,101402,1,0,0:0:0:0:
402,192,101463,1,0,0:0:0:0:
109,192,101524,1,0,0:0:0:0:
256,192,101524,1,0,0:0:0:0:
475,192,101585,1,0,0:0:0:0:
329,192,101646,1,0,0:0:0:0:
36,192,101707,1,0,0:0:0:0:
182,192,101707,1,0,0:0:0:0:
402,192,101707,1,0,0:0:0:0:
256,192,101768,1,0,0:0:0:0:
475,192,101829,1,0,0:0:0:0:
182,192,101890,1,0,0:0:0:0:
329,192,101890,1,0,0:0:0:0:
402,192,101951,1,0,0:0:0:0:
256,192,102012,1,0,0:0:0:0:
36,192,102073,1,0,0:0:0:0:
109,192,102073,1,0,0:0:0:0:
475,192,102134,1,0,0:0:0:0:
329,192,102195,1,0,0:0:0:0:
182,192,102256,1,0,0:0:0:0:
402,192,102256,1,0,0:0:0:0:
256,192,102317,1,0,0:0:0:0:
329,192,102378,1,0,0:0:0:0:
36,192,102439,1,0,0:0:0:0:
109,192,102439,1,0,0:0:0:0:
475,192,102439,1,0,0:0:0:0:
182,192,102500,1,0,0:0:0:0:
256,192,102560,1,0,0:0:0:0:
109,192,102621,1,0,0:0:0:0:
182,192,102621,1,0,0:0:0:0:
256,192,102682,1,0,0:0:0:0:
329,192,102743,1,0,0:0:0:0:
36,192,102804,1,0,0:0:0:0:
256,192,102804,1,0,0:0:0:0:
329,192,102865,1,0,0:0:0:0:
402,192,102926,1,0,0:0:0:0:
329,192,102987,1,0,0:0:0:0:
402,192,103048,1,0,0:0:0:0:
475,192,103109,1,0,0:0:0:0:
36,192,103170,1,0,0:0:0:0:
182,192,103170,1,0,0:0:0:0:
256,192,103231,1,0,0:0:0:0:
329,192,103292,1,0,0:0:0:0:
256,192,103353,1,0,0:0:0:0:
329,192,103414,1,0,0:0:0:0:
402,192,103475,1,0,0:0:0:0:
36,192,103536,1,0,0:0:0:0:
329,192,103536,1,0,0:0:0:0:
402,192,103597,1,0,0:0:0:0:
475,192,103658,1,0,0:0:0:0:
109,192,103719,1,0,0:0:0:0:
182,192,103780,1,0,0:0:0:0:
402,192,103841,1,0,0:0:0:0:
36,192,103902,1,0,0:0:0:0:
329,192,103902,1,0,0:0:0:0:
475,192,103902,1,0,0:0:0:0:
256,192,103963,1,0,0:0:0:0:
402,192,104024,1,0,0:0:0:0:
182,192,104085,1,0,0:0:0:0:
475,192,104146,1,0,0:0:0:0:
109,192,104207,1,0,0:0:0:0:
36,192,104268,1,0,0:0:0:0:
329,192,104268,1,0,0:0:0:0:
402,192,104268,1,0,0:0:0:0:
182,192,104329,1,0,0:0:0:0:
256,192,104390,1,0,0:0:0:0:
109,192,104451,1,0,0:0:0:0:
402,192,104451,1,0,0:0:0:0:
329,192,104512,1,0,0:0:0:0:
182,192,104573,1,0,0:0:0:0:
36,192,104634,1,0,0:0:0:0:
402,192,104634,1,0,0:0:0:0:
475,192,104634,1,0,0:0:0:0:
256,192,104695,1,0,0:0:0:0:
329,192,104756,1,0,0:0:0:0:
402,192,104817,1,0,0:0:0:0:
475,192,104817,1,0,0:0:0:0:
182,192,104878,1,0,0:0:0:0:
329,192,104939,1,0,0:0:0:0:
36,192,105000,1,0,0:0:0:0:
109,192,105000,1,0,0:0:0:0:
256,192,105000,1,0,0:0:0:0:
475,192,105000,1,0,0:0:0:0:
402,192,105060,1,0,0:0:0:0:
329,192,105121,1,0,0:0:0:0:
182,192,105182,1,0,0:0:0:0:
475,192,105182,1,0,0:0:0:0:
109,192,105243,1,0,0:0:0:0:
329,192,105304,1,0,0:0:0:0:
36,192,105365,1,0,0:0:0:0:
256,192,105365,1,0,0:0:0:0:
402,192,105365,1,0,0:0:0:0:
475,192,105365,1,0,0:0:0:0:
182,192,105426,1,0,0:0:0:0:
109,192,105487,1,0,0:0:0:0:
256,192,105548,1,0,0:0:0:0:
329,192,105548,1,0,0:0:0:0:
475,192,105548,1,0,0:0:0:0:
182,192,105609,1,0,0:0:0:0:
36,192,105670,1,0,0:0:0:0:
182,192,105731,1,0,0:0:0:0:
402,192,105731,1,0,0:0:0:0:
475,192,105731,1,0,0:0:0:0:
256,192,105792,1,0,0:0:0:0:
475,192,105853,1,0,0:0:0:0:
36,192,105914,1,0,0:0:0:0:
109,192,105914,1,0,0:0:0:0:
329,192,105914,1,0,0:0:0:0:
402,192,105914,1,0,0:0:0:0:
256,192,105975,1,0,0:0:0:0:
475,192,106036,1,0,0:0:0:0:
109,192,106097,1,0,0:0:0:0:
182,192,106097,1,0,0:0:0:0:
402,192,106097,1,0,0:0:0:0:
329,192,106158,1,0,0:0:0:0:
36,192,106219,1,0,0:0:0:0:
182,192,106280,1,0,0:0:0:0:
256,192,106280,1,0,0:0:0:0:
475,192,106280,1,0,0:0:0:0:
402,192,106341,1,0,0:0:0:0:
109,192,106402,1,0,0:0:0:0:
36,192,106463,1,0,0:0:0:0:
256,192,106463,1,0,0:0:0:0:
329,192,106463,1,0,0:0:0:0:
402,192,106463,1,0,0:0:0:0:
475,192,106524,1,0,0:0:0:0:
329,192,106585,1,0,0:0:0:0:
36,192,106646,1,0,0:0:0:0:
182,192,106646,1,0,0:0:0:0:
256,192,106646,1,0,0:0:0:0:
402,192,106646,1,0,0:0:0:0:
475,192,106707,1,0,0:0:0:0:
109,192,106768,1,0,0:0:0:0:
36,192,106829,1,0,0:0:0:0:
256,192,106829,1,0,0:0:0:0:
402,192,106829,1,0,0:0:0:0:
475,192,106890,1,0,0:0:0:0:
329,192,106920,1,0,0:0:0:0:
109,192,106951,1,0,0:0:0:0:
182,192,107012,1,0,0:0:0:0:
402,192,107012,1,0,0:0:0:0:
256,192,107073,1,0,0:0:0:0:
475,192,107134,1,0,0:0:0:0:
36,192,107195,1,0,0:0:0:0:
109,192,107195,1,0,0:0:0:0:
402,192,107195,1,0,0:0:0:0:
256,192,107256,1,0,0:0:0:0:
329,192,107286,1,0,0:0:0:0:
109,192,107317,1,0,0:0:0:0:
182,192,107378,1,0,0:0:0:0:
402,192,107378,1,0,0:0:0:0:
475,192,107378,1,0,0:0:0:0:
256,192,107439,1,0,0:0:0:0:
329,192,107500,1,0,0:0:0:0:
36,192,107560,1,0,0:0:0:0:
109,192,107560,1,0,0:0:0:0:
402,192,107560,1,0,0:0:0:0:
256,192,107621,1,0,0:0:0:0:
329,192,107652,1,0,0:0:0:0:
475,192,107682,1,0,0:0:0:0:
109,192,107743,1,0,0:0:0:0:
182,192,107743,1,0,0:0:0:0:
402,192,107743,1,0,0:0:0:0:
256,192,107804,1,0,0:0:0:0:
329,192,107865,1,0,0:0:0:0:
36,192,107926,1,0,0:0:0:0:
475,192,107926,1,0,0:0:0:0:
109,192,107987,1,0,0:0:0:0:
329,192,108018,1,0,0:0:0:0:
256,192,108048,1,0,0:0:0:0:
182,192,108109,1,0,0:0:0:0:
402,192,108109,1,0,0:0:0:0:
475,192,108109,1,0,0:0:0:0:
256,192,108170,1,0,0:0:0:0:
329,192,108231,1,0,0:0:0:0:
36,192,108292,1,0,0:0:0:0:
182,192,108292,1,0,0:0:0:0:
475,192,108292,1,0,0:0:0:0:
256,192,108353,1,0,0:0:0:0:
329,192,108414,1,0,0:0:0:0:
109,192,108475,1,0,0:0:0:0:
182,192,108475,1,0,0:0:0:0:
256,192,108536,1,0,0:0:0:0:
329,192,108597,1,0,0:0:0:0:
36,192,108658,1,0,0:0:0:0:
182,192,108658,1,0,0:0:0:0:
329,192,108719,1,0,0:0:0:0:
475,192,108780,1,0,0:0:0:0:
182,192,108841,1,0,0:0:0:0:
329,192,108902,1,0,0:0:0:0:
475,192,108963,1,0,0:0:0:0:
36,192,109024,1,0,0:0:0:0:
256,192,109024,1,0,0:0:0:0:
402,192,109085,1,0,0:0:0:0:
475,192,109146,1,0,0:0:0:0:
256,192,109207,1,0,0:0:0:0:
402,192,109268,1,0,0:0:0:0:
475,192,109329,1,0,0:0:0:0:
36,192,109390,1,0,0:0:0:0:
109,192,109390,1,0,0:0:0:0:
256,192,109451,1,0,0:0:0:0:
402,192,109512,1,0,0:0:0:0:
109,192,109573,1,0,0:0:0:0:
256,192,109634,1,0,0:0:0:0:
402,192,109695,1,0,0:0:0:0:
36,192,109756,1,0,0:0:0:0:
329,192,109756,1,0,0:0:0:0:
475,192,109756,1,0,0:0:0:0:
109,192,109817,1,0,0:0:0:0:
402,192,109878,1,0,0:0:0:0:
182,192,109939,1,0,0:0:0:0:
256,192,109939,1,0,0:0:0:0:
475,192,110000,1,0,0:0:0:0:
402,192,110030,1,0,0:0:0:0:
109,192,110060,1,0,0:0:0:0:
36,192,110121,1,0,0:0:0:0:
256,192,110121,1,0,0:0:0:0:
329,192,110121,1,0,0:0:0:0:
475,192,110182,1,0,0:0:0:0:
109,192,110243,1,0,0:0:0:0:
182,192,110304,1,0,0:0:0:0:
329,192,110304,1,0,0:0:0:0:
402,192,110304,1,0,0:0:0:0:
475,192,110365,1,0,0:0:0:0:
256,192,110396,1,0,0:0:0:0:
109,192,110426,1,0,0:0:0:0:
36,192,110487,1,0,0:0:0:0:
329,192,110487,1,0,0:0:0:0:
475,192,110487,1,0,0:0:0:0:
402,192,110548,1,0,0:0:0:0:
256,192,110609,1,0,0:0:0:0:
109,192,110670,1,0,0:0:0:0:
182,192,110670,1,0,0:0:0:0:
329,192,110670,1,0,0:0:0:0:
475,192,110731,1,0,0:0:0:0:
402,192,110762,1,0,0:0:0:0:
256,192,110792,1,0,0:0:0:0:
36,192,110853,1,0,0:0:0:0:
109,192,110853,1,0,0:0:0:0:
182,192,110853,1,0,0:0:0:0:
329,192,110914,1,0,0:0:0:0:
475,192,110975,1,0,0:0:0:0:
182,192,111036,1,0,0:0:0:0:
256,192,111036,1,0,0:0:0:0:
402,192,111036,1,0,0:0:0:0:
329,192,111097,1,0,0:0:0:0:
475,192,111128,1,0,0:0:0:0:
109,192,111158,1,0,0:0:0:0:
36,192,111219,1,0,0:0:0:0:
256,192,111219,1,0,0:0:0:0:
402,192,111219,1,0,0:0:0:0:
475,192,111280,1,0,0:0:0:0:
329,192,111310,1,0,0:0:0:0:
256,192,111341,1,0,0:0:0:0:
182,192,111402,1,0,0:0:0:0:
402,192,111402,1,0,0:0:0:0:
475,192,111402,1,0,0:0:0:0:
329,192,111463,1,0,0:0:0:0:
109,192,111493,1,0,0:0:0:0:
36,192,111524,1,0,0:0:0:0:
256,192,111585,1,0,0:0:0:0:
402,192,111585,1,0,0:0:0:0:
475,192,111585,1,0,0:0:0:0:
329,192,111646,1,0,0:0:0:0:
182,192,111676,1,0,0:0:0:0:
109,192,111707,1,0,0:0:0:0:
36,192,111768,1,0,0:0:0:0:
329,192,111768,1,0,0:0:0:0:
475,192,111768,1,0,0:0:0:0:
256,192,111829,1,0,0:0:0:0:
182,192,111890,1,0,0:0:0:0:
109,192,111951,1,0,0:0:0:0:
329,192,111951,1,0,0:0:0:0:
402,192,111951,1,0,0:0:0:0:
182,192,112012,1,0,0:0:0:0:
256,192,112042,1,0,0:0:0:0:
475,192,112042,1,0,0:0:0:0:
36,192,112073,1,0,0:0:0:0:
109,192,112134,1,0,0:0:0:0:
329,192,112134,1,0,0:0:0:0:
402,192,112134,1,0,0:0:0:0:
475,192,112195,1,0,0:0:0:0:
182,192,112225,1,0,0:0:0:0:
256,192,112225,1,0,0:0:0:0:
402,192,112256,1,0,0:0:0:0:
36,192,112317,1,0,0:0:0:0:
109,192,112317,1,0,0:0:0:0:
329,192,112317,1,0,0:0:0:0:
475,192,112317,1,0,0:0:0:0:
256,192,112378,1,0,0:0:0:0:
182,192,112408,1,0,0:0:0:0:
402,192,112439,1,0,0:0:0:0:
36,192,112500,1,0,0:0:0:0:
109,192,112500,1,0,0:0:0:0:
329,192,112500,1,0,0:0:0:0:
475,192,112560,1,0,0:0:0:0:
182,192,112591,1,0,0:0:0:0:
256,192,112621,1,0,0:0:0:0:
36,192,112682,1,0,0:0:0:0:
402,192,112682,1,0,0:0:0:0:
475,192,112682,1,0,0:0:0:0:
109,192,112743,1,0,0:0:0:0:
182,192,112774,1,0,0:0:0:0:
256,192,112804,1,0,0:0:0:0:
329,192,112865,1,0,0:0:0:0:
475,192,112865,1,0,0:0:0:0:
402,192,112926,1,0,0:0:0:0:
256,192,112987,1,0,0:0:0:0:
36,192,113048,1,0,0:0:0:0:
402,192,113048,1,0,0:0:0:0:
475,192,113048,1,0,0:0:0:0:
329,192,113109,1,0,0:0:0:0:
182,192,113140,1,0,0:0:0:0:
256,192,113170,1,0,0:0:0:0:
109,192,113231,1,0,0:0:0:0:
329,192,113231,1,0,0:0:0:0:
475,192,113231,1,0,0:0:0:0:
256,192,113292,1,0,0:0:0:0:
182,192,113353,1,0,0:0:0:0:
36,192,113414,1,0,0:0:0:0:
329,192,113414,1,0,0:0:0:0:
402,192,113414,1,0,0:0:0:0:
475,192,113475,1,0,0:0:0:0:
182,192,113506,1,0,0:0:0:0:
256,192,113536,1,0,0:0:0:0:
109,192,113597,1,0,0:0:0:0:
329,192,113597,1,0,0:0:0:0:
402,192,113597,1,0,0:0:0:0:
475,192,113658,1,0,0:0:0:0:
256,192,113719,1,0,0:0:0:0:
36,192,113780,1,0,0:0:0:0:
329,192,113780,1,0,0:0:0:0:
475,192,113841,1,0,0:0:0:0:
182,192,113871,1,0,0:0:0:0:
256,192,113902,1,0,0:0:0:0:
109,192,113963,1,0,0:0:0:0:
329,192,113963,1,0,0:0:0:0:
402,192,113963,1,0,0:0:0:0:
475,192,114024,1,0,0:0:0:0:
182,192,114085,1,0,0:0:0:0:
36,192,114146,1,0,0:0:0:0:
256,192,114146,1,0,0:0:0:0:
475,192,114146,1,0,0:0:0:0:
402,192,114207,1,0,0:0:0:0:
182,192,114268,1,0,0:0:0:0:
109,192,114329,1,0,0:0:0:0:
329,192,114329,1,0,0:0:0:0:
256,192,114390,1,0,0:0:0:0:
402,192,114451,1,0,0:0:0:0:
36,192,114512,1,0,0:0:0:0:
182,192,114512,1,0,0:0:0:0:
329,192,114573,1,0,0:0:0:0:
109,192,114634,1,0,0:0:0:0:
475,192,114695,1,0,0:0:0:0:
182,192,114756,1,0,0:0:0:0:
402,192,114817,1,0,0:0:0:0:
36,192,114878,1,0,0:0:0:0:
256,192,114878,1,0,0:0:0:0:
475,192,114939,1,0,0:0:0:0:
109,192,115000,1,0,0:0:0:0:
402,192,115060,1,0,0:0:0:0:
182,192,115121,1,0,0:0:0:0:
329,192,115182,1,0,0:0:0:0:
36,192,115243,1,0,0:0:0:0:
256,192,115243,1,0,0:0:0:0:
475,192,115304,1,0,0:0:0:0:
182,192,115365,1,0,0:0:0:0:
329,192,115426,1,0,0:0:0:0:
109,192,115487,1,0,0:0:0:0:
402,192,115548,1,0,0:0:0:0:
36,192,115609,1,0,0:0:0:0:
182,192,115609,1,0,0:0:0:0:
329,192,115609,1,0,0:0:0:0:
256,192,115701,1,0,0:0:0:0:
475,192,115701,1,0,0:0:0:0:
109,192,115792,1,0,0:0:0:0:
402,192,115884,1,0,0:0:0:0:
36,192,115975,1,0,0:0:0:0:
182,192,115975,1,0,0:0:0:0:
329,192,115975,1,0,0:0:0:0:
256,192,116067,1,0,0:0:0:0:
109,192,116158,1,0,0:0:0:0:
402,192,116158,1,0,0:0:0:0:
329,192,116250,1,0,0:0:0:0:
36,192,116341,1,0,0:0:0:0:
402,192,116341,1,0,0:0:0:0:
475,192,116341,1,0,0:0:0:0:
182,192,116432,1,0,0:0:0:0:
256,192,116432,1,0,0:0:0:0:
109,192,116524,1,0,0:0:0:0:
475,192,116524,1,0,0:0:0:0:
402,192,116615,1,0,0:0:0:0:
36,192,116707,1,0,0:0:0:0:
182,192,116707,1,0,0:0:0:0:
256,192,116798,1,0,0:0:0:0:
109,192,116890,1,0,0:0:0:0:
329,192,116890,1,0,0:0:0:0:
475,192,116981,1,0,0:0:0:0:
36,192,117073,1,0,0:0:0:0:
256,192,117073,1,0,0:0:0:0:
402,192,117073,1,0,0:0:0:0:
182,192,117164,1,0,0:0:0:0:
109,192,117256,1,0,0:0:0:0:
256,192,117256,1,0,0:0:0:0:
402,192,117347,1,0,0:0:0:0:
36,192,117439,1,0,0:0:0:0:
182,192,117439,1,0,0:0:0:0:
256,192,117439,1,0,0:0:0:0:
329,192,117439,1,0,0:0:0:0:
475,192,117439,1,0,0:0:0:0:
109,192,117530,1,0,0:0:0:0:
402,192,117530,1,0,0:0:0:0:
36,192,117621,1,0,0:0:0:0:
256,192,117621,1,0,0:0:0:0:
475,192,117621,1,0,0:0:0:0:
36,192,117804,1,0,0:0:0:0:
109,192,117804,1,0,0:0:0:0:
329,192,117804,1,0,0:0:0:0:
475,192,117804,1,0,0:0:0:0:
182,192,117896,1,0,0:0:0:0:
402,192,117896,1,0,0:0:0:0:
36,192,117987,1,0,0:0:0:0:
256,192,117987,1,0,0:0:0:0:
329,192,117987,1,0,0:0:0:0:
109,192,118079,1,0,0:0:0:0:
182,192,118170,1,0,0:0:0:0:
402,192,118170,1,0,0:0:0:0:
475,192,118170,1,0,0:0:0:0:
256,192,118216,1,0,0:0:0:0:
329,192,118262,1,0,0:0:0:0:
109,192,118307,1,0,0:0:0:0:
36,192,118353,1,0,0:0:0:0:
402,192,118353,1,0,0:0:0:0:
475,192,118353,1,0,0:0:0:0:
182,192,118399,1,0,0:0:0:0:
329,192,118445,1,0,0:0:0:0:
109,192,118490,1,0,0:0:0:0:
36,192,118536,1,0,0:0:0:0:
256,192,118536,1,0,0:0:0:0:
109,192,118597,1,0,0:0:0:0:
182,192,118597,1,0,0:0:0:0:
329,192,118658,1,0,0:0:0:0:
402,192,118658,1,0,0:0:0:0:
256,192,118719,1,0,0:0:0:0:
475,192,118719,1,0,0:0:0:0:
36,192,118780,1,0,0:0:0:0:
402,192,118780,1,0,0:0:0:0:
182,192,118841,1,0,0:0:0:0:
329,192,118841,1,0,0:0:0:0:
109,192,118902,1,0,0:0:0:0:
475,192,118902,1,0,0:0:0:0:
256,192,118963,1,0,0:0:0:0:
402,192,118963,1,0,0:0:0:0:
36,192,119024,1,0,0:0:0:0:
329,192,119024,1,0,0:0:0:0:
109,192,119085,1,0,0:0:0:0:
256,192,119085,1,0,0:0:0:0:
182,192,119146,1,0,0:0:0:0:
475,192,119146,1,0,0:0:0:0:
36,192,119207,1,0,0:0:0:0:
402,192,119207,1,0,0:0:0:0:
256,192,119268,1,0,0:0:0:0:
329,192,119268,1,0,0:0:0:0:
109,192,119329,1,0,0:0:0:0:
182,192,119329,1,0,0:0:0:0:
36,192,119390,1,0,0:0:0:0:
475,192,119390,1,0,0:0:0:0:
256,192,119451,1,0,0:0:0:0:
402,192,119451,1,0,0:0:0:0:
182,192,119512,1,0,0:0:0:0:
329,192,119512,1,0,0:0:0:0:
36,192,119573,1,0,0:0:0:0:
109,192,119573,1,0,0:0:0:0:
256,192,119634,1,0,0:0:0:0:
475,192,119634,1,0,0:0:0:0:
182,192,119695,1,0,0:0:0:0:
402,192,119695,1,0,0:0:0:0:
36,192,119756,1,0,0:0:0:0:
329,192,119756,1,0,0:0:0:0:
109,192,119817,1,0,0:0:0:0:
256,192,119817,1,0,0:0:0:0:
402,192,119878,1,0,0:0:0:0:
182,192,119939,1,0,0:0:0:0:
36,192,120000,1,0,0:0:0:0:
329,192,120000,1,0,0:0:0:0:
109,192,120060,1,0,0:0:0:0:
256,192,120060,1,0,0:0:0:0:
182,192,120121,1,0,0:0:0:0:
475,192,120121,1,0,0:0:0:0:
256,192,120182,1,0,0:0:0:0:
402,192,120182,1,0,0:0:0:0:
36,192,120243,1,0,0:0:0:0:
329,192,120243,1,0,0:0:0:0:
109,192,120304,1,0,0:0:0:0:
182,192,120304,1,0,0:0:0:0:
256,192,120365,1,0,0:0:0:0:
475,192,120365,1,0,0:0:0:0:
36,192,120426,1,0,0:0:0:0:
329,192,120426,1,0,0:0:0:0:
109,192,120487,1,0,0:0:0:0:
402,192,120487,1,0,0:0:0:0:
182,192,120548,1,0,0:0:0:0:
256,192,120548,1,0,0:0:0:0:
36,192,120609,1,0,0:0:0:0:
475,192,120609,1,0,0:0:0:0:
109,192,120670,1,0,0:0:0:0:
402,192,120670,1,0,0:0:0:0:
256,192,120731,1,0,0:0:0:0:
329,192,120731,1,0,0:0:0:0:
36,192,120792,1,0,0:0:0:0:
182,192,120792,1,0,0:0:0:0:
109,192,120853,1,0,0:0:0:0:
402,192,120853,1,0,0:0:0:0:
256,192,120914,1,0,0:0:0:0:
475,192,120914,1,0,0:0:0:0:
36,192,120975,1,0,0:0:0:0:
329,192,120975,1,0,0:0:0:0:
109,192,121036,1,0,0:0:0:0:
256,192,121036,1,0,0:0:0:0:
182,192,121097,1,0,0:0:0:0:
402,192,121097,1,0,0:0:0:0:
36,192,121158,1,0,0:0:0:0:
329,192,121158,1,0,0:0:0:0:
109,192,121219,1,0,0:0:0:0:
475,192,121219,1,0,0:0:0:0:
182,192,121280,1,0,0:0:0:0:
402,192,121280,1,0,0:0:0:0:
36,192,121341,1,0,0:0:0:0:
329,192,121341,1,0,0:0:0:0:
109,192,121402,1,0,0:0:0:0:
256,192,121402,1,0,0:0:0:0:
182,192,121463,1,0,0:0:0:0:
475,192,121463,1,0,0:0:0:0:
36,192,121524,1,0,0:0:0:0:
402,192,121524,1,0,0:0:0:0:
256,192,121585,1,0,0:0:0:0:
329,192,121585,1,0,0:0:0:0:
109,192,121646,1,0,0:0:0:0:
475,192,121646,1,0,0:0:0:0:
182,192,121707,1,0,0:0:0:0:
402,192,121707,1,0,0:0:0:0:
256,192,121768,1,0,0:0:0:0:
475,192,121768,1,0,0:0:0:0:
36,192,121829,1,0,0:0:0:0:
182,192,121829,1,0,0:0:0:0:
109,192,121890,1,0,0:0:0:0:
402,192,121890,1,0,0:0:0:0:
256,192,121951,1,0,0:0:0:0:
329,192,121951,1,0,0:0:0:0:
182,192,122012,1,0,0:0:0:0:
475,192,122012,1,0,0:0:0:0:
36,192,122073,1,0,0:0:0:0:
402,192,122073,1,0,0:0:0:0:
109,192,122134,1,0,0:0:0:0:
329,192,122134,1,0,0:0:0:0:
36,192,122195,1,0,0:0:0:0:
256,192,122195,1,0,0:0:0:0:
182,192,122256,1,0,0:0:0:0:
475,192,122256,1,0,0:0:0:0:
109,192,122317,1,0,0:0:0:0:
402,192,122317,1,0,0:0:0:0:
36,192,122378,1,0,0:0:0:0:
256,192,122378,1,0,0:0:0:0:
182,192,122439,1,0,0:0:0:0:
329,192,122439,1,0,0:0:0:0:
109,192,122500,1,0,0:0:0:0:
475,192,122500,1,0,0:0:0:0:
256,192,122560,1,0,0:0:0:0:
402,192,122560,1,0,0:0:0:0:
36,192,122621,1,0,0:0:0:0:
329,192,122621,1,0,0:0:0:0:
109,192,122682,1,0,0:0:0:0:
182,192,122682,1,0,0:0:0:0:
402,192,122743,1,0,0:0:0:0:
475,192,122743,1,0,0:0:0:0:
36,192,122804,1,0,0:0:0:0:
329,192,122804,1,0,0:0:0:0:
182,192,122865,1,0,0:0:0:0:
402,192,122865,1,0,0:0:0:0:
36,192,122926,1,0,0:0:0:0:
109,192,122926,1,0,0:0:0:0:
256,192,122926,1,0,0:0:0:0:
329,192,122926,1,0,0:0:0:0:
475,192,122926,1,0,0:0:0:0:
182,192,123018,1,0,0:0:0:0:
402,192,123018,1,0,0:0:0:0:
475,192,123018,1,0,0:0:0:0:
36,192,123109,1,0,0:0:0:0:
402,192,123109,1,0,0:0:0:0:
475,192,123109,1,0,0:0:0:0:
256,192,123201,1,0,0:0:0:0:
329,192,123201,1,0,0:0:0:0:
402,192,123201,1,0,0:0:0:0:
36,192,123292,1,0,0:0:0:0:
109,192,123292,1,0,0:0:0:0:
182,192,123292,1,0,0:0:0:0:
256,192,123292,1,0,0:0:0:0:
329,192,123292,1,0,0:0:0:0:
475,192,123292,1,0,0:0:0:0:
109,192,123384,1,0,0:0:0:0:
182,192,123384,1,0,0:0:0:0:
36,192,123475,1,0,0:0:0:0:
182,192,123475,1,0,0:0:0:0:
329,192,123475,1,0,0:0:0:0:
475,192,123475,1,0,0:0:0:0:
