osu file format v13

[General]
AudioFilename: chinese_mind.mp3
AudioLeadIn: 0
PreviewTime: 65053
Countdown: 0
SampleSet: Normal
StackLeniency: 0.7
Mode: 1
LetterboxInBreaks: 0
WidescreenStoryboard: 0

[Editor]
DistanceSpacing: 0.8
BeatDivisor: 4
GridSize: 32
TimelineZoom: 1.7

[Metadata]
Title:Yuukyuu Shinwaroku -Haruka naru Sanmyaku ni Nagareru Taiga no Hotori nite-
TitleUnicode:悠久神話録-遥かなる山脈に流れる大河の畔にて-
Artist:Gekidan Record
ArtistUnicode:劇団レコード
Creator:AxelHino
Version:Muzukashii
Source:pop'n music Sunny Park
Tags:konami bemani chinese mind チャイニーズマインド Hideyuki Ono 小野秀幸 Tomoaki Hirono 広野智章 Troupe Yuma Ito Toshihisa Furusawa ポップンミュージック サニーパーク 古澤利久 伊藤友馬
BeatmapID:485263
BeatmapSetID:205637

[Difficulty]
HPDrainRate:6
CircleSize:5
OverallDifficulty:5
ApproachRate:5
SliderMultiplier:1.4
SliderTickRate:1

[Events]
//Background and Video events
0,0,"redpandaOwO.jpg",0,0
//Break Periods
//Storyboard Layer 0 (Background)
//Storyboard Layer 1 (Fail)
//Storyboard Layer 2 (Pass)
//Storyboard Layer 3 (Foreground)
//Storyboard Sound Samples
//Background Colour Transformations
3,100,163,162,255

[TimingPoints]
1586,428.571428571429,3,1,0,100,1,0
8871,600,3,1,0,100,1,0
8871,-71.4285714285714,3,1,0,100,0,0
10071,329.67032967033,5,1,0,100,1,1
23257,-100,5,1,0,100,0,0
49631,329.67032967033,3,1,0,100,1,0
64466,329.67032967033,4,1,0,100,1,0
65125,335.195530726257,4,1,0,100,1,0
66465,329.67032967033,3,1,0,100,1,1
82289,329.67032967033,5,1,0,100,1,0

[HitObjects]
288,160,1586,5,4,0:0:0:0:
256,224,2871,1,8,0:0:0:0:
288,160,4157,1,0,0:0:0:0:
256,224,5443,1,8,0:0:0:0:
288,160,6728,1,0,0:0:0:0:
288,160,8014,1,8,0:0:0:0:
288,160,8871,1,0,0:0:0:0:
288,160,10071,1,4,0:0:0:0:
288,160,10400,1,0,0:0:0:0:
288,160,10565,1,0,0:0:0:0:
288,160,10730,1,8,0:0:0:0:
288,160,11060,1,8,0:0:0:0:
288,160,11389,1,8,0:0:0:0:
288,160,11719,1,0,0:0:0:0:
288,160,12049,1,0,0:0:0:0:
288,160,12213,1,0,0:0:0:0:
288,160,12378,1,8,0:0:0:0:
288,160,12708,1,8,0:0:0:0:
288,160,13038,1,8,0:0:0:0:
192,192,13120,1,8,0:0:0:0:
288,160,13202,1,8,0:0:0:0:
288,160,13367,1,0,0:0:0:0:
288,160,14027,1,0,0:0:0:0:
288,160,14191,1,0,0:0:0:0:
288,160,14356,1,8,0:0:0:0:
288,160,14521,1,0,0:0:0:0:
128,160,14603,1,0,0:0:0:0:
288,160,14686,1,0,0:0:0:0:
288,160,15016,1,0,0:0:0:0:
288,160,15180,1,8,0:0:0:0:
288,160,15345,1,0,0:0:0:0:
288,160,15675,1,0,0:0:0:0:
288,160,16005,1,4,0:0:0:0:
288,160,16334,1,4,0:0:0:0:
288,160,16664,1,0,0:0:0:0:
288,160,16994,1,0,0:0:0:0:
288,160,17158,1,0,0:0:0:0:
288,160,17323,1,8,0:0:0:0:
288,160,17653,1,8,0:0:0:0:
288,160,17983,1,8,0:0:0:0:
288,160,18312,1,8,0:0:0:0:
288,160,18642,1,0,0:0:0:0:
288,160,18807,1,0,0:0:0:0:
288,160,18972,1,8,0:0:0:0:
288,160,19301,1,8,0:0:0:0:
288,160,19631,1,8,0:0:0:0:
192,128,19713,1,8,0:0:0:0:
288,160,19796,1,8,0:0:0:0:
288,160,19961,1,0,0:0:0:0:
288,160,20620,1,0,0:0:0:0:
288,160,20785,1,0,0:0:0:0:
288,160,20950,1,8,0:0:0:0:
288,160,21114,1,0,0:0:0:0:
288,160,21279,1,8,0:0:0:0:
288,160,21609,1,0,0:0:0:0:
192,128,21691,1,0,0:0:0:0:
288,160,21774,1,0,0:0:0:0:
288,160,21939,1,8,0:0:0:0:
288,160,22268,1,0,0:0:0:0:
288,160,22598,1,12,0:0:0:0:
288,160,22928,1,12,0:0:0:0:
160,192,23257,1,0,0:0:0:0:
160,192,23752,1,0,0:0:0:0:
128,192,24081,1,0,0:0:0:0:
128,192,24246,1,8,0:0:0:0:
160,192,24576,1,8,0:0:0:0:
160,192,24906,1,0,0:0:0:0:
160,192,25400,1,0,0:0:0:0:
160,192,25730,1,8,0:0:0:0:
160,192,25895,1,0,0:0:0:0:
160,192,26224,1,8,0:0:0:0:
160,192,26389,1,8,0:0:0:0:
160,192,26554,1,0,0:0:0:0:
160,192,27049,1,0,0:0:0:0:
0,320,27378,1,0,0:0:0:0:
160,192,27543,1,8,0:0:0:0:
160,192,27873,1,8,0:0:0:0:
160,192,28038,1,0,0:0:0:0:
160,192,28202,1,0,0:0:0:0:
160,192,28532,1,8,0:0:0:0:
160,192,28697,1,0,0:0:0:0:
160,192,29027,1,8,0:0:0:0:
160,192,29191,1,0,0:0:0:0:
160,192,29521,1,0,0:0:0:0:
160,192,29603,1,0,0:0:0:0:
160,192,29686,1,0,0:0:0:0:
160,192,29851,1,8,0:0:0:0:
192,256,30345,1,0,0:0:0:0:
224,192,30675,1,0,0:0:0:0:
160,192,30840,1,8,0:0:0:0:
160,192,31169,1,8,0:0:0:0:
160,192,31499,1,0,0:0:0:0:
160,192,31994,1,0,0:0:0:0:
160,192,32323,1,8,0:0:0:0:
160,192,32488,1,0,0:0:0:0:
160,192,32818,1,0,0:0:0:0:
160,192,32983,1,0,0:0:0:0:
160,192,33147,1,0,0:0:0:0:
160,192,33642,1,0,0:0:0:0:
128,224,33972,1,8,0:0:0:0:
160,192,34136,1,0,0:0:0:0:
160,192,34466,1,0,0:0:0:0:
224,128,34631,1,0,0:0:0:0:
160,192,34796,1,0,0:0:0:0:
224,128,35125,1,8,0:0:0:0:
224,128,35290,1,0,0:0:0:0:
224,128,35620,1,0,0:0:0:0:
224,128,35785,1,0,0:0:0:0:
224,128,36114,1,8,0:0:0:0:
224,128,36197,1,8,0:0:0:0:
224,128,36279,1,8,0:0:0:0:
224,128,36444,1,8,0:0:0:0:
288,192,36609,1,8,0:0:0:0:
288,192,36774,1,0,0:0:0:0:
224,128,37103,1,0,0:0:0:0:
224,128,37433,1,8,0:0:0:0:
224,128,37598,1,8,0:0:0:0:
224,128,37763,1,0,0:0:0:0:
224,128,37928,1,8,0:0:0:0:
224,128,38092,1,0,0:0:0:0:
288,192,38587,1,0,0:0:0:0:
224,128,38752,1,8,0:0:0:0:
224,128,39081,1,0,0:0:0:0:
288,192,39411,1,8,0:0:0:0:
224,128,39576,1,0,0:0:0:0:
224,128,39741,1,8,0:0:0:0:
288,192,40235,1,0,0:0:0:0:
288,192,40400,1,8,0:0:0:0:
224,128,40730,1,8,0:0:0:0:
224,128,40895,1,8,0:0:0:0:
224,128,41060,1,8,0:0:0:0:
224,128,41224,1,0,0:0:0:0:
224,128,41389,1,0,0:0:0:0:
224,128,41884,1,0,0:0:0:0:
224,128,42049,1,8,0:0:0:0:
224,128,42378,1,0,0:0:0:0:
224,128,42708,1,8,0:0:0:0:
224,128,42790,1,8,0:0:0:0:
224,128,42873,1,8,0:0:0:0:
224,128,43038,1,8,0:0:0:0:
288,192,43202,1,8,0:0:0:0:
288,192,43367,1,0,0:0:0:0:
224,128,43697,1,0,0:0:0:0:
224,128,44027,1,8,0:0:0:0:
224,128,44191,1,8,0:0:0:0:
224,128,44356,1,0,0:0:0:0:
224,128,44521,1,8,0:0:0:0:
224,128,44686,1,0,0:0:0:0:
288,192,45180,1,0,0:0:0:0:
224,128,45345,1,8,0:0:0:0:
224,128,45675,1,0,0:0:0:0:
288,192,46005,1,8,0:0:0:0:
224,128,46169,1,0,0:0:0:0:
224,128,46334,1,8,0:0:0:0:
288,192,46829,1,0,0:0:0:0:
288,192,46994,1,8,0:0:0:0:
224,128,47323,1,8,0:0:0:0:
320,192,47406,1,8,0:0:0:0:
224,128,47488,1,8,0:0:0:0:
224,128,47653,1,8,0:0:0:0:
256,256,47818,1,0,0:0:0:0:
224,128,47983,1,8,0:0:0:0:
320,192,48477,1,0,0:0:0:0:
128,160,48972,1,0,0:0:0:0:
256,192,49301,1,0,0:0:0:0:
128,160,49631,1,4,0:0:0:0:
128,160,51609,1,0,0:0:0:0:
128,160,53587,1,0,0:0:0:0:
128,160,55565,1,0,0:0:0:0:
128,160,57213,1,8,0:0:0:0:
128,160,57378,1,8,0:0:0:0:
128,160,57543,1,0,0:0:0:0:
128,160,58202,1,8,0:0:0:0:
128,160,58532,1,0,0:0:0:0:
128,160,59191,1,0,0:0:0:0:
128,160,59521,1,0,0:0:0:0:
256,224,60180,1,0,0:0:0:0:
256,224,60510,1,8,0:0:0:0:
256,224,61499,1,0,0:0:0:0:
256,224,62158,1,8,0:0:0:0:
256,224,62488,1,0,0:0:0:0:
256,224,63147,1,0,0:0:0:0:
256,224,63477,1,8,0:0:0:0:
256,224,63641,1,0,0:0:0:0:
256,224,63806,1,0,0:0:0:0:
256,224,63971,1,0,0:0:0:0:
256,224,64136,1,8,0:0:0:0:
256,224,64301,1,8,0:0:0:0:
256,224,64466,1,0,0:0:0:0:
256,224,65125,1,4,0:0:0:0:
256,224,65795,1,4,0:0:0:0:
256,224,66465,1,4,0:0:0:0:
256,224,66794,1,0,0:0:0:0:
256,224,66959,1,0,0:0:0:0:
256,224,67124,1,8,0:0:0:0:
256,224,67454,1,0,0:0:0:0:
256,224,67783,1,0,0:0:0:0:
256,224,67948,1,0,0:0:0:0:
256,224,68113,1,8,0:0:0:0:
256,224,68443,1,4,0:0:0:0:
256,224,68937,1,0,0:0:0:0:
256,224,69102,1,8,0:0:0:0:
256,224,69432,1,0,0:0:0:0:
320,192,69761,1,8,0:0:0:0:
128,64,69844,1,8,0:0:0:0:
256,224,69926,1,8,0:0:0:0:
256,224,70091,1,8,0:0:0:0:
256,224,70421,1,4,0:0:0:0:
256,224,70750,1,0,0:0:0:0:
256,224,70915,1,0,0:0:0:0:
256,224,71080,1,8,0:0:0:0:
256,224,71410,1,0,0:0:0:0:
256,224,71739,1,0,0:0:0:0:
160,128,71904,1,0,0:0:0:0:
160,128,72069,1,8,0:0:0:0:
160,128,72399,1,4,0:0:0:0:
160,128,72728,1,8,0:0:0:0:
160,128,72893,1,8,0:0:0:0:
160,128,73058,1,0,0:0:0:0:
160,128,73223,1,0,0:0:0:0:
160,128,73388,1,8,0:0:0:0:
160,128,73717,1,0,0:0:0:0:
256,224,74377,1,4,0:0:0:0:
256,224,74706,1,0,0:0:0:0:
256,224,74871,1,0,0:0:0:0:
256,224,75036,1,8,0:0:0:0:
256,224,75366,1,0,0:0:0:0:
256,224,75695,1,0,0:0:0:0:
256,224,75860,1,0,0:0:0:0:
256,224,76025,1,8,0:0:0:0:
256,224,76355,1,4,0:0:0:0:
256,224,76849,1,0,0:0:0:0:
256,224,77014,1,8,0:0:0:0:
256,224,77344,1,0,0:0:0:0:
320,192,77673,1,8,0:0:0:0:
320,192,77756,1,8,0:0:0:0:
256,224,77838,1,8,0:0:0:0:
256,224,78003,1,8,0:0:0:0:
256,224,78333,1,4,0:0:0:0:
256,224,78662,1,0,0:0:0:0:
256,224,78827,1,0,0:0:0:0:
256,224,78992,1,8,0:0:0:0:
256,224,79322,1,0,0:0:0:0:
256,224,79651,1,0,0:0:0:0:
160,128,79816,1,0,0:0:0:0:
160,128,79981,1,8,0:0:0:0:
64,160,80311,1,8,0:0:0:0:
64,160,80475,1,0,0:0:0:0:
64,160,80640,1,0,0:0:0:0:
64,160,80805,1,0,0:0:0:0:
64,160,80970,1,8,0:0:0:0:
64,160,81135,1,8,0:0:0:0:
64,160,81300,1,0,0:0:0:0:
160,128,81629,1,0,0:0:0:0:
64,96,81959,1,0,0:0:0:0:
64,96,82124,1,0,0:0:0:0:
64,96,82289,1,4,0:0:0:0:
224,192,82783,1,0,0:0:0:0:
224,224,82948,1,8,0:0:0:0:
224,224,83113,1,8,0:0:0:0:
224,224,83278,1,0,0:0:0:0:
224,224,83607,1,0,0:0:0:0:
224,224,83690,1,0,0:0:0:0:
224,224,83772,1,0,0:0:0:0:
224,224,83937,1,0,0:0:0:0:
224,192,84431,1,0,0:0:0:0:
224,192,84596,1,0,0:0:0:0:
224,192,84761,1,8,0:0:0:0:
224,224,84926,1,0,0:0:0:0:
224,224,85256,1,8,0:0:0:0:
224,224,85338,1,8,0:0:0:0:
224,224,85420,1,8,0:0:0:0:
64,96,85585,1,0,0:0:0:0:
224,192,86080,1,8,0:0:0:0:
192,128,86245,1,0,0:0:0:0:
192,128,86409,1,8,0:0:0:0:
224,224,86574,1,0,0:0:0:0:
224,224,86904,1,0,0:0:0:0:
224,224,87069,1,0,0:0:0:0:
160,192,87234,1,0,0:0:0:0:
160,192,87563,1,0,0:0:0:0:
160,192,87893,1,0,0:0:0:0:
64,96,88223,1,8,0:0:0:0:
160,192,88552,1,0,0:0:0:0:
160,192,88635,1,0,0:0:0:0:
160,192,88717,1,0,0:0:0:0:
64,96,88882,1,8,0:0:0:0:
64,96,89376,1,0,0:0:0:0:
224,224,89541,1,8,0:0:0:0:
224,224,89706,1,8,0:0:0:0:
224,224,89871,1,0,0:0:0:0:
224,224,90201,1,0,0:0:0:0:
224,224,90283,1,0,0:0:0:0:
224,224,90365,1,0,0:0:0:0:
64,96,90530,1,0,0:0:0:0:
64,96,91025,1,0,0:0:0:0:
64,96,91190,1,0,0:0:0:0:
64,96,91354,1,8,0:0:0:0:
224,224,91519,1,0,0:0:0:0:
224,224,91849,1,8,0:0:0:0:
224,224,91931,1,8,0:0:0:0:
224,224,92014,1,8,0:0:0:0:
64,96,92179,1,0,0:0:0:0:
256,224,92673,1,0,0:0:0:0:
256,224,92838,1,0,0:0:0:0:
256,224,93003,1,8,0:0:0:0:
224,224,93168,1,0,0:0:0:0:
256,224,93332,1,0,0:0:0:0:
192,96,93497,1,8,0:0:0:0:
192,96,93662,1,8,0:0:0:0:
128,256,93827,2,0,B|224:128|224:128|96:96,1,280
224,224,94816,1,4,0:0:0:0:
224,224,95146,1,4,0:0:0:0:
