osu file format v14

[General]
AudioFilename: release the dragons.mp3
AudioLeadIn: 0
PreviewTime: 43822
Countdown: 0
SampleSet: Soft
StackLeniency: 0.4
Mode: 0
LetterboxInBreaks: 0
WidescreenStoryboard: 1

[Editor]
DistanceSpacing: 1.2
BeatDivisor: 4
GridSize: 4
TimelineZoom: 1.7

[Metadata]
Title:Hanate
TitleUnicode:ハナテ
Artist:Gekidan Niagara
ArtistUnicode:劇団ナイアガラ
Creator:-Hanashi-
Version:Level 7
Source:遊☆戯☆王ARC-V
Tags:yugioh card game unleash ritual tribute advance fusion yugo synchro XYZ yuya sakaki
BeatmapID:720750
BeatmapSetID:316600

[Difficulty]
HPDrainRate:6
CircleSize:4
OverallDifficulty:6
ApproachRate:7
SliderMultiplier:1.45
SliderTickRate:1

[Events]
//Background and Video events
0,0,"Sakaki.jpg",0,0
Video,0,"watermelons.avi"
//Break Periods
//Storyboard Layer 0 (Background)
//Storyboard Layer 1 (Fail)
//Storyboard Layer 2 (Pass)
//Storyboard Layer 3 (Foreground)
//Storyboard Sound Samples

[TimingPoints]
855,387.096774193548,4,2,0,60,1,0
7048,-90.9090909090909,4,1,0,40,0,1
13242,-100,4,2,0,60,0,0
25629,-90.9090909090909,4,1,0,40,0,1
31822,-111.111111111111,4,1,0,40,0,0
44209,-111.111111111111,4,1,0,40,0,1
55048,-100,4,1,0,40,0,0
56596,-90.9090909090909,4,1,0,40,0,1
65887,-100,4,1,0,40,0,0
66661,-100,4,1,0,40,0,1
73629,-90.9090909090909,4,1,0,40,0,0
80209,-100,4,1,0,40,0,1
85532,-100,4,2,0,40,0,0
86016,-100,4,2,0,35,0,0
86403,-100,4,2,0,30,0,0
86790,-100,4,2,0,20,0,0

[Colours]
Combo1 : 255,70,70
Combo2 : 255,255,81
Combo3 : 255,153,51
Combo4 : 128,128,255
Combo5 : 0,232,116

[HitObjects]
76,167,855,6,0,B|104:171|131:148|131:148|162:176|228:169,1,145
288,132,1435,1,0,0:0:0:0:
345,197,1629,2,0,L|338:272,1,72.5
421,242,2016,2,0,L|426:167,1,72.5
367,104,2403,6,0,P|299:131|217:113,1,145
159,68,2984,1,0,0:0:0:0:
148,154,3177,2,0,P|150:196|137:239,1,72.5
59,249,3564,2,0,P|58:205|71:162,1,72.5
148,154,3951,6,0,B|198:164|250:145|250:145|293:186,1,145,4|0,0:0|0:0,0:0:0:0:
352,222,4532,1,0,0:0:0:0:
274,261,4725,2,0,B|230:265|230:265|186:265,1,72.5
247,339,5113,2,0,B|281:336|281:336|337:340,1,72.5
274,261,5500,6,0,B|230:266|230:266|106:262,1,145
63,206,6080,1,0,0:0:0:0:
33,124,6274,2,0,P|33:84|47:43,1,72.5
126,31,6661,2,0,P|126:77|108:121,1,72.5
106,142,6951,1,0,0:0:0:0:
106,142,7048,5,4,0:0:0:0:
60,217,7242,1,0,0:0:0:0:
147,217,7435,2,0,P|183:221|251:213,1,79.7500024337769
271,142,7822,2,0,P|235:138|171:146,1,79.7500024337769
147,217,8209,1,0,0:0:0:0:
179,298,8403,1,0,0:0:0:0:
239,234,8596,6,0,P|275:228|347:242,1,79.7500024337769
396,271,8984,1,0,0:0:0:0:
453,205,9177,1,0,0:0:0:0:
378,158,9371,2,0,L|354:54,1,79.7500024337769
274,59,9758,2,0,L|246:167,1,79.7500024337769
198,204,10145,6,0,B|233:239|233:239|106:248,1,159.500004867554,4|0,0:0|0:0,0:0:0:0:
67,179,10725,1,0,0:0:0:0:
44,264,10919,2,0,P|33:340|40:372,1,79.7500024337769
119,325,11306,2,0,P|126:288|123:245,1,79.7500024337769
67,179,11693,1,0,0:0:0:0:
123,246,11887,2,0,L|203:262,1,79.7500024337769
288,248,12274,1,0,0:0:0:0:
373,229,12467,6,0,L|397:177,3,39.8750012168885
423,164,12854,2,0,L|439:116,3,39.8750012168885
450,88,13242,5,4,0:0:0:0:
331,32,13532,1,0,0:0:0:0:
331,32,13629,2,0,L|259:36,1,72.5
294,115,14016,2,0,L|370:111,1,72.5
450,88,14403,1,0,0:0:0:0:
489,165,14596,5,0,0:0:0:0:
489,165,14693,1,0,0:0:0:0:
489,165,14790,2,0,B|493:209|493:209|465:241|473:281,1,108.75
477,311,15177,1,0,0:0:0:0:
390,318,15371,2,0,B|322:306|246:338,1,145
161,328,15951,5,0,0:0:0:0:
83,288,16145,1,0,0:0:0:0:
83,288,16242,1,0,0:0:0:0:
83,288,16338,2,0,B|71:216|71:216|83:136,1,145,4|0,0:0|0:0,0:0:0:0:
162,112,16919,2,0,P|230:124|310:104,1,145
384,75,17500,1,0,0:0:0:0:
455,124,17693,1,0,0:0:0:0:
410,199,17887,6,0,B|438:219|470:211|470:211|494:259,1,108.75
499,294,18274,1,0,0:0:0:0:
417,322,18467,2,0,P|377:330|321:314,1,72.5
273,277,18854,2,0,P|197:277|181:281,1,72.5
121,313,19242,1,0,0:0:0:0:
121,313,19338,1,0,0:0:0:0:
121,313,19435,6,0,B|69:301|41:317|41:317|17:293|37:229,1,145,4|0,0:0|0:0,0:0:0:0:
51,172,20016,2,0,P|83:180|115:236,1,72.5
196,209,20403,2,0,P|219:182|254:172,1,72.5
338,150,20790,1,0,0:0:0:0:
338,150,20887,1,0,0:0:0:0:
338,150,20984,6,0,B|322:222|322:222|346:282,1,108.75
367,284,21371,1,0,0:0:0:0:
405,206,21564,2,0,B|433:106|433:106|477:86,1,145
511,12,22145,1,0,0:0:0:0:
470,88,22338,1,0,0:0:0:0:
470,88,22435,1,0,0:0:0:0:
470,88,22532,6,0,B|393:102|305:78,1,145,4|0,0:0|0:0,0:0:0:0:
247,45,23113,2,0,B|259:149|259:149|231:209,1,145
176,242,23693,2,0,P|204:262|272:262,1,72.5
327,273,24080,5,4,0:0:0:0:
403,166,24371,1,0,0:0:0:0:
284,111,24661,2,0,P|220:119|136:103,1,145
75,47,25242,1,0,0:0:0:0:
65,133,25435,1,0,0:0:0:0:
132,188,25629,6,0,P|176:200|240:200,1,79.7500024337769,4|0,0:0|0:0,0:0:0:0:
292,252,26016,2,0,P|336:240|400:244,1,79.7500024337769
457,245,26403,1,0,0:0:0:0:
449,157,26596,1,0,0:0:0:0:
374,110,26790,2,0,L|350:22,1,79.7500024337769
285,88,27177,6,0,L|281:196,1,79.7500024337769
292,252,27564,1,0,0:0:0:0:
215,208,27758,1,0,0:0:0:0:
145,154,27951,2,0,P|157:106|137:46,1,79.7500024337769
64,72,28338,2,0,P|52:120|68:176,1,79.7500024337769
46,236,28725,5,0,0:0:0:0:
99,306,28919,1,0,0:0:0:0:
185,322,29113,2,0,L|273:322,1,79.7500024337769
302,242,29500,2,0,L|222:242,1,79.7500024337769
151,189,29887,1,0,0:0:0:0:
182,107,30080,1,0,0:0:0:0:
259,65,30274,6,0,B|283:101|283:101|327:129,1,79.7500024337769
397,92,30661,2,0,B|373:56|373:56|329:28,1,79.7500024337769
259,65,31048,2,0,B|283:101|283:101|327:129,1,79.7500024337769
374,183,31435,1,0,0:0:0:0:
439,241,31629,1,0,0:0:0:0:
465,315,31822,5,0,0:0:0:0:
465,315,32113,1,0,0:0:0:0:
339,294,32403,2,0,L|244:299,1,65.2499980087281
191,277,32790,1,0,0:0:0:0:
133,214,32984,2,0,P|145:186|140:137,1,65.2499980087281
103,77,33371,1,0,0:0:0:0:
103,77,33661,1,0,0:0:0:0:
227,52,33951,5,0,0:0:0:0:
291,107,34145,2,0,B|331:119|377:110,1,65.2499980087281
377,30,34532,2,0,B|337:22|282:30,1,65.2499980087281
227,52,34919,1,0,0:0:0:0:
227,52,35209,1,0,0:0:0:0:
110,103,35500,5,0,0:0:0:0:
149,178,35693,2,0,B|148:272|148:272,1,65.2499980087281
224,280,36080,2,0,L|224:203,1,65.2499980087281
224,128,36467,1,0,0:0:0:0:
376,200,36854,1,0,0:0:0:0:
312,44,37242,1,0,0:0:0:0:
376,200,37629,1,0,0:0:0:0:
216,148,38016,5,0,0:0:0:0:
452,56,38596,2,0,P|488:78|540:93,1,65.2499980087281
288,212,39371,1,0,0:0:0:0:
216,256,39564,2,0,L|111:251,2,97.8749970130921
288,212,40338,2,0,P|296:154|290:110,2,97.8749970130921
288,296,41113,1,0,0:0:0:0:
256,192,42274,5,0,0:0:0:0:
256,192,42467,1,0,0:0:0:0:
256,192,42661,12,4,44209,0:0:0:0:
147,110,45758,6,0,P|210:116|286:102,1,130.499996017456
434,45,46532,1,0,0:0:0:0:
443,214,46919,1,0,0:0:0:0:
284,273,47306,2,0,B|218:278|175:302|175:302,2,97.8749970130921,4|0|0,0:0|0:0|0:0,0:0:0:0:
447,100,48661,5,0,0:0:0:0:
447,100,48758,1,0,0:0:0:0:
447,100,48854,2,0,L|388:98,3,32.624999004364
376,78,49242,2,0,L|316:76,3,32.624999004364
311,104,49629,2,0,L|251:102,3,32.624999004364
246,75,50016,2,0,L|186:73,3,32.624999004364
170,73,50403,1,4,0:0:0:0:
116,280,51951,5,4,0:0:0:0:
280,320,52338,2,0,B|364:316|364:316|432:288,1,130.499996017456
468,140,53113,1,0,0:0:0:0:
328,236,53500,2,0,L|224:244,2,97.8749970130921,4|0|4,0:0|0:0|0:0,0:0:0:0:
404,272,54274,2,0,P|408:328|400:392,2,97.8749970130921
404,176,55048,1,4,0:0:0:0:
144,84,56209,1,0,0:0:0:0:
284,188,56596,6,0,L|372:200,1,79.7500024337769
432,132,56984,2,0,L|340:120,1,79.7500024337769
312,44,57371,2,0,L|404:56,1,79.7500024337769
432,132,57758,1,0,0:0:0:0:
452,216,57951,1,0,0:0:0:0:
376,260,58145,6,0,B|332:284|332:352,1,79.7500024337769
248,324,58532,2,0,P|236:280|200:240,1,79.7500024337769
128,248,58919,2,0,P|140:292|176:332,1,79.7500024337769
248,324,59306,1,0,0:0:0:0:
320,272,59500,1,0,0:0:0:0:
320,272,59596,1,0,0:0:0:0:
320,272,59693,6,0,B|288:204|308:156|308:156|344:180,1,159.500004867554
388,104,60274,2,0,P|420:132|440:188,1,79.7500024337769
388,238,60661,2,0,P|356:210|336:154,1,79.7500024337769
288,108,61048,1,0,0:0:0:0:
208,152,61242,2,0,P|160:144|56:164,2,119.625003650665
288,108,62016,1,0,0:0:0:0:
352,168,62209,6,0,P|336:208|328:268,1,79.7500024337769
312,328,62596,1,4,0:0:0:0:
392,296,62790,2,0,L|528:312,2,119.625003650665,4|0|4,0:0|0:0|0:0,0:0:0:0:
312,328,63564,2,0,B|244:308|172:344,2,119.625003650665
392,296,64338,2,0,B|396:260|396:260|384:216|384:216|396:148,2,119.625003650665,4|0|0,0:0|0:0|0:0,0:0:0:0:
312,328,65113,2,0,L|188:336,2,119.625003650665
388,300,65887,1,4,0:0:0:0:
140,100,66661,6,0,P|176:124|200:176,1,72.5
244,216,67048,1,0,0:0:0:0:
412,172,67435,1,4,0:0:0:0:
256,192,67532,12,0,70532,0:0:0:0:
96,104,71887,5,0,0:0:0:0:
168,152,72080,2,0,B|280:152|280:152|320:128,1,145
372,76,72661,1,0,0:0:0:0:
428,144,72854,2,0,B|456:204|416:240|416:240|376:212,1,145
240,112,73629,1,0,0:0:0:0:
240,112,73822,5,0,0:0:0:0:
184,180,74016,2,0,B|156:212|156:212|132:268,1,79.7500024337769
184,324,74403,2,0,P|220:328|284:316,1,79.7500024337769
220,246,74790,2,0,P|180:241|120:253,1,79.7500024337769
56,224,75177,1,0,0:0:0:0:
104,152,75371,1,0,0:0:0:0:
188,124,75564,6,0,L|284:132,1,79.7500024337769
312,56,75951,2,0,L|216:48,1,79.7500024337769
188,124,76338,1,0,0:0:0:0:
104,152,76532,1,0,0:0:0:0:
76,236,76725,6,0,B|88:272|88:272|80:316,1,79.7500024337769
168,312,77113,2,0,B|176:280|176:280|168:228,1,79.7500024337769
148,148,77500,1,0,0:0:0:0:
208,84,77693,1,0,0:0:0:0:
280,132,77887,6,0,P|356:132|392:124,1,79.7500024337769
368,44,78274,2,0,P|292:44|256:52,1,79.7500024337769
208,84,78661,1,0,0:0:0:0:
148,148,78854,1,0,0:0:0:0:
184,228,79048,6,0,L|232:240,3,39.8750012168885
252,272,79435,2,0,L|300:284,3,39.8750012168885
332,292,79822,1,0,0:0:0:0:
416,176,80113,1,0,0:0:0:0:
304,104,80403,2,0,P|228:112|176:100,1,108.75
72,144,80984,6,0,P|76:208|68:240,1,72.5
128,284,81371,2,0,B|196:292|196:292|260:276,1,108.75
220,152,81951,2,0,B|288:144|288:144|352:160,1,108.75
456,180,82532,2,0,P|440:220|404:260,1,72.5
343,283,82919,2,0,P|279:279|223:283,2,108.75
456,348,83790,5,0,0:0:0:0:
343,283,84080,2,0,L|336:368,1,72.5
256,324,84467,2,0,L|272:184,2,108.75,4|4|4,0:0|0:0|0:0,0:0:0:0:
84,348,85435,1,0,0:0:0:0:
256,192,85532,12,0,87177,0:0:0:0:
