osu file format v9

[General]
AudioFilename: Cassis.mp3
AudioLeadIn: 1500
PreviewTime: -1
Countdown: 1
SampleSet: Soft
StackLeniency: 0.7
Mode: 0
LetterboxInBreaks: 1
CountdownOffset: 3

[Editor]
DistanceSpacing: 0.8
BeatDivisor: 4
GridSize: 8

[Metadata]
Title:Cassis
Artist:Gazette
Creator:NAMOURJETAIME
Version:Bakka
Source:
Tags:

[Difficulty]
HPDrainRate:7
CircleSize:5
OverallDifficulty:6
ApproachRate:7
SliderMultiplier:3
SliderTickRate:1

[Events]
//Background and Video events
0,0,"the_gazette_6333.jpg"
//Break Periods
//Storyboard Layer 0 (Background)
//Storyboard Layer 1 (Fail)
//Storyboard Layer 2 (Pass)
//Storyboard Layer 3 (Foreground)
//Storyboard Sound Samples
//Background Colour Transformations
3,100,163,162,255

[TimingPoints]
470,588.29296989901,4,2,0,100,1,0

[Colours]
Combo1 : 151,29,182
Combo2 : 3,165,3
Combo3 : 5,5,240
Combo4 : 156,3,3

[HitObjects]
64,80,470,2,0,B|64:328|64:352|128:352|176:352|248:352|296:352|368:352|432:344|392:352,2,525
401,349,5617,2,0,B|416:56|416:40|272:64|48:80,2,600
64,56,11206,1,0
128,120,12235,1,0
232,192,13118,1,0
384,296,14147,1,0
408,96,15618,1,0
296,184,16353,1,0
144,280,17089,1,0
256,192,18265,12,0,18854
80,72,19295,5,0
168,80,19442,1,0
256,80,19589,1,0
336,80,19736,1,0
352,192,20030,1,0
264,192,20177,1,0
184,192,20324,1,0
104,192,20471,1,0
104,288,20913,5,0
192,288,21060,1,0
256,296,21207,1,0
352,296,21354,1,0
352,216,21942,5,0
352,136,22089,1,0
352,64,22236,1,0
280,64,22383,1,0
200,64,22530,1,0
120,64,22678,1,0
112,160,23413,5,0
112,240,23560,1,0
112,328,23707,1,0
224,320,24001,2,0,B|408:224|448:160|456:72|416:16|400:32|376:32|328:40|280:80|248:112|248:112|224:96|208:64|200:72|184:48|168:32|144:24|104:0|56:16|56:48|48:88|48:120|48:144|64:168|80:200|96:216|136:240|152:272|168:296|248:336|248:336|240:320,2,1125
232,336,28708,1,0
104,40,29884,2,0,B|440:40|432:40,2,300
256,192,31649,1,0
256,152,32237,1,0
256,112,32826,1,0
256,72,33414,1,0
48,280,34885,5,0
88,280,35179,1,2
256,192,36355,12,2,38120
144,80,38709,5,2
248,80,39297,1,2
344,80,39591,1,2
256,192,39885,1,2
344,200,40620,1,2
256,176,41062,1,2
176,144,41944,1,2
112,104,42238,1,2
72,56,42532,2,0,B|256:64|640:112|104:328|24:352,2,675
128,80,45621,1,2
232,80,45768,1,2
128,240,46209,5,0
168,240,46356,1,0
208,248,46503,1,0
248,256,46650,1,0
424,288,46945,6,0,B|352:56|80:48,2,450
248,184,49004,1,0
80,48,49298,2,0,B|24:352|56:352|72:352|112:360|128:352|176:352|128:176|160:56|232:224|232:232|240:264|240:304|240:328|328:360|344:352|368:320|344:272|336:200|360:112|432:120|448:144|472:184|480:200|480:232|432:392|464:336,1,975
320,352,52092,6,0,B|80:336|208:208|240:208|376:240|472:208|456:128|424:104|384:88|240:88|112:80,2,675
96,120,55475,1,0
152,120,55622,1,0
256,144,56063,1,0
72,224,56504,1,0
120,224,56651,1,0
160,224,56799,1,0
96,312,57093,1,0
160,312,57534,1,0
256,312,58122,5,0
296,312,58416,1,0
336,312,58711,1,0
48,72,59593,1,0
176,72,59887,1,0
336,72,60181,1,0
120,200,60770,1,0
296,192,61064,1,0
216,304,61652,1,0
168,304,61946,5,0
224,304,62240,1,0
240,184,62829,1,0
280,184,63270,1,0
320,184,63417,1,0
80,64,64005,1,0
176,56,64299,1,0
256,56,64446,1,0
288,56,64593,1,0
88,296,64888,6,0,B|448:312,1,300
440,216,66652,1,0
328,176,66947,1,0
216,120,67241,1,0
128,80,67829,1,0
56,64,68123,2,0,B|48:272,1,150
47,273,69300,1,0
448,48,70182,5,0
448,128,70476,1,0
448,208,70623,2,0,B|448:312|272:328,1,225
56,328,72830,5,0
96,320,73124,1,0
128,304,73271,1,0
160,288,73418,1,0
240,224,73712,1,0
264,184,73859,1,0
288,144,74006,1,0
320,104,74153,1,0
424,40,74447,2,0,B|416:344|400:352|400:352|304:64|304:64|272:368|264:360|208:24|192:16|184:16|168:16|40:64|48:96|48:280|48:280|48:280,2,1275
248,200,79889,5,0
304,96,80477,1,0
176,96,80771,1,0
168,272,81066,1,0
336,272,81360,1,0
264,192,81654,1,0
360,112,81948,1,0
456,40,82242,1,0
264,48,82536,1,0
88,48,82831,1,0
80,160,83125,1,0
96,288,83419,1,0
392,296,84007,5,0
400,64,84595,1,0
240,184,85184,1,0
56,56,85478,1,0
56,176,85772,1,0
64,280,86360,1,0
144,280,86654,1,0
224,280,86949,1,0
312,272,87243,1,0
416,280,87537,1,0
400,176,87978,5,0
400,144,88125,1,0
400,48,88419,1,0
240,56,88713,1,0
80,48,89008,1,0
80,168,89302,1,0
448,304,89890,1,0
328,296,90184,1,0
232,288,90478,1,0
96,288,90772,1,0
248,144,91067,5,0
56,48,91655,5,0
128,48,92096,1,0
160,48,92243,1,0
264,56,92537,1,0
352,64,92831,1,0
136,200,93420,1,0
176,208,93567,1,0
280,216,94008,1,0
432,56,94302,5,0
440,144,94596,2,0,B|448:320|192:328,2,300
88,272,96361,2,0,B|96:40|248:80|352:80|448:160|448:272,2,525
184,288,99009,1,0
96,336,99303,2,0,B|80:48|304:24|432:80|384:224|376:280,2,600
176,312,101950,1,0
256,296,102244,1,0
120,192,102832,1,0
200,192,103127,1,0
320,200,103862,2,0,B|464:184|472:120|432:56|392:48|264:48|168:72|120:80,2,450
248,192,105774,6,0,B|80:184|56:264|480:352|480:336|480:256|480:144,2,525
216,56,108421,1,0
256,56,108568,1,0
304,56,108715,1,0
432,48,108862,2,0,B|432:320|424:320|368:320|368:320|352:320|328:320|272:320|240:320|216:320|160:320|160:304|160:288|160:256|168:168,2,600
352,56,111657,1,0
256,56,111951,1,0
144,56,112245,1,0
144,56,112392,1,0
64,56,112539,2,0,B|368:264,2,300
160,48,114304,1,0
256,48,114598,1,0
352,40,114892,1,0
440,40,115187,6,0,B|144:256,2,300
376,96,117246,1,0
424,208,117540,1,0
464,312,117834,2,0,B|72:336|56:104|72:48|184:32|368:32,2,750
144,320,121364,2,0,B|152:104|232:88|336:328|336:328|200:288|208:288,2,525
192,80,123717,1,0
272,80,124011,1,0
352,80,124305,1,0
368,192,124599,2,0,B|224:192,2,75
228,192,126070,1,0
120,112,126658,1,0
192,104,126805,2,0,B|456:96|456:128|456:144|456:208|456:272|152:192|120:208|136:304|144:336|224:360|464:344,2,825
455,344,130776,6,0,B|288:176,1,225
72,64,131806,1,0
104,64,131953,1,0
152,64,132100,1,0
184,64,132247,1,0
272,56,132541,2,0,B|40:64|32:136|32:160|48:200|48:232|48:320|128:328|144:328|176:328|168:272|152:240|136:192|128:168|160:136|192:128|248:128|288:128|360:112|384:144|384:200|256:240|256:312|448:336,2,975
424,248,136953,1,0
320,216,137101,1,0
256,208,137248,2,0,B|160:360|40:336|24:232|24:144|32:64|120:40|200:32|272:24|376:32|456:112|456:184,2,825
344,184,140924,1,0
408,240,141072,1,0
424,320,141366,1,0
336,312,141513,1,0
288,312,141660,1,0
200,312,141807,1,0
152,312,141954,1,0
40,304,142101,2,0,B|40:16|216:-8|400:16|408:328|440:360,2,675
120,336,145484,1,0
112,280,145631,1,0
96,224,145778,2,0,B|320:384|344:384|352:360|352:328|344:272|336:232|336:48|232:56|184:56|96:232,2,750
160,200,149308,2,0,B|8:56|0:264|48:344|168:368|272:360|416:344|400:248|240:128,2,675
336,128,152837,1,0
400,96,152984,1,0
448,128,153132,2,0,B|464:320|256:320|128:248|32:16|272:48|304:88|408:344|376:352|176:352|104:352|104:296,2,750
344,152,156367,1,0
240,192,156955,1,0
384,192,157397,1,0
384,192,157544,5,0
384,192,157691,1,0
160,288,158132,1,0
192,288,158279,1,0
232,288,158426,1,0
144,184,158573,1,0
192,184,158720,1,0
224,184,158867,1,0
128,88,159309,1,0
160,88,159456,1,0
192,88,159603,1,0
112,208,160485,5,0
152,208,160632,1,0
192,208,160779,1,0
272,200,160926,1,0
312,200,161073,1,0
352,200,161221,1,0
256,192,162250,12,0,164309
128,144,165192,5,0
160,144,165339,1,0
192,144,165486,1,0
136,40,165780,1,0
184,40,165927,1,0
232,40,166074,1,0
400,56,166368,5,0
400,96,166515,1,0
400,128,166662,1,0
400,160,166809,1,0
400,192,166956,1,0
304,216,167251,1,0
296,152,167398,1,0
296,88,167545,1,0
304,32,167692,1,0
368,24,167839,1,0
440,56,168133,5,0
400,96,168280,1,0
368,136,168427,1,0
464,352,168868,1,0
424,320,169015,1,0
384,296,169163,1,0
40,40,169898,1,0
72,72,170045,1,0
96,96,170192,1,0
128,32,170339,1,0
152,64,170486,5,0
176,88,170633,1,0
80,192,170927,1,0
104,224,171074,1,0
128,256,171222,1,0
240,320,171516,1,0
272,296,171663,1,0
296,272,171810,1,0
208,184,172104,1,0
208,184,172251,1,0
360,184,172545,5,0
384,152,172692,1,0
384,152,172839,1,0
80,296,173428,1,0
168,296,173722,1,0
112,176,174016,1,0
152,176,174163,1,0
192,176,174310,1,0
224,176,174457,1,0
256,176,174604,1,0
416,64,174898,5,0
416,96,175045,1,0
416,136,175193,1,0
400,280,175781,1,0
320,280,176075,1,0
224,280,176369,1,0
72,264,176663,1,0
96,96,177546,1,0
136,96,177693,1,0
320,88,177987,5,0
352,88,178134,1,0
384,88,178281,1,0
256,192,178722,1,0
104,320,179016,1,0
136,320,179163,1,0
176,320,179311,1,0
400,288,179605,1,0
400,288,179752,1,0
384,80,180487,5,0
296,88,180781,1,0
264,88,180928,1,0
72,96,181370,1,0
80,256,181958,1,0
160,256,182252,1,0
304,256,183134,1,0
344,256,183282,1,0
384,256,183429,1,0
128,280,184017,2,0,B|104:104|264:48|432:48|432:104|456:232|440:296|416:336|296:368|216:368|152:368|112:312|128:240,2,825
208,248,188135,1,0
256,296,188429,6,0,B|440:304|456:224|424:192|240:160|240:112|416:72|440:48|336:32|224:40|64:56|136:128|280:128|304:160|312:184|296:200|256:208|176:200|80:160|72:152|88:104|128:72|144:56|192:104|184:208|152:256|152:296|144:320|136:336|128:352|72:352|56:344|48:328|32:288|32:272|32:256|40:240|48:216|48:144|48:120|48:88|48:80|48:80|72:48|96:32|160:32|216:24,2,1200
72,136,193724,5,0
104,136,193871,1,0
144,136,194018,1,0
64,248,194312,1,0
144,248,194459,1,0
176,248,194606,1,0
320,112,195194,1,0
256,104,195342,1,0
224,96,195489,1,0
56,64,195783,1,0
96,200,196371,5,0
96,200,196518,1,0
72,304,196812,1,0
104,304,196959,1,0
136,304,197106,1,0
176,304,197253,1,0
208,304,197401,1,0
240,304,197548,1,0
280,304,197695,1,0
320,304,197842,1,0
360,304,197989,1,0
400,304,198136,1,0
408,264,198283,1,0
408,224,198430,1,0
240,112,198724,5,0
184,112,198871,1,0
184,112,199018,1,0
80,112,199165,1,0
80,152,199313,1,0
80,184,199460,1,0
80,216,199607,1,0
80,256,199754,5,0
80,296,199901,1,0
120,296,200048,1,0
152,296,200195,1,0
184,296,200342,1,0
216,296,200489,6,0,B|400:152,1,225
408,128,201519,1,0
408,80,201666,1,0
328,80,202254,1,0
288,80,202695,1,0
248,80,202842,1,0
184,80,203431,1,0
144,80,203872,1,0
136,120,204019,1,0
136,120,204166,1,0
80,216,204607,5,0
112,216,204754,1,0
144,216,204901,1,0
176,216,205048,1,0
216,216,205343,1,0
248,224,205490,1,0
288,224,205637,1,0
464,272,206372,2,0,B|144:280,1,300
136,208,207254,1,2
168,208,207402,1,2
208,208,207549,2,0,B|456:192|344:48|224:56|64:72|24:168|48:264|88:312|120:312,2,600
256,192,210196,12,0,212255
104,264,212549,6,0,B|408:280|400:136|120:112|64:200|56:192|48:88|64:64|160:48|264:56|336:64|384:64|432:176|432:200|432:304|416:336|336:336|200:352,1,1050
256,328,214902,1,0
288,312,215196,1,0
312,296,215344,1,0
336,272,215491,1,0
360,248,215638,1,0
376,208,215785,1,0
384,160,215932,1,0
280,120,216373,1,0
184,96,216814,5,0
96,176,216961,1,0
80,264,217255,1,0
168,328,217403,1,0
264,328,217550,1,0
384,328,218285,1,0
392,296,218432,1,0
400,256,218579,1,0
304,312,218873,1,0
320,280,219020,1,0
336,248,219167,1,0
240,184,219903,5,0
88,80,221079,1,0
320,80,221962,1,0
416,256,222991,1,0
208,336,224168,1,0
136,240,225197,1,0
120,112,226521,1,0
160,112,226668,1,0
192,112,226815,1,0
376,120,227256,5,0
376,160,227404,1,0
408,296,228286,1,0
368,304,228433,1,0
328,312,228580,1,0
288,312,228727,1,0
248,312,228874,1,0
216,312,229021,1,0
176,312,229168,1,0
136,312,229315,1,0
96,312,229463,5,0
96,272,229610,1,0
120,240,229757,1,0
144,216,229904,1,0
168,200,230051,1,0
200,176,230198,1,0
224,160,230345,1,0
264,136,230492,1,0
304,120,230639,1,0
336,96,230786,1,0
376,72,230933,1,0
328,40,231080,1,0
280,48,231227,1,0
240,48,231374,1,0
200,48,231522,1,0
168,48,231669,1,0
168,48,231816,1,0
120,48,231963,1,0
96,144,232551,5,0
128,144,232698,1,0
152,176,232845,1,0
144,216,232992,1,0
144,256,233139,1,0
144,304,233286,1,0
160,336,233434,1,0
200,344,233581,1,0
248,352,233728,5,0
280,336,233875,1,0
296,312,234022,1,0
312,288,234169,1,0
336,264,234316,1,0
360,240,234463,1,0
376,216,234610,1,0
400,184,234757,1,0
432,176,234904,1,0
472,176,235051,1,0
472,136,235198,1,0
456,96,235345,5,0
448,56,235493,1,0
408,56,235640,1,0
376,56,235787,1,0
344,56,235934,1,0
312,56,236081,1,0
312,56,236228,1,0
272,56,236375,1,0
240,56,236522,1,0
128,64,237257,5,0
120,96,237404,1,0
128,136,237552,1,0
128,168,237699,1,0
128,200,237846,1,0
128,232,237993,1,0
128,264,238140,1,0
120,296,238287,1,0
120,336,238434,1,0
120,296,238581,1,0
128,264,238728,1,0
128,232,238875,1,0
128,200,239022,1,0
128,168,239169,1,0
128,136,239316,1,0
128,104,239464,1,0
128,72,239611,1,0
160,72,239758,1,0
192,96,239905,1,0
208,128,240052,1,0
224,160,240199,1,0
232,192,240346,1,0
160,216,240787,5,0
224,264,240934,1,0
304,216,241081,1,0
344,152,241375,5,0
384,96,241523,1,0
416,64,241670,1,0
456,48,241817,1,0
456,96,241964,1,0
456,136,242111,1,0
456,168,242258,1,0
456,208,242405,1,0
456,256,242552,1,0
448,296,242699,1,0
400,304,242846,1,0
368,304,242993,1,0
328,304,243140,1,0
296,304,243287,1,0
264,304,243434,1,0
224,304,243582,1,0
192,304,243729,2,0,B|40:304,1,150
56,224,244611,5,0
80,192,244758,1,0
104,168,244905,1,0
136,144,245052,1,0
160,120,245199,1,0
192,96,245346,1,0
216,72,245494,1,0
248,64,245641,1,0
280,64,245788,1,0
312,64,245935,1,0
344,64,246082,1,0
376,64,246229,1,0
416,72,246376,6,0,B|456:200|424:312|296:320|128:344|64:336|56:240|56:184|360:80,1,825
416,56,248582,1,0
416,32,248729,2,0,B|48:56|40:312|264:256|320:184|432:256|408:312|304:328|88:336|56:312|32:248|40:224|48:200|48:152|48:112|48:72|88:40|192:32|224:32|304:88|304:88,1,1125
248,72,251376,1,0
168,40,251524,1,0
48,40,252406,1,0
64,64,252553,1,0
80,96,252700,1,0
168,40,252994,1,0
184,72,253141,1,0
200,104,253288,1,0
80,176,253583,5,0
96,208,253730,1,0
112,240,253877,1,0
168,160,254171,1,0
184,192,254318,1,0
200,216,254465,1,0
248,120,254759,1,0
272,152,254906,1,0
288,176,255053,1,0
336,88,255789,5,0
360,112,255936,1,0
392,136,256083,1,0
264,112,256377,1,0
288,136,256524,1,0
304,160,256671,1,0
192,136,256965,1,0
208,160,257112,1,0
224,184,257259,1,0
128,152,257554,5,0
144,184,257701,1,0
160,208,257848,1,0
56,168,258142,1,0
64,200,258289,1,0
72,232,258436,1,0
160,208,259171,1,0
184,192,259318,1,0
200,168,259465,1,0
208,136,259613,1,0
216,104,259760,1,0
80,72,260494,5,0
112,72,260641,1,0
144,72,260789,1,0
184,72,260936,1,0
216,72,261083,1,0
248,72,261230,1,0
280,72,261377,1,0
320,72,261524,1,0
336,152,261966,1,0
336,184,262113,1,0
336,216,262260,1,0
256,232,263142,5,0
216,232,263289,1,0
176,232,263436,1,0
176,160,264172,1,0
208,160,264319,1,0
240,160,264466,1,0
248,88,265201,1,0
216,88,265348,1,0
184,88,265495,1,0
168,168,266084,1,0
200,168,266231,1,0
232,168,266378,1,0
256,192,266966,12,0,268143
256,80,268584,5,0
256,128,268731,1,0
256,168,268878,1,0
256,192,269025,12,0,269614
96,40,269908,5,0
128,40,270055,1,0
160,40,270202,1,0
88,128,270790,1,0
120,128,270937,1,0
160,128,271084,1,0
168,208,271673,1,0
128,208,271820,1,0
88,208,271967,1,0
80,288,272261,1,0
120,288,272408,1,0
160,288,272555,1,0
240,288,273290,5,0
264,264,273437,1,0
288,240,273585,1,0
352,168,274026,1,0
368,144,274173,1,0
384,112,274320,1,0
352,80,274467,1,0
232,72,274614,5,0
200,72,274908,1,0
152,72,275202,1,0
248,176,275791,1,0
168,256,276085,1,0
208,256,276232,1,0
240,264,276379,1,0
240,264,276967,2,0,B|448:128|456:104|448:48|448:40|440:24|416:24|368:8|360:8|328:24|296:32|288:32|264:56|264:80|256:96|248:112|232:104|224:96|224:96|216:80|208:72|208:64|208:56|192:48|184:40|176:32|160:24|152:16|136:16|128:16|112:16|80:16|72:16|64:16|56:24|32:64|32:80|32:104|24:112|24:128|32:144|40:160|48:168|56:176|72:184|80:200|120:216|152:232|168:240|192:248|232:264|240:272|240:272,1,1050
184,248,279467,1,0
216,248,279615,1,0
248,256,279762,1,0
176,168,280497,5,0
208,168,280791,1,0
240,168,281085,1,0
176,80,281674,1,0
208,80,281968,1,0
240,80,282262,1,0
240,152,282850,1,0
240,184,282997,1,0
240,216,283144,1,0
240,288,283733,1,0
272,288,283880,1,0
312,288,284027,1,0
416,280,284468,5,0
416,248,284615,1,0
416,208,284762,1,0
416,80,285203,1,0
384,80,285350,1,0
352,80,285497,1,0
320,80,285645,1,0
288,80,285792,1,0
248,80,285939,1,0
256,192,286233,12,0,288292
384,320,288586,6,0,B|456:216|424:64|296:16|176:8|96:56|48:152|56:240|104:320|128:344|208:360|264:360|352:352|416:304|416:280|416:272,1,900
64,72,290792,2,0,B|56:328|88:328|112:312|240:104|248:96|256:80|256:72|376:336|376:336|408:352|448:72,1,975
408,64,293145,2,0,B|376:312|264:64|128:48|48:224|72:288|152:304|160:304|264:304|336:296|432:288|192:32|56:16|48:72|48:120|32:200|48:328|56:336,2,975
112,152,297410,1,8
144,152,297557,1,8
184,152,297705,1,8
216,152,297852,1,8
288,152,298146,2,8,B|424:160|472:160|464:280|464:320|416:336|368:344|152:336|136:336|128:336,1,525
208,328,300058,2,8,B|32:328|8:264|24:160|48:64|56:64|160:72|272:88|320:96,1,600
344,120,301528,5,8
368,144,301676,1,8
400,168,301823,1,8
256,152,302117,1,8
280,184,302264,1,8
304,208,302411,1,8
192,176,302705,1,8
208,208,302852,1,8
232,240,302999,1,8
112,192,303293,1,8
128,232,303440,1,8
152,264,303587,1,8
184,304,303882,5,8
216,304,304029,1,8
248,312,304176,1,8
320,312,304470,1,8
352,312,304617,1,8
384,312,304764,1,8
384,232,304911,1,8
384,200,305058,1,8
384,160,305205,1,8
392,64,305646,5,8
352,64,305794,1,8
320,64,305941,1,8
240,56,306235,1,8
208,56,306382,2,8,B|128:56,1,75
88,56,306823,1,8
136,128,307558,5,8
208,184,308147,1,8
296,264,308735,1,8
392,288,309323,1,8
384,168,309765,1,8
224,256,310206,1,8
88,88,312265,1,8
152,184,313147,1,8
224,256,314030,1,8
336,176,314912,1,8
400,96,315647,1,8
152,72,316530,1,8
112,208,317118,6,8,B|200:352|288:360|408:336|432:240|432:208|448:168|560:400|264:56|120:48|40:112|80:56|152:48|208:40|336:40|416:40|424:48|440:64|464:104|464:144|472:192|480:248|480:240,2,1050
312,56,321677,1,8
336,80,321825,1,8
352,104,321972,1,8
240,80,322266,1,8
256,112,322413,1,8
280,136,322560,1,8
160,104,322707,1,8
176,136,322854,1,8
192,168,323001,1,8
256,192,324031,12,8,326825
152,128,328149,5,8
224,136,328443,1,8
256,144,328590,1,8
72,96,329031,1,8
72,168,329178,1,8
72,168,329325,1,8
80,272,329472,1,8
184,80,329914,1,8
184,160,330061,1,8
184,160,330208,1,8
192,240,330355,1,8
104,248,331090,5,8
160,232,331678,1,8
232,208,332267,1,8
64,80,334620,1,8
128,72,334767,1,8
128,72,334914,1,8
192,72,335061,1,8
64,160,335355,1,8
136,160,335502,1,8
136,160,335649,1,8
192,160,335796,1,8
200,264,336385,5,8
136,264,336532,1,8
136,264,336679,1,8
56,264,336826,1,8
304,256,337414,1,0
304,176,337561,1,0
304,176,337708,1,0
296,104,337856,1,0
184,144,338591,1,0
96,232,340062,5,0
200,256,340650,1,0
288,224,341974,1,0
352,160,342856,1,0
320,160,343003,1,0
288,160,343150,1,0
256,160,343297,1,0
256,160,343444,1,0
224,160,343591,1,0
224,160,343738,1,0
192,160,343886,1,0
192,160,344033,5,0
160,160,344180,1,0
160,160,344327,1,0
160,256,344621,5,0
192,256,344768,1,0
232,264,344915,1,0
336,192,345209,1,0
256,192,345503,12,0,348151
112,192,348592,5,0
160,192,348739,1,0
200,192,348886,1,0
120,280,349327,1,0
192,280,349621,1,0
104,120,350504,1,0
184,120,350798,1,0
336,88,351386,1,0
336,128,351533,1,0
336,160,351680,1,0
328,272,351975,1,0
240,264,352269,5,0
200,264,352416,1,0
160,264,352563,1,0
240,192,352857,1,0
208,192,353004,1,0
176,192,353151,1,0
240,112,353739,1,0
208,112,353887,1,0
168,112,354034,2,0,B|16:112,1,150
48,184,354769,1,0
80,224,354916,1,0
104,256,355063,1,0
120,288,355210,6,0,B|216:368|208:360|176:336,1,75
177,335,355504,2,0,B|336:344|336:352,1,150
392,336,356093,1,0
400,264,356240,1,0
400,264,356387,1,0
256,192,356828,12,0,360505
80,56,361093,5,0
112,56,361240,1,0
152,56,361387,1,0
192,56,361534,1,0
240,56,361681,1,0
280,56,361828,1,0
344,56,362123,1,0
392,56,362270,1,0
424,56,362417,1,0
456,56,362564,1,0
448,96,362711,1,0
432,128,362858,1,0
408,160,363005,1,0
376,200,363152,1,0
352,224,363299,1,0
328,256,363446,1,0
296,232,363593,1,0
272,208,363740,1,0
248,184,363887,1,0
224,160,364035,1,0
200,144,364182,1,0
176,120,364329,1,0
144,96,364476,1,0
112,72,364623,1,0
80,184,365064,1,0
80,240,365211,1,0
80,240,365358,1,0
192,240,365799,1,0
256,240,365947,1,0
256,240,366094,1,0
256,192,366388,12,0,369917
80,80,371094,5,2
112,80,371241,1,2
128,120,371388,1,2
128,152,371535,1,2
120,184,371682,1,2
120,232,371829,1,2
120,272,371977,1,2
128,304,372124,1,2
176,312,372271,1,2
208,320,372418,1,2
248,328,372565,5,2
288,328,372712,1,2
320,336,372859,1,2
352,328,373006,1,2
360,296,373153,1,2
368,264,373300,1,2
368,232,373447,1,2
368,200,373594,1,2
376,168,373741,5,2
376,136,373888,1,2
376,104,374036,1,2
376,72,374183,1,2
376,40,374330,1,2
328,32,374477,1,2
296,32,374624,5,2
256,32,374771,1,2
216,32,374918,1,2
184,32,375065,1,2
152,32,375212,1,2
152,160,375800,1,0
200,160,376095,1,0
200,160,376242,1,0
256,192,377124,12,0,381683
