osu file format v5

[General]
AudioFilename: 01.mp3
AudioLeadIn: 0
PreviewTime: -1
Countdown: 2
SampleSet: Normal
StackLeniency: 0.7
Mode: 0
LetterboxInBreaks: 1
EditorBookmarks: 165911

[Metadata]
Title:Guren
Artist:GazettE
Creator:uzushika
Version:Hard
Source:
Tags:

[Difficulty]
HPDrainRate:6
CircleSize:5
OverallDifficulty:7
SliderMultiplier:1.3
SliderTickRate:2

[Events]
//Background and Video events
0,0,"the_Gazette_Wallpaper.jpg"
//Break Periods
2,34463,43652
//Storyboard Layer 0 (Background)
//Storyboard Layer 1 (Failing)
//Storyboard Layer 2 (Passing)
//Storyboard Layer 3 (Foreground)
//Storyboard Sound Samples
//Background Colour Transformations
3,100,0,0,0

[TimingPoints]
14537,352.941176470588,4,1,0,100

[Colours]
Combo1 : 83,83,83
Combo2 : 2,104,2
Combo3 : 2,2,91
Combo4 : 98,2,2
Combo5 : 98,58,0

[HitObjects]
480,64,14537,6,4,L|480:160,2,65
320,64,15242,1,0
320,192,15595,1,0
256,192,15772,1,0
256,128,15948,1,0
192,128,16125,1,0
128,128,16301,1,0
128,256,16654,1,2
64,320,17360,6,0,L|256:320,1,130
320,320,18066,2,2,L|512:320,1,130
448,256,18595,1,0
384,256,18772,1,0
384,192,18948,1,0
320,192,19125,1,0
320,64,19478,2,2,L|128:64,1,130
64,64,20184,6,4,L|64:224,2,130
320,192,21595,2,2,L|320:288,2,64.9999999999999
192,128,22301,2,0,L|352:128,1,130
192,192,23007,2,0,L|288:192,1,64.9999999999999
320,192,23360,2,0,L|416:192,1,64.9999999999999
448,192,23713,2,0,L|448:32,1,130
320,64,24419,5,0
192,64,24772,1,0
64,64,25125,2,0,L|64:160,2,64.9999999999999
64,256,25831,5,0
320,256,26536,1,0
448,256,26889,1,0
448,192,27066,1,0
448,128,27242,1,0
448,64,27419,1,0
384,64,27595,1,0
256,64,27948,1,0
64,32,28654,5,0
64,288,29360,1,0
192,288,29713,1,0
256,288,29889,1,0
256,224,30066,1,0
256,160,30242,1,0
256,96,30419,1,0
384,96,30772,1,4
480,320,31478,6,2,L|320:320,1,130
224,320,32184,2,0,L|64:320,1,130
96,192,32889,1,0
96,64,33242,1,0
224,64,33595,1,0
224,192,33948,2,4,L|384:192,1,130
448,64,44889,6,2,L|448:224,2,130
320,64,45948,1,0
256,64,46125,2,0,L|64:64,2,130
64,288,47713,5,0
192,288,48066,1,0
320,288,48419,1,0
192,224,48772,1,0
256,224,48948,2,0,L|448:224,3,130
448,64,50889,5,0
448,192,51242,1,0
448,320,51595,1,0
448,256,51772,2,0,L|96:256,1,325
32,128,53007,6,0,L|32:320,1,130
160,256,53713,2,0,L|256:256,1,65
288,256,54066,1,0
416,256,54419,1,0
352,256,54595,2,4,L|352:32,1,195
448,64,56536,5,4
320,64,56889,1,0
448,128,57242,1,0
448,192,57419,2,4,L|256:192,3,130
448,320,59007,1,0
320,320,59360,1,0
192,320,59713,1,0
320,256,60066,1,0
320,192,60242,2,4,L|96:192,1,195
32,64,62184,5,2
160,64,62536,1,0
96,160,62889,1,2
224,160,63242,1,0
288,64,63595,1,2
352,160,63948,1,0
288,256,64301,1,2
160,256,64654,1,0
32,256,65007,1,2
160,256,65360,1,0
224,160,65713,1,2
352,160,66066,1,0
224,256,66419,1,0
288,256,66595,2,0,L|288:32,1,195
224,64,67301,2,0,L|384:64,1,130
352,128,67831,1,0
416,32,68184,6,0,B|480:64|544:160|544:256|512:288|480:288,1,260
448,320,69242,2,0,B|352:320,3,65
192,320,70301,1,0
64,320,70654,1,0
64,192,71007,2,0,B|64:96,1,65
64,64,71360,1,0
128,64,71536,2,0,B|352:64,1,195
64,160,72772,5,0
128,64,73125,1,0
256,64,73478,1,0
384,64,73831,2,0,B|384:224,1,130
384,320,74536,1,0
256,320,74889,1,0
256,256,75066,2,4,B|32:256,1,195
64,128,75948,1,0
192,128,76301,1,0
320,128,76654,5,0
448,128,77007,1,0
448,256,77360,1,0
320,256,77713,2,4,B|32:256,1,260
64,32,79125,5,0
64,160,79478,2,2,B|256:160,1,130
320,160,80184,1,0
448,160,80536,1,0
448,96,80713,2,0,B|448:0,2,65
448,288,81595,5,0
320,288,81948,1,0
320,160,82301,1,0
224,224,82654,1,0
96,224,83007,1,0
96,96,83360,1,0
160,96,83536,2,2,B|288:96,1,65
352,96,84066,1,0
448,224,85125,6,4,B|288:224,1,130
448,288,85831,2,2,B|288:288,1,130
192,288,86536,2,4,B|192:128,3,130
192,32,87948,2,2,B|52:32,2,130
192,160,89007,2,0,B|480:160,1,260
448,288,90066,5,0
320,224,90419,1,0
320,96,90772,2,4,B|128:96,1,130
64,96,91478,2,0,B|64:192,1,65
64,224,91831,2,0,B|64:319,4,65
192,288,92889,1,0
320,288,93242,1,0
320,160,93595,2,2,B|480:160,1,130
448,96,94125,1,0
256,96,94654,1,2
32,64,95713,5,0
160,64,96066,2,0,B|160:160,1,65
160,256,96595,2,4,B|320:256,1,130
352,256,97125,1,0
352,128,97478,1,0
288,128,97654,1,0
160,128,98007,2,0,B|64:128,1,65
96,256,98536,1,0
224,256,98889,1,0
352,256,99242,1,0
352,128,99595,1,0
288,128,99772,2,2,B|448:128,1,130
416,64,100301,2,4,B|128:64,1,260
32,64,101360,6,0,B|32:192,1,65
32,192,101713,2,0,B|128:192,1,65
160,192,102066,2,4,B|320:192,1,130
352,320,102772,2,2,B|352:128,1,130
352,64,103478,2,2,B|192:64,1,130
160,64,104007,1,4
160,192,104360,1,4
224,192,104536,1,0
288,64,104889,2,0,B|288:224,1,130
288,256,105419,2,0,B|128:256,1,130
96,256,105948,1,0
32,64,107007,5,0
160,64,107360,1,0
160,128,107536,1,0
320,128,107889,2,2,B|320:256,1,65
160,192,108419,5,0
288,192,108772,1,0
288,256,108948,1,0
416,192,109301,2,2,B|416:320,1,65
288,192,109831,5,0
288,64,110184,1,0
160,64,110536,2,0,B|0:64,1,130
160,64,111242,2,4,B|160:352,1,260
448,320,113360,5,2
320,320,113713,1,0
320,192,114066,1,2
448,192,114419,1,0
320,256,114772,1,2
320,128,115125,1,0
448,256,115478,1,2
320,256,115831,1,0
256,256,116007,2,0,B|224:288|192:320|128:320|64:288|32:224|32:192|64:64|96:32|128:32|448:32,1,715
64,64,119007,5,0
192,64,119360,1,2
320,64,119713,1,0
192,128,120066,1,2
64,128,120419,1,0
192,128,120772,1,2
320,128,121125,1,0
448,128,121477,1,0
448,192,121654,2,0,B|448:320,9,65
256,192,125007,5,2
384,192,125360,1,4
256,128,125713,1,2
128,192,126066,1,4
256,192,126419,1,2
384,192,126772,1,4
256,256,127125,1,2
192,256,127301,2,0,B|192:64,1,130
416,64,129595,5,0
416,192,129948,2,2,B|320:192,1,65
224,192,130478,2,2,B|224:320,1,65
352,256,131007,1,0
352,128,131360,1,0
288,128,131536,1,0
288,192,131889,2,4,B|448:192,1,130
480,192,132419,1,0
480,320,132772,1,0
448,64,133125,5,4
448,64,133478,1,4
320,64,133831,1,4
320,64,134184,1,4
320,192,134536,1,4
320,192,134889,1,4
192,192,135242,5,0
192,192,135595,1,0
128,192,135772,2,0,B|128:352,1,130
192,320,136301,1,0
320,320,136654,5,0
448,320,137007,1,0
448,256,137184,1,0
448,32,137713,1,0
448,160,138066,1,0
448,256,138419,1,0
384,256,138595,2,2,B|32:256,1,325
64,128,139831,2,4,B|352:128,1,260
448,128,140889,6,4,B|448:288,3,130
320,256,142301,2,0,B|160:256,1,130
192,128,143007,2,2,B|96:32,1,130
96,128,143713,6,2,B|256:128,1,130
352,128,144419,1,0
352,256,144772,2,4,B|160:256,2,130
96,96,146536,5,0
224,96,146889,2,0,B|320:96,1,65
416,96,147419,1,0
432,224,147948,5,0
320,224,148301,1,0
256,224,148478,1,0
128,224,148831,2,2,B|0:224,1,65
64,352,149360,5,0
192,352,149713,1,0
320,352,150066,1,0
320,224,150419,2,0,B|320:128,1,65
192,96,150948,2,4,B|448:96,1,195
480,352,152184,5,0
352,352,152536,1,0
224,288,152889,2,2,B|416:288,1,130
352,160,153595,2,2,B|192:160,1,130
96,160,154301,2,2,B|96:320,1,130
160,288,154831,2,4,B|160:128,1,130
224,160,155360,1,0
224,32,155713,1,0
416,32,156242,1,0
224,32,156772,2,2,B|224:320,1,260
96,288,157831,5,0
224,288,158184,1,0
288,288,158360,1,0
416,224,158713,2,4,B|256:224,1,130
224,224,159242,5,0
352,160,159595,1,0
288,160,159772,1,0
160,160,160125,2,2,B|160:288,1,65
256,192,160772,12,0,165948
