osu file format v12

[General]
AudioFilename: Gavin G - Refresh cut.mp3
AudioLeadIn: 0
PreviewTime: 38608
Countdown: 0
SampleSet: Normal
StackLeniency: 0.7
Mode: 0
LetterboxInBreaks: 0

[Editor]
Bookmarks: 3755,16108,27402,38696,49991,61285,72579,83873
DistanceSpacing: 1
BeatDivisor: 4
GridSize: 4

[Metadata]
Title:Refresh
TitleUnicode:Refresh
Artist:Gavin G
ArtistUnicode:Gavin G
Creator:senaya
Version:Mid
Source:
Tags:dnb
BeatmapID:169833
BeatmapSetID:55968

[Difficulty]
HPDrainRate:4
CircleSize:4
OverallDifficulty:5
ApproachRate:6
SliderMultiplier:1
SliderTickRate:1

[Events]
//Background and Video events
0,0,"testbg4.jpg",0,0
//Break Periods
2,16303,26348
//Storyboard Layer 0 (Background)
//Storyboard Layer 1 (Fail)
//Storyboard Layer 2 (Pass)
//Storyboard Layer 3 (Foreground)
//Storyboard Sound Samples
//Background Colour Transformations
3,100,0,0,0

[TimingPoints]
3398.81818181818,352.941176470588,4,2,0,50,1,0
4987,-100,4,2,1,50,0,0
14604,-100,4,1,0,50,0,0
14957,-100,4,2,1,50,0,0
15928,-100,4,1,1,50,0,0
27398,-133.333333333333,4,2,0,30,0,0
38604,-100,4,1,0,30,0,0
38692,-100,4,1,0,45,0,1
38781,-100,4,2,1,50,0,1
49898,-100,4,1,0,60,0,1
50075,-100,4,2,1,50,0,1
61192,-100,4,2,0,50,0,0
61281,-100,4,1,0,45,0,1
61369,-100,4,2,1,50,0,0
72487,-100,4,1,0,60,0,0
72663,-100,4,2,1,50,0,0
83825,-100,4,1,0,50,0,0

[Colours]
Combo1 : 87,201,3
Combo2 : 255,80,0
Combo3 : 46,180,252
Combo4 : 251,68,68

[HitObjects]
256,192,3751,12,4,4810,0:0:0:0:
152,140,5163,21,4,0:0:0:0:
244,104,5516,2,0,B|272:24,2,50,2|4|0,0:0|0:0|0:0,0:0:0:0:
224,200,6222,2,0,B|210:290|248:332,1,100,2|4,0:0|0:0,0:0:0:0:
236,324,6751,1,0,0:0:0:0:
316,264,7104,2,0,B|392:220|480:236,1,150,4|0,0:0|0:0,0:0:0:0:
420,140,7987,5,4,0:0:0:0:
324,112,8339,2,0,B|316:32,2,50,2|4|0,0:0|0:0|0:0,0:0:0:0:
344,212,9045,2,0,B|280:216|240:288,1,100,2|4,0:0|0:0,0:0:0:0:
244,280,9575,1,0,0:0:0:0:
164,224,9928,2,0,B|96:180,1,50,4|0,0:0|0:0,0:0:0:0:
68,116,10457,6,0,B|36:40,2,50,2|0|4,0:0|0:0|0:0,0:0:0:0:
164,88,11163,2,0,B|208:52|208:28,2,50,2|4|0,0:0|0:0|0:0,0:0:0:0:
228,168,11869,2,0,B|304:200|368:168,1,100,2|4,0:0|0:0,0:0:0:0:
348,176,12398,1,0,0:0:0:0:
448,160,12751,2,0,B|468:220,1,50,4|0,0:0|0:0,0:0:0:0:
472,308,13281,6,0,B|500:364,2,50,2|0|4,0:0|0:0|0:0,0:0:0:0:
380,268,13987,2,0,B|392:204,2,50,2|4|0,0:0|0:0|0:0,0:0:0:0:
376,368,14692,2,0,B|260:336,1,100,4|8,0:0|0:0,0:0:0:0:
192,296,15398,2,0,B|216:184|128:116,1,200,0|4,0:0|0:0,0:0:0:0:
400,176,27398,6,0,B|416:244|360:292,1,112.500004291535,2|0,0:0|0:0,0:0:0:0:
260,296,28457,2,0,B|244:232|292:188,1,112.500004291535,2|0,0:0|0:0,0:0:0:0:
316,84,29516,2,2,B|216:52,1,75.0000028610231
172,72,30222,2,0,B|112:104|112:168,1,112.500004291535,2|0,0:0|0:0,0:0:0:0:
172,256,31281,2,0,B|232:224|232:160,1,112.500004291535,2|0,0:0|0:0,0:0:0:0:
252,56,32339,2,2,B|344:84,1,75.0000028610231
388,120,33045,6,0,B|444:160|448:224,2,112.500004291535,2|0|2,0:0|0:0|0:0,0:0:0:0:
336,220,34634,2,0,B|320:332,1,112.500004291535,0|2,0:0|0:0,0:0:0:0:
252,364,35516,1,2,0:0:0:0:
184,336,35869,2,0,B|204:196,1,112.500004291535,2|0,0:0|0:0,0:0:0:0:
292,160,36928,2,0,P|291:119|276:80,1,75.0000028610231,2|0,0:0|0:0,0:0:0:0:
228,36,37634,1,8,0:0:0:0:
156,52,37987,1,2,0:0:0:0:
156,88,38163,1,0,0:0:0:0:
168,124,38339,1,0,0:0:0:0:
192,220,38692,6,0,B|144:240|80:228,1,100,4|4,0:0|0:0,0:0:0:0:
16,172,39398,2,0,B|-8:124|4:36,2,100,2|2|0,0:0|0:0|0:0,0:0:0:0:
8,272,40457,1,4,0:0:0:0:
104,296,40810,2,0,B|164:336,2,50,2|4|2,0:0|0:0|0:0,0:0:0:0:
140,204,41516,6,0,B|172:156|248:144,1,100,2|4,0:0|0:0,0:0:0:0:
308,100,42222,2,0,B|332:32,2,50,0|4|2,0:0|0:0|0:0,0:0:0:0:
308,200,42928,2,4,B|336:244|392:260,1,100,2|4,0:0|0:0,0:0:0:0:
476,304,43634,2,2,B|504:260|480:192,2,100
384,348,44692,6,4,B|308:376|224:344,1,150
216,340,45398,2,0,B|176:212,1,100,2|0,0:0|0:0,0:0:0:0:
100,300,46104,1,4,0:0:0:0:
100,200,46457,2,2,B|91:145|40:84,2,100
196,228,47516,6,4,B|260:184|376:172,1,150
360,176,48222,1,2,0:0:0:0:
460,168,48575,2,0,B|497:131|492:52,1,100,0|4,0:0|0:0,0:0:0:0:
392,80,49281,2,0,B|352:28,2,50,0|4|0,0:0|0:0|0:0,0:0:0:0:
360,176,49987,6,0,B|345:227|380:284,1,100,4|4,0:0|0:0,0:0:0:0:
284,316,50692,2,2,B|286:268|252:220,1,100
256,124,51398,2,0,B|209:99|148:120,1,100,0|4,0:0|0:0,0:0:0:0:
60,136,52104,2,0,B|20:80,2,50,2|4|2,0:0|0:0|0:0,0:0:0:0:
124,212,52810,6,0,B|127:276|104:336,1,100,2|4,0:0|0:0,0:0:0:0:
212,312,53516,2,0,B|256:336|328:336,2,100,0|2|2,0:0|0:0|0:0,0:0:0:0:
216,212,54575,1,4,0:0:0:0:
256,120,54928,2,0,B|237:75|180:48,2,100,2|2|2,0:0|0:0|0:0,0:0:0:0:
320,196,55987,5,4,0:0:0:0:
364,104,56339,2,0,B|396:40,2,50,0|4|2,0:0|0:0|0:0,0:0:0:0:
424,184,57045,2,0,B|463:230|448:308,1,100,0|4,0:0|0:0,0:0:0:0:
368,332,57751,2,0,B|328:285|344:208,1,100,2|2,0:0|0:0,0:0:0:0:
320,140,58457,2,0,B|252:88|144:128,2,150,2|2|2,0:0|0:0|0:0,0:0:0:0:
256,192,59869,12,4,61281,0:0:0:0:
140,300,61634,6,4,B|88:240|100:160,1,150
108,136,62339,2,0,B|312:112,1,200,2|4,0:0|0:0,0:0:0:0:
404,100,63398,2,0,B|448:32,2,50,2|4|2,0:0|0:0|0:0,0:0:0:0:
360,188,64104,6,0,B|363:248|400:296,1,100,2|4,0:0|0:0,0:0:0:0:
460,352,64810,2,0,B|508:328,2,50,0|4|2,0:0|0:0|0:0,0:0:0:0:
360,364,65516,2,0,B|300:372|232:340,1,100,2|4,0:0|0:0,0:0:0:0:
172,300,66222,2,0,B|104:328,1,50,2|4,0:0|0:0,0:0:0:0:
72,228,66751,2,0,B|136:200,1,50,0|2,0:0|0:0,0:0:0:0:
192,140,67281,5,4,0:0:0:0:
280,188,67634,2,0,B|307:236|312:312,1,100,2|2,0:0|0:0,0:0:0:0:
388,224,68339,2,0,B|382:171|416:100,1,100,0|4,0:0|0:0,0:0:0:0:
320,72,69045,2,0,B|260:36,2,50,2|4|2,0:0|0:0|0:0,0:0:0:0:
288,168,69751,6,2,B|244:204|244:264,1,100,2|4,0:0|0:0,0:0:0:0:
248,280,70281,1,2,0:0:0:0:
156,316,70634,2,0,B|68:336,1,50,4|0,0:0|0:0,0:0:0:0:
92,228,71163,2,0,B|95:150|56:92,1,100,0|4,0:0|0:0,0:0:0:0:
152,64,71869,2,0,B|196:24,2,50,2|4|2,0:0|0:0|0:0,0:0:0:0:
180,160,72575,6,0,B|216:216|208:264,1,100,4|4,0:0|0:0,0:0:0:0:
204,356,73281,2,0,B|128:368,2,50,0|4|0,0:0|0:0|0:0,0:0:0:0:
292,308,73987,1,2,0:0:0:0:
384,352,74339,2,4,B|420:268|336:212,1,150
324,208,75045,2,0,B|346:155|428:108,1,100,2|2,0:0|0:0,0:0:0:0:
292,100,75751,1,4,0:0:0:0:
236,180,76104,6,0,B|160:160,1,50,0|4,0:0|0:0,0:0:0:0:
164,172,76457,2,0,P|152:224|164:280,2,100,2|0|4,0:0|0:0|0:0,0:0:0:0:
108,88,77516,2,0,B|52:56,2,50,2|4|2,0:0|0:0|0:0,0:0:0:0:
196,136,78222,6,0,B|262:121|304:60,1,100,2|4,0:0|0:0,0:0:0:0:
296,68,78751,2,0,B|388:140,1,100,2|4,0:0|0:0,0:0:0:0:
392,144,79281,1,2,0:0:0:0:
368,240,79634,2,0,B|288:176,1,100,0|4,0:0|0:0,0:0:0:0:
192,168,80339,6,2,B|116:168|68:232,1,100
96,300,81045,2,2,B|172:300|220:236,1,100,2|4,0:0|0:0,0:0:0:0:
208,252,81575,1,0,0:0:0:0:
308,236,81928,1,4,0:0:0:0:
348,204,82104,1,2,0:0:0:0:
340,156,82281,1,0,0:0:0:0:
256,192,82457,12,4,83869,0:0:0:0:
